#TITLE:Shining Collection;
#SUBTITLE:;
#ARTIST:Iceman;
#TITLETRANSLIT:;
#SUBTITLETRANSLIT:;
#ARTISTTRANSLIT:;
#GENRE:;
#CREDIT:;
#BANNER:Shining Collection-Banner.png;
#BACKGROUND:Shining Collection-Background.png;
#LYRICSPATH:;
#CDTITLE:;
#MUSIC:Shining Collection - Iceman.ogg;
#OFFSET:0.009000;
#SAMPLESTART:81.500000;
#SAMPLELENGTH:11.647000;
#SELECTABLE:YES;
#BPMS:0.000000=170.000000
;
#STOPS:
;
#BGCHANGES:;
#KEYSOUNDS:;
#ATTACKS:;

//---------------dance-single - ----------------
#NOTES:
     dance-single:
     :
     Beginner:
     2:
     0.178049,0.227457,0.035610,0.049854,0.000000,175.000000,170.000000,5.000000,7.000000,0.000000,0.000000,0.178049,0.227457,0.035610,0.049854,0.000000,175.000000,170.000000,5.000000,7.000000,0.000000,0.000000:
0000
0000
0000
0000
,
0000
0000
0000
0000
,
0000
0000
0000
0000
,
0000
0000
0000
0000
,
0000
1000
0000
0001
,
0000
1000
0000
0001
,
0000
0100
0000
0010
,
0020
0000
0030
0000
,
1001
0000
1000
0000
,
0010
0010
0010
0000
,
1000
0000
0001
0000
,
0100
0100
0100
0000
,
0001
0000
0010
0000
,
0100
0000
0100
0000
,
1000
0000
0010
0000
,
0100
0000
0100
0000
,
0001
0000
0000
0100
,
0100
0000
0000
1000
,
1000
0000
0000
0010
,
0010
0000
0010
0000
,
1000
0000
0000
0100
,
0100
0000
0000
0001
,
0001
0000
0000
0010
,
0010
0000
0000
0000
,
0001
0000
1000
0000
,
0100
0000
0100
0000
,
1000
0000
0001
0000
,
0100
0000
0100
0000
,
1000
0000
0010
0000
,
0100
0100
0100
0000
,
0001
0000
0010
0000
,
0100
0100
0100
0000
,
2000
0000
3000
0000
,
0001
0000
0001
0000
,
1000
0000
1000
0000
,
0010
0000
0010
0000
,
0100
0000
0000
0000
,
1000
0000
1000
0000
,
0001
0000
0001
0000
,
0010
0000
0010
0000
,
0100
0000
0000
0000
,
0010
0000
0010
0000
,
0001
0000
0001
0000
,
1000
0000
1000
0000
,
0100
0000
0000
0000
,
0010
0000
0010
0000
,
1000
0000
1000
0000
,
0001
0000
0001
0000
,
0100
0000
0100
0000
,
0010
0010
0010
0000
,
1000
0000
0001
0000
,
0100
0100
0100
0000
,
0001
0000
1000
0000
,
0100
0100
0100
0000
,
0001
0000
0100
0000
,
1000
1000
1000
0000
,
0010
0000
0001
0002
,
0000
0003
0000
0000
,
1001
0000
0000
0000
,
0001
0000
0010
0000
,
0100
0000
1000
1000
,
1000
0000
1000
0000
,
0010
0000
0000
0000
,
1000
0000
0010
0000
,
0100
0000
0001
0001
,
0001
0000
0100
0000
,
0001
0000
0000
0000
,
0010
0000
0100
0000
,
1000
0000
0001
0000
,
0100
0000
0010
0000
,
0200
0000
0300
0000
,
0020
0000
0030
0000
,
1001
0000
0000
0000
,
1001
0000
0000
0000
,
1000
0000
0010
0000
,
0100
0000
0001
0000
,
1000
0000
0100
0100
,
0100
0000
0010
0000
,
0001
0000
1000
0000
,
0010
0000
0100
0000
,
0001
0000
1000
0000
,
0001
0000
0010
0000
,
0100
0100
0100
0000
,
1000
0000
0001
0000
,
1000
0000
0010
0000
,
0100
0000
0000
0100
,
0100
0000
0000
0010
,
0010
0000
0000
1000
,
1000
0000
0000
0001
,
0001
0000
0000
0000
,
2002
0000
0000
0000
,
0000
3003
0000
0000
;

//---------------dance-single - ----------------
#NOTES:
     dance-single:
     :
     Easy:
     5:
     0.354063,0.422421,0.270634,0.156683,0.000000,348.000000,310.000000,38.000000,22.000000,0.000000,0.000000,0.354063,0.422421,0.270634,0.156683,0.000000,348.000000,310.000000,38.000000,22.000000,0.000000,0.000000:
0000
0000
0000
0000
,
0000
0000
0000
0000
,
0000
0000
0000
0000
,
0000
0000
0000
0000
,
1000
0010
0000
0010
,
0100
0001
0000
0001
,
0010
0100
0000
0010
,
0100
1000
0001
1000
,
0001
0101
1000
1100
,
0001
0010
0100
0100
,
1000
1010
0001
0011
,
1000
0100
0010
0001
,
1000
0110
0001
0110
,
1000
0100
0001
0100
,
1000
1010
0001
0011
,
0100
1000
0100
0001
,
2000
3010
0100
0100
,
0002
0013
0100
0100
,
2000
3001
0100
0100
,
0010
0100
1001
0000
,
0002
0013
0100
1000
,
0002
0103
0010
1000
,
2000
3001
1000
0100
,
0010
0100
1001
0000
,
0011
1001
0011
1001
,
0001
0100
1000
0100
,
0010
0010
0100
0100
,
0001
1000
0001
0000
,
1010
1001
1010
1001
,
1000
0100
0010
0001
,
0100
0010
0100
0001
,
1000
0100
0010
0000
,
0001
1000
0001
0100
,
0020
1000
0200
0330
,
0001
0100
1000
0100
,
0001
1000
0001
1000
,
0100
0000
0010
0001
,
0200
0000
0020
0330
,
1000
0100
1000
1000
,
0001
0010
0001
0001
,
1000
0000
0010
0100
,
0002
0000
2000
3003
,
0100
1000
0001
0100
,
0010
1000
0001
0010
,
0100
0000
0010
0001
,
0200
0000
0020
0330
,
1000
0010
0001
0010
,
1000
0001
1000
0001
,
0100
0010
0100
0010
,
1000
1100
0001
0101
,
1000
0100
0010
0001
,
1000
1010
0001
0011
,
0100
0010
1000
0001
,
0010
1001
0100
1001
,
0100
0010
1000
0001
,
0010
1100
0010
0101
,
0100
0010
1000
0001
,
0200
0000
0000
0300
,
0010
1000
0100
0100
,
0010
0001
0100
0100
,
0010
0100
0001
0100
,
1000
0000
0100
0001
,
0011
0100
1000
0000
,
1010
0100
0001
0000
,
0110
0001
1000
0001
,
0110
0000
0010
0001
,
2000
0100
0001
3100
,
0010
0001
1000
0010
,
0100
0100
0010
1000
,
0001
0000
1000
0001
,
0002
0100
1000
0103
,
0010
1000
0001
0010
,
0100
0000
1000
0000
,
0001
0000
0100
0000
,
0110
0001
1000
0001
,
0100
0010
1000
0100
,
1100
0001
0101
1000
,
1001
0000
0001
0010
,
0200
0310
0001
0000
,
1000
0010
0100
0010
,
1000
1000
0001
0001
,
0100
0000
0010
1000
,
1100
0001
0100
0010
,
1000
0100
0010
0001
,
0100
0100
0010
0010
,
1001
0000
0001
0010
,
0011
0001
1000
0100
,
0010
0010
0100
0100
,
2000
0000
3002
0000
,
1003
0100
0010
0001
,
2002
0000
0000
0000
,
0000
3003
0000
0000
;

//---------------dance-single - ----------------
#NOTES:
     dance-single:
     :
     Medium:
     7:
     0.483275,0.519902,0.534146,0.014244,0.000000,475.000000,400.000000,75.000000,2.000000,0.000000,0.000000,0.483275,0.519902,0.534146,0.014244,0.000000,475.000000,400.000000,75.000000,2.000000,0.000000,0.000000:
0000
0000
0000
0000
,
0000
0000
0000
0000
,
0000
0000
0000
0000
,
0000
0000
0000
0000
,
1000
1100
0001
0101
,
1000
0000
1100
0000
0001
0100
0001
0000
,
1000
1010
0001
0011
,
1000
0001
1000
0001
1000
0001
1000
0000
,
0001
0100
0001
0100
0010
1000
0010
0000
,
1000
0100
0010
0001
,
1000
0100
1000
0100
0010
0001
0010
0000
,
0001
0100
0010
1000
,
0010
0100
0010
0100
0001
1000
0001
0000
,
1000
0100
0010
0001
,
0100
0010
0100
0010
1000
0001
1000
0000
,
0001
0010
0100
1000
,
0001
0100
0001
0000
1000
0000
1001
0000
,
1000
0100
1000
0000
0001
0000
1001
0000
,
0001
0010
0100
0000
0010
0000
0011
0000
,
1000
0000
0010
0100
0001
0000
1000
0000
,
1000
0010
1000
0000
0001
0000
0110
0000
,
0100
0001
1000
0000
0001
0000
0011
0000
,
0100
1000
0100
0000
1000
0000
1100
0000
,
0001
0100
0010
1000
,
0101
0101
1100
1100
,
0001
1000
0001
1000
0001
0000
0100
0000
,
0010
0010
0100
0100
,
0010
0000
1000
0001
1000
0000
0100
0000
,
1010
1010
0011
0011
,
0001
1000
0001
1000
0001
0000
0100
0000
,
0010
0010
0100
0100
,
0001
0000
0001
1000
0100
0000
0100
0000
,
0010
0001
1001
0000
,
1001
0010
1001
0100
,
0101
1100
1010
0011
,
0001
0000
0010
0000
0100
0000
1000
0001
,
1000
0001
1001
0010
,
1001
0100
0001
0010
,
0011
0100
1100
1000
,
1010
0001
0101
0100
,
0010
1000
0001
0100
,
1100
0100
0101
0010
,
0011
1000
1010
0001
,
1001
0000
0100
0000
1001
0000
0100
0001
,
1000
0010
1100
0010
,
0101
0010
1000
0001
,
1001
0100
1001
0010
,
1001
0000
0001
0010
0100
0000
0010
0000
,
0001
0100
0010
1000
,
0001
0010
0001
0010
0100
1000
0100
1000
,
0001
0100
0010
1000
,
0001
1000
0001
1000
0010
0100
0010
0100
,
0001
1000
0100
0010
,
0001
0100
0001
0100
1000
0100
1000
0100
,
0001
1000
0100
0010
,
0001
0010
0001
0010
1000
0010
1000
0010
,
0001
1000
0100
0010
,
0002
0000
0000
0003
,
1000
1100
0001
0101
,
0110
1010
0110
0011
,
0010
0000
1000
0000
0001
0000
0100
0010
,
1000
0001
1000
0001
,
0010
0110
0100
0110
,
0001
0101
1000
1100
,
0011
0000
0110
0000
1100
0000
0001
0100
,
0010
1000
0001
0100
,
0001
0011
1000
1010
,
0001
0101
1000
1100
,
0110
0000
0010
0000
1001
0000
1000
0100
,
0010
0001
1000
0100
,
0110
0100
1001
1000
,
0010
0100
0001
1000
,
0001
0000
0000
0100
0010
0000
1000
0000
,
0001
0000
0000
0010
0100
0000
1000
0000
,
0001
0100
0001
0000
1000
0000
0001
0000
,
1000
0100
1000
0000
0001
0000
0010
0000
,
1100
0000
0010
0000
0101
0000
0100
0010
,
0100
0001
1000
0010
,
0100
0000
0000
0001
1000
0000
0001
0000
,
0010
0000
0000
0100
0010
0000
0001
0000
,
1000
1010
0001
0011
,
1000
0100
0010
0000
0001
0000
1000
0000
,
0010
0000
0000
0100
0010
0000
1000
0000
,
0001
0000
0000
1000
0001
0000
0010
0000
,
1100
0000
0010
0000
0101
0000
0100
0001
,
1000
0001
0010
0100
,
1100
0000
0101
0000
,
1010
0001
0011
0010
,
0110
0000
0100
1000
0001
0000
1000
0000
,
0010
0100
0010
0100
0001
1000
0001
1000
,
0200
0000
0000
0000
,
0000
0300
0000
0000
;

//---------------dance-single - ----------------
#NOTES:
     dance-single:
     :
     Hard:
     8:
     0.580948,0.552396,0.249268,0.099707,0.028488,571.000000,536.000000,35.000000,14.000000,0.000000,0.000000,0.580948,0.552396,0.249268,0.099707,0.028488,571.000000,536.000000,35.000000,14.000000,0.000000,0.000000:
// measure 0
0000
0000
0000
0000
,  // measure 1
0000
0000
0000
0000
,  // measure 2
0000
0000
0000
0000
,  // measure 3
0000
0000
0000
0000
,  // measure 4
0001
0000
0010
0100
0000
0010
0001
0000
,  // measure 5
1000
0000
0010
0100
0000
0010
1000
0000
,  // measure 6
0001
0000
0100
1000
0000
0100
0001
0000
,  // measure 7
1000
0100
0010
0001
1000
0010
0100
0001
,  // measure 8
1000
0100
1000
0100
0001
0100
0001
0100
,  // measure 9
1000
0010
0100
0001
0020
0100
0130
0000
,  // measure 10
1000
0010
1000
0010
0001
0010
0001
0010
,  // measure 11
0100
0001
1000
0100
0020
0100
0130
0000
,  // measure 12
0010
0001
0010
0001
0100
1000
0100
1000
,  // measure 13
0100
0010
1000
0001
2000
0100
3100
0000
,  // measure 14
0010
0001
0010
0001
1000
0010
1000
0010
,  // measure 15
0100
1000
0100
0001
0020
0100
0130
0000
,  // measure 16
1000
0000
0010
0000
1000
0000
0010
0000
0100
0000
0000
0100
0000
0000
0100
0000
,  // measure 17
0001
0000
0010
0000
0001
0000
0010
0000
0100
0000
0000
0100
0000
0000
0100
0000
,  // measure 18
1000
0000
0001
0000
1000
0000
0001
0000
0100
0000
0000
0100
0000
0000
0100
0000
,  // measure 19
0010
0000
0000
1000
0000
0000
0001
0000
1000
0000
0001
0000
1001
0000
0000
0000
,  // measure 20
0010
0000
0001
0000
1000
0000
0001
0000
0010
0000
0000
0010
0000
0000
0010
0000
,  // measure 21
0100
0000
1000
0000
0001
0000
1000
0000
0010
0000
0000
0010
0000
0000
0010
0000
,  // measure 22
0100
0000
0010
0000
0100
0000
0001
0000
0010
0000
0000
0010
0000
0000
0010
0000
,  // measure 23
0100
0000
0000
1000
0000
0000
0001
0000
0100
0000
0000
0000
0001
0000
0010
0000
,  // measure 24
0011
1001
1100
1001
,  // measure 25
0001
0100
1000
0100
0002
0010
0013
0000
,  // measure 26
0100
1000
0001
1000
0100
0010
0001
1000
,  // measure 27
0001
0100
0010
0100
0001
1000
0100
0000
,  // measure 28
1010
1001
0101
1001
,  // measure 29
1000
0010
0001
0010
2000
0100
3100
0000
,  // measure 30
0010
0001
1000
0001
0100
0010
1000
0001
,  // measure 31
1000
0100
0010
0001
0100
0010
0100
0002
,  // measure 32
2000
0000
0000
3003
,  // measure 33
1001
0000
0010
0100
1001
0000
0001
0010
,  // measure 34
0100
1000
0100
1000
0001
0100
0001
0100
,  // measure 35
0010
0000
1000
0100
0010
0000
0001
0100
,  // measure 36
1000
0100
0001
0010
,  // measure 37
1001
0000
0100
0010
1001
0000
0001
0000
,  // measure 38
1000
0010
1000
0010
0001
0010
0001
0010
,  // measure 39
1000
0000
0001
0100
0010
0000
0100
1000
,  // measure 40
0100
0001
1000
0000
0100
0000
0010
0000
,  // measure 41
0011
1000
1010
0001
,  // measure 42
0100
0010
1000
0000
0001
0100
0010
0000
,  // measure 43
1000
0100
0001
0100
1000
0010
0001
0010
,  // measure 44
1000
0001
0010
0100
,  // measure 45
1100
0001
0101
1000
,  // measure 46
0010
1000
0001
0000
1000
0001
0100
0000
,  // measure 47
0001
0100
0010
0100
1000
0100
0001
1000
,  // measure 48
0100
0001
0100
0010
0100
1000
0001
0000
,  // measure 49
0001
0010
0001
0010
1000
0010
1000
0010
,  // measure 50
0001
0100
0010
1000
0200
0010
0310
0000
,  // measure 51
0001
0100
0001
0100
1000
0100
1000
0100
,  // measure 52
0010
1000
0001
0010
0200
0010
0310
0000
,  // measure 53
0100
1000
0100
1000
0010
0001
0010
0001
,  // measure 54
0010
0100
0001
1000
0002
0010
0013
0000
,  // measure 55
0100
1000
0100
1000
0001
0100
0001
0100
,  // measure 56
0010
0001
0010
1000
0200
0010
0310
0000
,  // measure 57
0000
0000
0000
0010
,  // measure 58
1001
0000
0100
0010
1001
0000
1000
0100
,  // measure 59
0010
0001
0010
0001
1000
0010
1000
0010
,  // measure 60
0100
0000
0001
0010
0100
0000
1000
0010
,  // measure 61
0001
0010
1000
0100
,  // measure 62
1001
0000
0010
0100
1001
0000
1000
0000
,  // measure 63
0001
0100
0001
0100
1000
0100
1000
0100
,  // measure 64
0001
0000
1000
0010
0100
0000
0010
0001
,  // measure 65
0010
1000
0001
0000
0010
0000
0100
0000
,  // measure 66
1100
0001
0101
1000
,  // measure 67
0010
0100
0001
0000
1000
0010
0100
0000
,  // measure 68
0001
0010
1000
0010
0001
0100
1000
0100
,  // measure 69
0001
1000
0100
0010
,  // measure 70
0011
1000
1010
0001
,  // measure 71
0100
0001
1000
0000
0001
1000
0010
0000
,  // measure 72
1000
0010
0100
0010
0001
0010
1000
0001
,  // measure 73
0010
1000
0010
0100
0010
0001
1000
0000
,  // measure 74
0001
1001
0010
0110
,  // measure 75
0100
0001
0010
0000
0100
1000
0010
0000
,  // measure 76
1000
0010
0100
0010
0001
0010
1000
0001
,  // measure 77
0100
1000
0100
0010
0100
0001
1000
0000
,  // measure 78
0100
0011
0010
1100
,  // measure 79
1000
0000
0001
0100
0010
0000
1000
0010
,  // measure 80
0100
0001
1000
0100
0001
0100
0010
1000
,  // measure 81
0010
0001
1000
0000
0010
0000
0100
0000
,  // measure 82
0101
0010
1100
0010
,  // measure 83
1000
0001
0100
0000
0001
1000
0010
0000
,  // measure 84
1000
0100
0010
0001
1000
0010
0100
0001
,  // measure 85
1000
0001
0100
0000
0010
0000
1000
0000
,  // measure 86
0101
1000
1100
0001
,  // measure 87
0011
1000
1010
0010
,  // measure 88
0100
0000
0001
1000
0100
0000
1000
0001
,  // measure 89
0100
0010
1000
0001
0010
0100
1000
0002
,  // measure 90
0200
0000
0000
0000
,  // measure 91
0000
0303
0000
0000
;

//---------------dance-single - ----------------
#NOTES:
     dance-single:
     :
     Challenge:
     13:
     1.019456,1.072299,0.071219,0.049854,1.221414,1002.000000,992.000000,10.000000,7.000000,26.000000,0.000000,1.019456,1.072299,0.071219,0.049854,1.221414,1002.000000,992.000000,10.000000,7.000000,26.000000,0.000000:
0000
0000
0000
0000
,
0000
0000
0000
0000
,
0000
0000
0000
0000
,
0000
0000
0000
0000
,
1000
0000
0001
0100
0001
1000
0010
1000
0001
0010
0001
1000
0100
1000
0001
0010
,
0100
0000
1000
0010
1000
0001
0010
0001
1000
0100
1000
0001
0100
0001
1000
0010
,
1000
0000
0001
0010
0001
0100
0010
0100
0001
1000
0001
0100
0010
0100
0001
0010
,
0100
1000
0100
1000
0100
1000
0100
1000
0100
1000
0100
1000
0100
1000
0100
1000
,
0001
0000
0100
0000
1000
0000
0100
0000
0001
0000
1000
0100
0010
0001
0010
0100
,
1000
0010
0100
0010
2000
0001
3001
MMM0
,
0001
0000
0100
0000
0010
0000
0100
0000
0001
0000
1000
0001
0100
0010
0100
0001
,
1000
0000
0001
0000
0010
0000
0001
0000
0100
0000
0001
1000
0001
1000
0001
0000
,
1000
0000
0010
0000
0001
0000
0010
0000
1000
0000
0001
0010
0100
1000
0100
0010
,
0001
0100
0010
0100
0002
1000
1003
0MMM
,
1000
0000
0010
0000
0100
0000
0010
0000
1000
0000
0001
1000
0010
0100
0010
1000
,
0001
0000
1000
0000
0100
0000
1000
0000
0010
0000
1000
0001
1000
0001
1000
0001
,
0100
0000
0010
0000
1000
0000
0010
0000
0100
0000
0001
1000
0001
0000
0100
0000
,
0010
0000
1000
0000
0100
0000
1000
0000
0010
0100
0010
1000
0001
0000
0010
0000
,
0100
0000
0010
0000
0001
0000
1000
0000
0100
0000
0010
0100
1000
0000
0001
0000
,
0100
0010
0100
0001
1000
0100
0010
0100
1000
0001
0010
0100
2000
0000
0001
0000
,
3001
0000
0100
0000
0001
0000
0100
0000
0010
0000
1000
0001
1000
0000
0010
0000
,
0100
0000
0001
0000
0010
0000
0001
0000
0100
0010
0100
0001
1000
0000
0100
0000
,
0010
0000
0100
0000
1000
0000
0001
0000
0010
0000
0100
0010
0001
0000
1000
0000
,
0010
0100
0010
1000
0001
0010
0100
0010
0001
1000
0100
0010
0001
0000
1000
0001
,
1001
000M
1010
00M0
1100
0M00
1001
M00M
,
4001
0000
0000
0000
0010
0000
0000
0000
3001
0000
0001
0100
0010
1000
0100
1000
,
0001
0100
0010
0000
0100
0000
0001
0000
1000
0100
0010
0000
0100
0000
1000
0000
,
0001
0010
0100
1000
0001
0100
0010
0100
0001
0000
1000
0010
1000
0000
0100
0000
,
1001
M000
0101
0M00
0011
00M0
1001
M00M
,
1004
0000
0000
0000
0100
0000
0000
0000
1003
0000
1000
0010
0100
0001
0010
0001
,
0100
0010
0100
0000
0001
0000
1000
0000
0100
0010
0100
0000
1000
0000
0001
0000
,
0010
0100
1000
0001
0100
0001
1000
0010
0100
0000
0001
0000
1000
0000
0100
0000
,
1000
0001
1000
0001
1000
0001
1000
0001
1000
0000
0000
0000
MMMM
0000
0000
0000
,
0010
0000
0100
0001
0000
0001
0100
0000
0010
0000
1000
0000
0001
0010
0001
0000
,
0010
0000
0100
1000
0000
1000
0100
0000
0010
0000
0001
0000
1000
0010
1000
0000
,
0001
0000
0100
0010
0100
0000
0001
1000
0001
0000
0010
0100
0010
0000
0100
1000
,
0100
0000
0010
0000
0001
0000
1000
0000
0010
0100
0001
1000
0010
0100
0001
1000
,
0010
0000
0100
0010
0000
0010
0100
0000
0001
0000
1000
0000
0100
1000
0100
0000
,
0010
0000
0001
0100
0000
0100
0001
0000
1000
0000
0100
0000
1000
0010
1000
0000
,
0100
0000
0010
0001
0010
0000
0100
1000
0100
0000
1000
0010
1000
0000
0001
0100
,
0001
0000
0100
0010
0100
0000
0001
0000
0100
0010
0100
0001
1000
0010
0100
0001
,
1000
0010
1000
0000
0001
0000
0100
0000
0010
0000
0100
0001
0000
0001
0100
0000
,
0010
0000
1000
0000
0001
0010
0001
0000
1000
0000
0100
0010
0000
0010
0100
0000
,
1000
0001
1000
0010
0100
0001
0100
0010
1000
0001
0010
0100
1000
0010
0100
0001
,
1000
0000
0001
0100
0001
0000
1000
0100
1000
0000
0001
0010
0001
0000
1000
0000
,
0010
0000
0100
0010
0100
0000
0001
1000
0001
0000
1000
0100
1000
0000
0001
0010
,
0001
0000
1000
0010
1000
0000
0001
0100
0001
0000
1000
0100
0010
0000
0001
0010
,
0100
0000
1000
0010
0100
0000
0001
0100
0010
0000
1000
0100
0010
0000
0001
0010
,
0100
1000
0001
0100
0010
0100
0001
0100
0010
1000
0001
0010
0100
0010
0100
0010
,
0001
0000
0100
0000
1000
0000
0100
0000
0001
0000
1000
0100
0010
0001
0010
0100
,
1000
0010
0100
0010
2000
0001
3001
MMM0
,
0001
0000
0100
0000
0010
0000
0100
0000
0001
0000
1000
0001
0100
0010
0100
0001
,
1000
0000
0001
0000
0010
0000
0001
0000
0100
0000
0001
1000
0001
1000
0001
0000
,
1000
0000
0010
0000
0001
0000
0010
0000
1000
0000
0001
0010
0100
1000
0100
0010
,
0001
0100
0010
0100
0002
1000
1003
0MMM
,
1000
0000
0010
0000
0100
0000
0010
0000
1000
0000
0001
1000
0010
0100
0010
1000
,
0001
0000
1000
0000
0100
0000
1000
0000
0010
0000
1000
0001
1000
0001
1000
0001
,
0000
0000
0000
0000
,
0100
0000
0010
1000
0000
1000
0010
0000
0100
0000
0001
0000
1000
0100
1000
0000
,
0100
0000
0010
0001
0000
0001
0010
0000
0100
0000
1000
0000
0001
0100
0001
0000
,
1000
0000
0010
0100
0010
0000
1000
0001
1000
0000
0100
0010
0100
0000
0010
0001
,
0010
0000
0100
0000
1000
0000
0001
0000
0100
0010
1000
0001
0100
0010
1000
0001
,
0100
0000
0010
0100
0000
0100
0010
0000
1000
0000
0001
0000
0010
0001
0010
0000
,
0100
0000
1000
0010
0000
0010
1000
0000
0001
0000
0010
0000
0001
0100
0001
0000
,
0010
0000
0100
1000
0100
0000
0010
0001
0010
0000
0001
0100
0001
0000
1000
0010
,
1000
0000
0010
0100
0010
0000
1000
0000
0010
0100
0010
1000
0001
0100
0010
1000
,
0001
0000
1000
0100
1000
0000
0001
0000
0010
0000
0100
0010
0000
0010
0100
0000
,
1000
0000
0001
0100
0001
0000
1000
0000
0010
0000
0100
0010
0000
0010
0100
0000
,
0001
0000
1000
0100
1000
0000
0001
0100
0001
0000
1000
0010
1000
0000
0001
0010
,
0001
0000
1000
0000
0010
0000
0100
0000
0001
0000
1000
0100
1000
0000
0001
0000
,
0010
0000
0100
0010
0100
0000
0010
0000
0001
0000
0100
0001
0000
0001
1000
0000
,
0010
0000
0100
0000
0001
1000
0001
0000
0100
0000
0010
0000
1000
0001
1000
0000
,
0100
0000
0010
0000
0001
1000
0001
0000
0010
0000
0100
0000
1000
0001
1000
0000
,
0001
0100
1000
0100
0001
1000
0100
0010
,
0001
0010
0100
1000
0001
0100
0010
1000
0001
0100
0010
1000
0100
0010
0001
1000
,
0010
0100
0001
1000
0100
1000
0001
0100
0001
1000
0010
1000
0001
0010
0001
1000
,
0010
0100
0010
1000
0010
0100
0010
1000
0001
0100
0010
0100
0001
0100
0010
1000
,
0100
0010
0100
1000
0100
0010
0100
1000
0001
0010
0100
1000
0001
0100
0010
1000
,
0001
0010
0100
1000
0001
1000
0100
1000
0001
0100
0001
1000
0010
1000
0001
0100
,
0010
0100
0001
1000
0100
0010
0001
1000
0010
1000
0100
1000
0010
0100
0001
0010
,
0001
0100
0010
0100
0001
0010
0100
1000
0001
0100
0001
1000
0100
1000
0001
0100
,
0010
1000
0001
0010
0100
1000
0001
0100
0010
0100
0001
1000
0100
0010
0100
1000
,
0001
0000
1000
0100
0010
0100
1000
0001
0010
0100
0010
0001
1000
0010
0100
0010
,
1000
0001
0100
0010
0100
0001
1000
0100
1000
0001
0100
0001
1000
0010
1000
0001
,
0010
0001
1000
0010
0100
0001
1000
0100
0010
0001
1000
0010
0100
0001
1000
0100
,
1000
0001
0100
0010
1000
0001
0010
0100
1000
0000
0001
0000
0100
0000
0010
0000
,
0100
0001
0010
0100
1000
0001
1000
0100
0010
0001
1000
0001
0100
0010
0100
0001
,
0010
0001
1000
0010
1000
0100
0010
0100
1000
0001
0100
0010
1000
0100
1000
0001
,
0100
0010
1000
0001
0100
0010
0100
0001
0010
0001
1000
0100
0010
0001
1000
0010
,
0100
0001
1000
0001
1000
0001
1000
0001
1000
0001
1000
0001
1000
0001
1000
0002
,
2000
0000
0000
0000
,
0000
3003
0000
0000
;

//---------------dance-double - ----------------
#NOTES:
     dance-double:
     :
     Easy:
     5:
     0.347958,0.388858,0.099707,0.071219,0.000000,342.000000,328.000000,14.000000,10.000000,0.000000,0.000000,0.347958,0.388858,0.099707,0.071219,0.000000,342.000000,328.000000,14.000000,10.000000,0.000000,0.000000:
00000000
00000000
00000000
00000000
,
00000000
00000000
00000000
00000000
,
00000000
00000000
00000000
00000000
,
00000000
00000000
00000000
00000000
,
00000000
00000001
00000000
00001000
,
00000000
00000001
00000000
00001000
,
00000000
00000100
00000000
00010000
,
00001000
00000000
00010000
00000000
00001000
00010000
00001000
00000000
,
00010000
00100000
01000000
00010000
,
10000000
00000000
00010000
10000000
00020000
00000000
00030000
00000000
,
10000000
01000000
00010000
00001000
,
00000100
00000000
00000001
00001000
00000002
00000000
00000003
00000000
,
00000010
00000100
00010000
00000100
,
00000010
00000000
00000001
00001000
00000002
00000000
00000003
00000000
,
00000100
00001000
00010000
00100000
,
01000000
00000000
00010000
10000000
00020000
00000000
00030000
00000000
,
00100000
00010000
01000000
00010000
,
00100000
00001000
00010000
00000100
,
00010000
00001000
00000100
00000010
,
00001000
00000001
00002002
00003003
,
00000001
00000010
00000100
00010000
,
00000100
00000010
00001000
01000000
,
00001000
00100000
01000000
10000000
,
01000000
00100000
00020000
00030000
,
00110000
10010000
00110000
10010000
,
10000000
01000000
00010000
00000000
,
00001000
00010000
00001000
00000100
,
00000001
00001000
00000100
00000000
,
00000011
00001001
00000011
00001001
,
00000001
00000010
00001000
00000000
,
00010000
00001000
00000100
00000010
,
00001000
00000001
00001000
00000001
,
00000010
00000100
00001000
00000000
,
00000001
00000100
00000010
00000100
,
00000001
00001000
00000100
00010000
,
00001000
00000000
00000000
00001000
01000000
00000000
00000000
01000000
,
00100000
00000000
00100000
10000000
,
00010000
10000000
01000000
00010000
,
00001000
00010000
00000100
00010000
,
00001000
00000100
00000010
00001000
,
00000001
00000010
00000100
00001000
,
00000101
00000000
00001100
00000000
,
00000001
00000010
00000100
00010000
,
00001000
00000000
00000000
00100000
00010000
00000000
00000000
10000000
,
01000000
00000000
00100000
00010000
,
01000000
10000000
01000000
00100000
,
10000000
01000000
00010000
01000000
,
00100000
00010000
01000000
00001000
,
00010000
00000100
00001000
00000001
,
00000010
00000001
00000010
00000000
00000001
00000000
00000100
00000000
,
00000010
00001000
00000100
00000000
,
00010000
00001000
00010000
00000000
00001000
00000000
01000000
00000000
,
00100000
10000000
00010000
00000000
,
10000000
01000000
10000000
00000000
01000000
00000000
00010000
00000000
,
00001000
00000100
00000001
00000000
,
00000010
00000001
00000010
00000000
00000001
00000000
00001000
00000000
,
00000100
00000010
00001000
00020000
,
00000000
00000000
00030000
00000000
,
00100000
01000000
00010000
10000000
,
01000000
00100000
00010000
01000000
,
00001000
00000000
00000000
00010000
00000100
00000000
00000000
00000010
,
00000001
00000000
00000100
00000010
,
00000100
00000001
00000010
00001000
,
00010000
00100000
10000000
00010000
,
10000000
10000000
00010000
00010000
,
01000000
01000000
00100000
10000000
,
11000000
01000000
00100000
00010000
,
00001000
00000100
00000010
00000001
,
00000100
00000000
00000000
00000001
00001000
00000000
00000000
00000100
,
00010000
00000000
00000000
00001000
00010000
00000000
00100000
00000000
,
01000000
00010000
10000000
01000000
,
00100000
00010000
01000000
10000000
,
01000000
00010000
10000000
01000000
,
00100000
00000000
00010000
00000000
10000000
00010000
10000000
00000000
,
00100000
00000000
00000000
00100000
01000000
00000000
01000000
00000000
,
00010000
00100000
00001000
00010000
,
00000100
00000000
00000000
00000100
00000010
00000000
00000000
00000010
,
00000001
00000100
00000010
00000100
,
00000001
00000001
00001000
00001000
,
00000001
00000010
00000100
00001000
,
00000011
00000100
00001100
00000010
,
00000100
00000001
00000100
00000010
,
00001000
00000001
00000010
00000100
,
00010000
00001000
00100000
01000000
,
10000000
00000000
00000000
00010000
01000000
00000000
00000000
00100000
,
10000000
00010000
00100000
00100000
,
01000000
01000000
10000000
00010000
,
01000000
00100000
10000000
01000000
,
00010000
00000000
00000000
00001000
00010000
00000000
00001000
00000000
,
00010000
00000000
00000100
00000000
00000010
00000000
00000001
00002000
,
00000002
00000000
00000000
00000000
,
00003003
00000000
00000000
00000000
;

//---------------dance-double - ----------------
#NOTES:
     dance-double:
     :
     Medium:
     6:
     0.407986,0.518478,0.299122,0.113951,0.000000,401.000000,359.000000,42.000000,16.000000,0.000000,0.000000,0.407986,0.518478,0.299122,0.113951,0.000000,401.000000,359.000000,42.000000,16.000000,0.000000,0.000000:
00000000
00000000
00000000
00000000
,
00000000
00000000
00000000
00000000
,
00000000
00000000
00000000
00000000
,
00000000
00000000
00000000
00000000
,
10000000
00000000
01000000
00100000
00000000
00000000
00010000
00000000
,
01000000
00000000
00001000
00010000
00000000
00000000
00000100
00000000
,
00000010
00000000
00000001
00000100
00000000
00000000
00000010
00000000
,
00001000
00000001
00001000
00000001
00001000
00000001
00001000
00000000
,
00000001
00000011
00001000
00001100
,
00000010
00000100
00001000
00010000
,
01000000
11000000
00100000
00110000
,
01000000
10000000
00010000
01000000
,
00001000
00011000
00010000
00011000
,
00000100
00000010
00001000
00000100
,
00000010
00001100
00000010
00000101
,
00000001
00000000
00001000
00000001
00001000
00000000
00000001
00000000
,
00000100
00000100
00000010
00000010
,
00010000
00001000
00100000
00100000
,
01000000
01000000
10000000
00010000
,
01000000
00100000
01000000
00010000
01000000
00000000
00000000
00000000
,
00010000
00100000
01000000
10000000
,
01000000
00010000
00001100
00000100
,
00000001
00000100
00000010
00001000
,
01010000
01000000
00100000
00000000
,
10100000
01010000
00011000
00001100
,
00000011
00001100
00011000
00010000
,
00001000
00010000
00100000
01000000
,
00010000
10000000
01000000
00000000
,
10000000
01000000
00010000
00000100
,
00000010
00000000
00000001
00000000
00000100
00000001
00001000
00000000
,
00000001
00000100
00010000
01000000
,
00100000
00000000
10000000
00010000
10000000
00000000
01000000
00000000
,
00100000
00100000
10010000
00000000
,
02000000
00000000
13000000
00000000
00010000
01000000
00010000
00000000
,
00100000
00001000
00010000
00000100
,
00000010
00000000
00000010
00000000
00000001
00000000
00000001
00001000
,
00000010
00000100
00000001
00000001
,
00002000
00000000
00003100
00000000
00000010
00000001
00000010
00000000
,
00000100
00010000
00001000
01000000
,
00100000
10000000
00010000
10000000
,
11000000
00000000
00010000
10000000
,
02000000
00100000
13000000
00100000
,
00010000
00000000
00001000
00000000
00000010
00000000
00000100
00001000
,
00000001
00000100
00000010
00001000
,
00000001
00000100
00000001
00001000
,
00000002
00000010
00000103
00000010
,
00001000
00000100
00010000
00001000
,
00000100
00001000
01000000
00100000
,
10000000
01000000
00100000
00000000
,
00010000
10000000
00010000
00000000
10000000
00000000
01000000
00000000
,
00100000
00001000
00000010
00000001
,
00001000
00000001
00001000
00000000
00000001
00000000
00000010
00000000
,
00001000
00100000
01000000
10000000
,
00010000
01000000
00010000
00000000
00100000
00000000
00001000
00000000
,
00000010
00000001
00001000
00000001
,
00001000
00000001
00001000
00000000
00000001
00000000
00000010
00000000
,
00010000
01000000
00100000
20000000
,
00020000
00000000
00000000
30030000
,
10010000
01000000
00100000
00000000
,
01000000
00010000
00001000
00000100
,
00000110
00000110
00001001
00000110
,
00001001
00000000
00000001
00000010
,
00000100
00000100
00010000
00010000
,
00001000
01000000
00100000
10000000
,
11000000
00100000
01010000
00100000
,
10010000
10010000
01000000
00100000
,
00010000
10000000
00010000
10000000
00010000
00000000
10000000
00000000
,
01000000
00010000
00001000
00010000
,
00011000
00101000
00011000
00010010
,
00011000
00000000
00010000
00001000
,
00000100
00000010
00000100
00000000
00000001
00000000
00001000
00000000
,
00000002
00000013
00000200
00001300
,
00000010
00010000
00001000
00000100
,
00001000
00010000
01000000
00100000
,
00010000
01000000
00010000
01000000
00100000
00000000
10000000
00000000
,
11000000
00100000
01010000
00001000
,
00011000
00010100
00011000
01001000
,
00011000
00000100
00000010
00000001
,
00002000
00003010
00000200
00000301
,
00001000
00000000
00000001
00000000
00000100
00000010
00000100
00000000
,
00000002
00000010
00001003
00002000
,
00000100
00003001
00000100
00000010
,
00001001
00000100
00010000
00001000
,
01000000
00100000
10000000
01000000
,
00010000
00000100
00000010
00001000
,
00010000
00100000
01000000
00001000
,
00000100
00000001
00001000
00000001
,
00000200
00000310
00000020
00000130
,
00000002
00000013
00000100
00001000
,
00000001
00001000
00000001
00001000
00000001
00001000
00000001
00001000
,
00000002
00000000
00000000
00000000
,
00000003
00000000
00000000
00000000
;

//---------------dance-double - ----------------
#NOTES:
     dance-double:
     :
     Hard:
     9:
     0.630801,0.550883,0.128195,0.078341,0.000000,620.000000,602.000000,18.000000,11.000000,0.000000,0.000000,0.630801,0.550883,0.128195,0.078341,0.000000,620.000000,602.000000,18.000000,11.000000,0.000000,0.000000:
00000000
00000000
00000000
00000000
,
00000000
00000000
00000000
00000000
,
00000000
00000000
00000000
00000000
,
00000000
00000000
00000000
00000000
,
10000000
01000000
10000000
00100000
00000000
01000000
00010000
00000000
,
00100000
00000000
00001000
00010000
00000000
00001000
00010000
00000000
,
00000100
00001000
00000010
00001000
00000000
00000001
00000010
00000000
,
00000001
00000100
00000001
00000100
00000001
00000100
00000010
00000000
,
00001000
00000100
00001000
00000100
00000010
00000001
00000010
00000001
,
00001000
00000100
00010000
00001000
01000000
00010000
10000000
00000000
,
00010000
00100000
00010000
00100000
01000000
10000000
01000000
10000000
,
00100000
00010000
00001000
00000010
00000100
00001000
00000001
00000000
,
00000100
00000001
00000100
00000001
00001000
00000010
00001000
00000010
,
00000100
00001000
00000100
00000001
00001000
00000100
00000100
00000000
,
00010000
00001000
00010000
00001000
01000000
00100000
01000000
00100000
,
10000000
01000000
00010000
01000000
10000000
01000000
01000000
00000000
,
00100000
00010000
10000000
00010000
01000000
01000000
01000000
00000000
,
00100000
10000000
00010000
10000000
01000000
01000000
01000000
00000000
,
00010000
00001000
00010000
00001000
00000010
00000100
00000010
00000100
,
00001000
00000001
00000100
00001000
00000100
00000001
00001000
00000000
,
00000001
00000010
00000001
00000010
00001000
00010000
00010000
00000000
,
00001000
00010000
00001000
00010000
00100000
10000000
10000000
00000000
,
00010000
00100000
01000000
10000000
01000000
00010000
01000000
10000000
,
00100000
00000000
01000000
00010000
10000000
00000000
00010000
00000000
,
11000000
01010000
00001100
00000101
,
00000001
00000010
00001000
00010000
00100000
10000000
00010000
00000000
,
10100000
00110000
00001010
00000011
,
00000001
00000100
00001000
00010000
01000000
10000000
00010000
00000000
,
01100000
10010000
00011000
00001001
,
00000001
00000010
00000100
00000010
00000001
00001000
00000001
00000000
,
00000110
00001001
00011000
10010000
,
00100000
00000000
01000000
00100000
10000000
00000000
00010000
00000000
,
10000000
00010000
10000000
00010000
20000000
00000000
31000000
00000000
,
10000000
00000000
01000000
00100000
00010000
00000000
10000000
00000000
,
00100000
00010000
00100000
00010000
00001000
00010000
00001000
00010000
,
00001000
00000010
00001000
00000010
00000001
00000010
00000001
00000010
,
00000001
00000100
00001000
00000000
00010000
00001000
01000000
00000000
,
00001000
01000000
00010000
01000000
00100000
10000000
01000000
00000000
,
10000000
01000000
00100000
00000000
00010000
00100000
01000000
00000000
,
10000000
01000000
00010000
01000000
10000000
01000000
00010000
01000000
,
10000000
00000000
00100000
00000000
01000000
00100000
01000000
00000000
,
00100000
01000000
00010000
01000000
00100000
01000000
00010000
00100000
,
00001000
00010000
00000010
00010000
00001000
00010000
00000010
00010000
,
00001000
00000010
00001000
00010000
00100000
00010000
00001000
00000100
,
00000001
00001000
00000001
00000000
00000010
00000100
00001000
00000000
,
00000001
00000100
00000010
00000100
00000001
00000100
00000010
00000100
,
00000001
00000010
00000100
00000010
00000001
00000010
00000100
00000010
,
00000001
00000010
00001000
00010000
00100000
10000000
00020000
00000000
,
10030000
01000000
10000000
00000000
00010000
01000000
00010000
00000000
,
10000000
01000000
10000000
01000000
00100000
00010000
00100000
00010000
,
10000000
00100000
00010000
00001000
00000010
00000001
00000002
00000000
,
00000103
00000001
00000100
00000001
00001000
00000010
00001000
00000010
,
00000100
00000001
00000100
00001000
00010000
01000000
02000000
00000000
,
03100000
00010000
00100000
00010000
10000000
01000000
10000000
01000000
,
00100000
00010000
00001000
00000010
00000100
00000001
00000002
00000000
,
00000103
00000010
00000100
00000010
00001000
00000001
00001000
00000001
,
00000010
00001000
00010000
00100000
20000000
00010000
00020000
00000000
,
00000000
00000000
00000000
30030000
,
11000000
00000000
01010000
00000000
10000000
01000000
00100000
00000000
,
00010000
01000000
00010000
01000000
10000000
01000000
10000000
01000000
,
00010000
00100000
00001000
00010000
00001000
00000010
00000001
00000100
,
00001000
00000100
00000001
00000000
00000100
00000010
00001000
00000000
,
00000001
00000010
00000100
00010000
00000100
00000010
00000100
00000010
,
00000001
00001000
00000001
00001000
00000010
00000100
00000010
00000100
,
00000001
00000010
00001000
00010000
00000100
00010000
00001000
00000100
,
00000010
00001000
00000001
00000010
00000100
00010000
00001000
01000000
,
00100000
00000000
10000000
00010000
01000000
00000000
00200000
00000000
,
10300000
01000000
10000000
01000000
00100000
00010000
00100000
00010000
,
10000000
00100000
01000000
00100000
10000000
01000000
00010000
00001000
,
00000200
00000000
00000301
00000000
00001000
00000001
00000010
00000000
,
00000100
00001000
00000001
00001000
00000100
00001000
00000001
00000000
,
00000010
00000100
00010000
00000000
00000010
00010000
00001000
00000000
,
00100000
00001000
00010000
00100000
01000000
00010000
10000000
00000000
,
00010000
10000000
00010000
10000000
01000000
00100000
01000000
00100000
,
01000000
10000000
00100000
00010000
00001000
00000010
00000001
00001000
,
00000001
00000100
00000001
00001000
00000001
00000010
00001000
00010000
,
00100000
10000000
00010000
10000000
01000000
10000000
00100000
01000000
,
00010000
10000000
01000000
00100000
00001000
00000010
00000100
00001000
,
00000001
00000100
00000010
00001000
00100000
00010000
00001000
01000000
,
00010000
00100000
01000000
10000000
01000000
00010000
01000000
10000000
,
00100000
00010000
00100000
10000000
00010000
01000000
00001000
00010000
,
00000100
00000010
00000010
00000001
00001000
00000010
00000100
00000100
,
00000001
00000100
00001000
00000100
00000001
00000010
00001000
00010000
,
00000100
00010000
00001000
00010000
00000010
00010000
00001000
00010000
,
00100000
00010000
00001000
00010000
01000000
00010000
00001000
00010000
,
00000100
00000010
00000001
00001000
00000010
00000100
00000001
00000100
,
00001000
00000100
00000001
00000010
00001000
00010000
00100000
10000000
,
00001000
10000000
00100000
10000000
01000000
00010000
00001000
00000010
,
00000001
00010000
00000001
00000010
00000100
00001000
00000010
00000100
,
00000001
00000100
00001000
00010000
01000000
10000000
00100000
02000000
,
00020000
00000000
00000000
00000000
,
03030000
00000000
00000000
00000000
;

//---------------dance-double - ----------------
#NOTES:
     dance-double:
     :
     Challenge:
     13:
     0.961463,1.069361,0.113951,0.220780,1.032683,945.000000,929.000000,16.000000,31.000000,0.000000,0.000000,0.961463,1.069361,0.113951,0.220780,1.032683,945.000000,929.000000,16.000000,31.000000,0.000000,0.000000:
00000000
00000000
00000000
00000000
,
00000000
00000000
00000000
00000000
,
00000000
00000000
00000000
00000000
,
00000000
00000000
00000000
00000000
,
00010000
00000000
00001000
00000000
00010000
00000100
00001000
00000000
00000010
00000000
00000100
00000000
00000001
00000010
00000100
00000000
,
00001000
00000000
00000100
00000000
00010000
00001000
01000000
00000000
00100000
00000000
01000000
00000000
20020000
00000000
30030000
00000000
,
10000000
00000000
00100000
00000000
01000000
00010000
00100000
00000000
01000000
00000000
10000000
00000000
00010000
01000000
00001000
00000000
,
00010000
00001000
00000100
00000010
00001000
00000100
00000010
00000001
00001000
00000100
00010000
00001000
00100000
00010000
01000000
00100000
,
10000000
00000000
01000000
00000000
00010000
00000000
01000000
00000000
10000000
00000000
00010000
01000000
00000000
00001000
01000000
00000000
,
00001000
00000000
00010000
00000000
00001000
00000000
00000010
00000000
00000001
00000000
00000100
00000010
00000000
00000100
00000001
00000000
,
00001000
00000000
00000100
00000000
00000010
00000000
00000100
00000000
00010000
00000000
00001000
01000000
00000000
00100000
01000000
00000000
,
00010000
00000000
10000000
00000000
01000000
00000000
00100000
00000000
00001000
00000000
00010000
00001000
00000000
00100000
00010000
00000000
,
01000000
00000000
00100000
00000000
10000000
00000000
01000000
00000000
10000000
00000000
00010000
00100000
01000000
10000000
00010000
00000000
,
01000000
00000000
00001000
00000000
00010000
00000000
00000100
00000000
00000010
00000000
00000001
00000100
00000010
00001000
00000001
00000000
,
00000100
00000000
00000010
00000000
00000100
00000000
00000001
00000000
00000010
00000000
00000100
00010000
00001000
01000000
00010000
00000000
,
01000000
00000000
00100000
00000000
10000000
00000000
00010000
00000000
00100000
00000000
01000000
00100000
00010000
10000000
00100000
01000000
,
00010000
00000000
01000000
00000000
10000000
00000000
01000000
00000000
00010000
00000000
10000000
00010000
00000000
10000000
00010000
00000000
,
00100000
00000000
01000000
00000000
00010000
00000000
00001000
00000000
00000100
00000010
00000100
00000010
00000100
00000000
00000001
00000000
,
00001000
00000000
00000100
00000000
00000010
00000000
00000001
00000000
00001000
00000000
00000100
00000010
00000000
00000100
00001000
00000000
,
00000001
00000000
00000010
00000000
00000100
00000000
00010000
00000000
00001000
00000000
00010000
00001000
00020000
00000000
00000000
00000000
,
00130000
00000000
01000000
00000000
00010000
00000000
10000000
00000000
01000000
00100000
00000000
00010000
00100000
00000000
01000000
00000000
,
10000000
00000000
00010000
00000000
01000000
00000000
00100000
00000000
10000000
01000000
10000000
01000000
10000000
00000000
00100000
00000000
,
01000000
00000000
00010000
00000000
00100000
00000000
00001000
00000000
00010000
00000100
00000000
00010000
00000100
00000000
00000010
00000000
,
00000001
00000000
00001000
00000000
00000010
00000000
00000100
00000000
00000001
00001000
00000001
00001000
00000001
00000000
00000000
00000000
,
00000022
00000033
00000000
00000000
00002200
00003300
00000000
00000000
02020000
03030000
00000000
00000000
20200000
30300000
00000000
00000000
,
20100000
30010000
02010000
03001000
00002200
00000000
00003300
00000000
,
00000010
00000001
00000100
00001000
00000100
00000001
00000010
00001000
,
00010000
00001000
00010000
00001000
00010000
00000000
00100000
00000000
01000000
00100000
01000000
00100000
01000000
00000000
00010000
00000000
,
20020000
30030000
00000000
00000000
00022000
00033000
00000000
00000000
00002002
00003003
00000000
00000000
00022000
00033000
00000000
00000000
,
20100000
30100000
02010000
03010000
00002100
00003100
00000022
00000033
,
00000001
00000100
00000001
00000000
00001000
00000000
00000100
00000000
00000010
00000100
00000010
00000000
00000100
00000000
00001000
00000000
,
00000010
00010000
00001000
00100000
00010000
01000000
00100000
10000000
,
01000000
00100000
00010000
10000000
00100000
01000000
00010000
10000000
02000000
00000000
00000000
00000000
03000000
00000000
00000000
00000000
,
10000000
00000000
01000000
00000000
00100000
00000000
00010000
00000000
01000000
00000000
00100000
00010000
00000000
00010000
00001000
00000000
,
00000010
00000000
00000100
00000000
00001000
00000000
00000001
00000000
00000100
00000000
00000010
00001000
00000000
00001000
00000001
00000000
,
00000010
00000000
00000100
00001000
00000100
00001000
00000100
00000000
00000010
00000000
00000001
00001000
00000001
00001000
00000001
00000000
,
00000100
00000000
00000010
00010000
00000010
00010000
00000010
00000000
00010000
00000000
00001000
00000000
00100000
00000000
01000000
00000000
,
10000000
00000000
00010000
00000000
01000000
00000000
10000000
00000000
01000000
00000000
00010000
10000000
00000000
01000000
00100000
00000000
,
00010000
00000000
00001000
00000000
00000100
00000000
00000010
00000000
00000001
00000000
00001000
00000001
00000000
00000100
00000010
00000000
,
00001000
00000000
00000001
00000000
00000010
00000100
00001000
00000001
00000100
00000010
00001000
00000001
00001000
00000100
00000010
00000001
,
00001000
00000000
00000100
00000000
00010000
00000000
00001000
00000000
01000000
00000000
00100000
01000000
00100000
01000000
00100000
01000000
,
00010000
00000000
10000000
00000000
01000000
00000000
00100000
00000000
00010000
00000000
10000000
01000000
00000000
01000000
00100000
00000000
,
00010000
00000000
01000000
00000000
00001000
00000000
00000100
00000000
00000001
00000000
00000010
00000100
00000000
00000100
00000010
00000000
,
00001000
00000000
00010000
00000000
00100000
00000000
01000000
00010000
10000000
00000000
00010000
00000000
00100000
00000000
01000000
10000000
,
00010000
00100000
00001000
01000000
00100000
01000000
00001000
00000010
,
00001000
00000000
00010000
00000000
00000100
00000000
00000010
00000000
00000001
00000000
00000100
00000010
00000000
00000010
00001000
00000000
,
00000001
00000000
00000010
00000000
00001000
00000000
00000010
00000000
00000001
00001000
00000001
00000000
00000100
00000000
00000010
00000000
,
00001000
00000001
00001000
00000000
00000001
00000000
00000010
00000000
00000100
00010000
00000010
00000000
00010000
00000000
00001000
00000000
,
00100000
00001000
01000000
00000000
00100000
00000000
01000000
00000000
00010000
00100000
01000000
10000000
00010000
00100000
01000000
10000000
,
00010000
00000000
00100000
00000000
00001000
00000000
00010000
00000000
00000010
00000000
00000100
00000010
00000000
00000010
00000100
00000000
,
00000001
00000000
00000010
00000000
00001000
00000000
00010000
00000000
00100000
00000000
10000000
00010000
10000000
00010000
10000000
00000000
,
01000000
00000000
00010000
00000000
00001000
00000000
00000100
00000000
00000001
00000000
00001000
00000100
00000000
00000100
00000010
00000000
,
00000001
00000000
00000100
00000000
00000010
00000000
00010000
00000000
00001000
00000000
00100000
00010000
00100000
00010000
00100000
00000000
,
01000000
00000000
10000000
00000000
00100000
00000000
00010000
00000000
00001000
00000000
00000100
00000010
00000000
00000010
00001000
00000000
,
00000001
00000000
00000010
00000000
00000100
00000000
00010000
00000000
00001000
00000000
01000000
00010000
01000000
00010000
01000000
00000000
,
00010000
00000000
00100000
00000000
10000000
00000000
00100000
00000000
00010000
00000000
00001000
00000100
00000000
00000100
00000010
00000000
,
00000001
00000000
00000100
00000000
00001000
00000000
00000100
00000000
00000001
00001000
00000001
00001000
00000001
00001000
00000001
00001000
,
00000200
00000000
00000000
00000300
,
00001000
00000000
00000010
00000000
00000100
00000000
00000010
00000000
00001000
00000000
00000100
00000010
00000000
00000010
00001000
00000000
,
00010000
00000000
00100000
00000000
01000000
00000000
00010000
00000000
10000000
00000000
01000000
00100000
00000000
00100000
00010000
00000000
,
10000000
00000000
00100000
01000000
00010000
10000000
01000000
00000000
00100000
00000000
00010000
00100000
01000000
10000000
00010000
00000000
,
01000000
00000000
00001000
01000000
00100000
01000000
00001000
00000000
00010000
00000000
00000100
00000000
00000010
00000000
00000001
00000000
,
00001000
00000000
00000010
00000100
00000000
00000100
00000001
00000000
00001000
00000000
00000100
00000000
00000010
00000000
00001000
00000000
,
00010000
00000000
00100000
01000000
00000000
01000000
00010000
00000000
00100000
00000000
01000000
00000000
00010000
00000000
00001000
00000000
,
00000100
00000000
00000001
00001000
00000100
00000010
00000001
00000000
00001000
00000000
00000010
00001000
00000001
00001000
00000100
00000000
,
00000010
00000000
00000100
00010000
00000100
00000010
00000100
00001000
00000010
00000000
00000100
00000001
00001000
00000010
00000100
00000001
,
00001000
00000000
00000100
00000000
00000010
00000000
00000100
00000000
00010000
00000000
00001000
00010000
00000000
00010000
01000000
00000000
,
10000000
00000000
00010000
00000000
10000000
00000000
01000000
00000000
00010000
00000000
01000000
10000000
00000000
10000000
00100000
00000000
,
00010000
00000000
00001000
00000000
00010000
00001000
00010000
00001000
00000100
00000000
00000010
00000100
00000010
00000100
00000010
00000100
,
00000001
00000000
00000010
00000001
00000010
00000001
00000010
00000001
00001000
00000000
00000100
00000000
00000010
00000000
00000001
00000000
,
00001000
00000100
00001000
00000000
00000100
00000000
00010000
00000000
00001000
00010000
00001000
00000000
01000000
00000000
00010000
00000000
,
10000000
01000000
00100000
00000000
00010000
01000000
00100000
00000000
10000000
00100000
01000000
00000000
00010000
00100000
01000000
00000000
,
00010000
00001000
00000100
00000001
00001000
00000100
00000010
00000001
,
00001000
00000100
00001000
00000100
00000010
00000001
00000010
00000001
00001000
00000100
00000010
00000001
00001000
00000100
00000010
00000001
,
00001000
00000100
00010000
00001000
00010000
00000100
00010000
00001000
01000000
00010000
01000000
00100000
01000000
00010000
00100000
01000000
,
10000000
00010000
10000000
01000000
10000000
00010000
00100000
00010000
01000000
00100000
01000000
00010000
00100000
00001000
00010000
00001000
,
00010000
00000100
00000010
00000100
00001000
00000010
00000100
00000001
00000010
00000100
00001000
00000001
00000100
00000001
00001000
00000001
,
00000010
00000100
00001000
00000010
00010000
00000100
00010000
00001000
00100000
00001000
00010000
00100000
00010000
00001000
00100000
00010000
,
01000000
00100000
10000000
01000000
00100000
00010000
10000000
01000000
10000000
00010000
10000000
01000000
00010000
01000000
10000000
00100000
,
01000000
00010000
10000000
01000000
00100000
00010000
01000000
00001000
00010000
00001000
00000100
00000010
00001000
00000001
00000010
00000100
,
00001000
00000001
00000010
00000100
00000010
00000001
00001000
00000010
00000100
00000001
00001000
00000100
00010000
00001000
00010000
00000100
,
00001000
00000010
00000100
00000010
00001000
00000001
00000010
00000100
00001000
00000010
00010000
00001000
00100000
00010000
01000000
00100000
,
10000000
00010000
10000000
01000000
10000000
00010000
10000000
01000000
00100000
00010000
01000000
00001000
00010000
00001000
01000000
00001000
,
00010000
00000100
00000010
00000100
00001000
00000001
00000100
00000010
00000100
00000001
00001000
00000100
00000010
00000001
00000010
00001000
,
00000010
00000001
00000100
00000010
00001000
00000001
00001000
00000100
00010000
00000010
00010000
00000100
00010000
00001000
00100000
00010000
,
01000000
00010000
00100000
01000000
10000000
00100000
01000000
00010000
10000000
01000000
10000000
00100000
10000000
01000000
00100000
00010000
,
01000000
00100000
01000000
00010000
00100000
00001000
00010000
00000100
00000010
00000100
00001000
00000001
00000010
00000100
00001000
00000001
,
00000100
00000010
00000100
00000001
00001000
00000100
00010000
00001000
00010000
00000100
00010000
00001000
01000000
00010000
00100000
00010000
,
01000000
00100000
10000000
00010000
10000000
01000000
10000000
00010000
00100000
01000000
10000000
00100000
01000000
00010000
00100000
01000000
,
00100000
00001000
00010000
00001000
00000100
00000010
00001000
00000001
00000010
00000100
00001000
00000100
00010000
00001000
00010000
00000100
,
00020000
00000000
00000000
00000000
,
00030000
00000000
00000000
00000000
;
