#TITLE:Sexual Madness;
#SUBTITLE:;
#ARTIST:E-Rotic;
#TITLETRANSLIT:;
#SUBTITLETRANSLIT:;
#ARTISTTRANSLIT:;
#GENRE:;
#CREDIT:;
#BANNER:Sexual Madness-Banner.png;
#BACKGROUND:Sexual Madness-Background.png;
#LYRICSPATH:;
#CDTITLE:;
#MUSIC:E-Rotic - Sexual Madness.ogg;
#OFFSET:-0.458000;
#SAMPLESTART:31.783998;
#SAMPLELENGTH:15.692000;
#SELECTABLE:YES;
#BPMS:0.000000=130.000000
;
#STOPS:
;
#BGCHANGES:;
#KEYSOUNDS:;
#ATTACKS:;

//---------------dance-single - ----------------
#NOTES:
     dance-single:
     :
     Beginner:
     2:
     0.154102,0.212570,0.071386,0.031727,0.000000,136.000000,127.000000,9.000000,4.000000,0.000000,0.000000,0.154102,0.212570,0.071386,0.031727,0.000000,136.000000,127.000000,9.000000,4.000000,0.000000,0.000000:
0000
0000
0000
0000
,
0000
0000
0000
0000
,
0000
0000
0000
0000
,
0000
0000
0000
0000
,
1000
0000
0000
0000
,
0010
0000
0000
0000
,
0100
0000
0000
0000
,
0001
0000
0000
0000
,
1001
0000
0010
0000
,
0001
0001
0000
0000
,
1000
1000
0000
0000
,
0100
0100
0000
0000
,
1001
0000
0110
0000
,
1000
0000
0001
0000
,
1001
0000
0110
0000
,
0001
0000
1000
0000
,
0200
0000
0300
0000
,
0100
0100
0100
0000
,
1000
0000
0001
0000
,
0100
0100
0100
0000
,
0001
0000
1000
0000
,
0010
0010
0010
0000
,
1000
0000
0001
0000
,
0010
0010
0010
0000
,
0001
0000
1000
0000
,
1001
0000
0000
0010
,
0010
0000
0000
0001
,
0001
0000
0000
1000
,
1000
0000
0000
0010
,
0010
0000
0000
1000
,
1000
0000
0000
0001
,
0001
0000
0000
0100
,
0100
0100
0000
0000
,
1001
0000
0001
0000
,
0100
0000
1000
0000
,
0010
0000
1000
0000
,
0100
0000
0001
0000
,
0010
0010
0010
0000
,
0010
0000
0010
0000
,
0100
0100
0100
0000
,
0100
0000
0100
0000
,
0020
0000
0030
0000
,
1001
0000
0001
0000
,
1000
1000
1000
0000
,
0100
0000
0100
0000
,
0010
0010
0010
0000
,
0001
0000
0100
0000
,
1000
1000
1000
0000
,
0001
0000
0010
0000
,
1000
0000
0001
0000
,
0100
0100
0000
0000
,
0001
0001
0000
0000
,
1000
1000
0000
0000
,
0010
0010
0000
0000
,
0100
0100
0000
0000
,
0010
0010
0000
0000
,
1000
0000
0001
0000
,
1000
1000
1000
1000
,
1000
0000
0000
0010
,
0010
0000
0000
0001
,
0001
0000
0000
0100
,
0100
0000
0000
0000
,
0001
0000
0000
0000
,
0010
0000
0000
0000
,
1000
0000
0000
0000
,
0100
0100
0100
0000
,
2002
0000
0000
0000
,
3003
0000
0000
0000
;

//---------------dance-single - ----------------
#NOTES:
     dance-single:
     :
     Easy:
     3:
     0.218689,0.318855,0.079317,0.047590,0.000000,193.000000,183.000000,10.000000,6.000000,0.000000,0.000000,0.218689,0.318855,0.079317,0.047590,0.000000,193.000000,183.000000,10.000000,6.000000,0.000000,0.000000:
0000
0000
0000
0000
,
0000
0000
0000
0000
,
0000
0000
0000
0000
,
0000
0000
0000
0000
,
0001
0010
0000
0000
,
0100
1000
0000
0000
,
0001
0100
0000
0000
,
0010
1000
0000
0000
,
1001
0000
0000
0001
,
0010
0001
0000
1000
,
0100
1000
0000
0010
,
0100
0010
0000
0000
,
1000
0000
0001
0000
,
0100
0010
1000
0001
,
0010
0000
0100
0000
,
1000
0001
0100
0010
,
2002
0000
3003
0000
,
0001
0001
0010
0010
,
0001
0100
1000
0100
,
1000
1000
0010
0010
,
1000
0100
0001
0100
,
0001
0001
1000
1000
,
0010
0100
0010
0100
,
0010
0010
0100
0100
,
0001
1000
0001
1000
,
1001
0000
0000
0001
,
0010
0000
0000
0100
,
1000
0000
0000
0010
,
0100
0000
0000
0001
,
1000
0000
0000
0100
,
0010
0000
0000
0001
,
0100
0000
0000
0010
,
1000
0100
0010
0001
,
1001
0000
0001
0000
,
0100
0010
1000
0000
,
0001
0000
1000
0000
,
0100
0010
0001
0000
,
0100
0100
1000
1000
,
0100
0001
0010
0000
,
0100
0100
0001
0001
,
0100
1000
0010
0000
,
2002
0000
3003
0000
,
0001
0001
0010
0010
,
0001
0100
1000
0100
,
1000
1000
0010
0010
,
1000
0100
0001
0100
,
0001
0001
1000
1000
,
0010
0100
0010
0100
,
0010
0010
0100
0100
,
0001
1000
0001
1000
,
1001
0000
0000
0001
,
0100
0000
0000
1000
,
0100
0000
0000
0010
,
0100
0000
0000
0000
,
1000
1000
0001
0001
,
1000
0100
0010
0001
,
1000
0100
0001
0100
,
1001
0100
1001
0100
,
1001
0000
0000
0001
,
0100
0000
0000
0010
,
1000
0000
0000
0100
,
0010
0000
0000
0001
,
1000
0010
0000
0100
,
0001
0010
0000
0100
,
1000
0010
0000
0100
,
1000
0100
0001
0100
,
2002
0000
0000
0000
,
3003
0000
0000
0000
;

//---------------dance-single - ----------------
#NOTES:
     dance-single:
     :
     Medium:
     5:
     0.343330,0.371998,0.214157,0.095181,0.000000,303.000000,276.000000,27.000000,12.000000,0.000000,0.000000,0.343330,0.371998,0.214157,0.095181,0.000000,303.000000,276.000000,27.000000,12.000000,0.000000,0.000000:
0000
0000
0000
0000
,
0000
0000
0000
0000
,
0000
0000
0000
0000
,
0000
0000
0000
0000
,
1000
0001
0010
0000
0100
0000
0100
0000
,
1000
0010
1000
0000
0010
0000
0100
0000
,
0001
1000
0100
0000
0010
0000
0010
0000
,
1100
0101
1001
0110
,
0001
0010
0001
0001
,
1000
0100
1000
0000
0020
0000
0030
0000
,
1000
1000
0001
0100
,
0001
0010
0001
0000
0200
0000
0300
0000
,
0010
1000
0010
0000
0100
0001
0100
0000
,
0001
1000
0100
0100
,
0010
0001
0010
0000
0100
1000
0100
0000
,
1000
0001
0100
0100
,
2002
0000
3003
0000
,
0011
0000
0011
0000
0100
0000
0001
1000
,
0001
0100
0010
0000
,
1010
0000
1010
0000
0100
0000
0001
1000
,
0001
0100
0010
0000
,
1100
0000
1100
0000
0001
0000
1000
0100
,
0010
0001
1000
0001
,
0101
0000
0101
0000
1000
0000
0001
0100
,
0010
2000
3001
0002
,
1003
0000
0100
0000
0010
0100
1000
0000
,
0001
0000
1000
0000
0010
0100
0001
0000
,
1000
0000
0001
0000
0100
0010
1000
0000
,
0001
0000
1000
0000
0100
0010
0001
0000
,
1000
0000
0100
0000
0001
0100
1000
0000
,
0001
0000
0100
0000
1000
0100
0001
0000
,
1000
0000
0010
0000
0001
0010
1000
0000
,
0001
0000
0010
0000
1000
0010
0001
0000
,
0101
0001
1000
1000
,
0100
0000
0010
0000
,
1100
1000
0001
0100
,
0010
0000
0100
0000
,
0001
0010
0001
0000
1000
0100
1000
0000
,
0010
0100
0001
1000
,
0100
0010
0100
0000
1000
0001
1000
0000
,
0010
0000
0100
0000
0001
1000
0001
0000
,
2002
0000
3003
0000
,
0110
0000
0001
0000
1000
0000
0010
0100
,
0001
0100
0010
1000
,
0001
0000
0010
0000
0100
0000
1000
0010
,
0100
0010
1000
0001
,
0100
0000
0010
0000
0100
0000
0001
0100
,
0010
1000
0001
0010
,
0100
0000
1000
0000
0010
0000
1000
0100
,
0010
0001
0100
0010
,
0100
0001
0100
0000
0010
0000
0010
0000
,
0100
1000
0100
0000
0010
0000
0010
0000
,
1000
0001
1000
0000
0100
0000
0010
0000
,
0001
1000
0001
0000
0100
0000
0010
0000
,
1100
1100
0001
0100
,
0101
0101
1000
0010
,
2010
0001
0100
3001
,
0012
1000
0100
1003
,
1001
0000
0001
0000
0100
0000
0010
1000
,
0100
0000
1000
0000
0001
0000
0010
0001
,
0100
0000
0100
0000
0100
0000
0010
0100
,
0001
0000
1000
0000
0001
0000
0010
0100
,
1000
0000
0001
0000
1000
0000
0010
0100
,
0010
0000
1000
0000
0001
0000
0100
0010
,
0100
0000
0001
0000
0010
0000
0100
1000
,
0001
0101
1000
1100
,
2002
0000
0000
0000
,
3003
0000
0000
0000
;

//---------------dance-single - ----------------
#NOTES:
     dance-single:
     :
     Hard:
     7:
     0.473637,0.451712,0.039659,0.166566,0.186396,418.000000,413.000000,5.000000,21.000000,0.000000,0.000000,0.473637,0.451712,0.039659,0.166566,0.186396,418.000000,413.000000,5.000000,21.000000,0.000000,0.000000:
0000
0000
0000
0000
,
0000
0000
0000
0000
,
0000
0000
0000
0000
,
0000
0000
0000
0000
,
0001
0010
0001
1000
0100
0000
0100
1000
,
0001
0100
0010
0100
0001
0000
1000
0010
,
0100
0010
1000
0001
0010
0000
0010
0100
,
1000
0000
0001
0000
1000
0000
0010
0000
0100
0000
0000
0001
1000
0000
0100
0000
,
1000
0010
1000
0100
0001
0100
1000
0000
,
0001
0010
0001
0100
1000
0100
0001
0000
,
0100
0010
0100
0001
1000
0100
0010
0000
,
1000
0000
0010
0000
0001
0000
0010
0000
0100
0000
1000
0000
0001
0000
0000
0001
,
0100
0000
0000
0100
0010
0000
0000
0010
1000
0000
0001
0000
1000
0000
0000
0000
,
0100
0000
0100
0000
0010
0000
0010
0000
0001
0000
1000
0000
0010
0000
0000
0010
,
0100
0000
0000
0100
0001
0000
0000
0001
1000
0000
0100
0000
1000
0000
0001
0000
,
0010
0000
0000
0010
0000
0000
0020
0000
0000
0000
0031
0000
1000
0000
0001
0000
,
2000
0000
3000
0000
,
1000
0010
0100
0010
1000
0000
0001
0200
,
0000
1000
0000
0001
0000
1300
0000
0100
,
0001
0010
0001
1000
0001
0000
1000
0020
,
0000
0001
0000
0100
0000
0031
0000
0010
,
1000
0100
0010
0001
1000
0000
0100
0001
,
0200
0000
1300
0010
0100
0010
1000
0000
,
0001
0010
0100
1000
0001
0000
0010
1000
,
0020
0000
0031
0100
0010
0100
0001
0000
,
1000
0000
0010
0000
0200
0000
0000
0001
0000
0301
0000
0000
1000
0000
0100
0000
,
0010
0000
0001
0000
2000
0000
0000
0100
0000
3100
0000
0000
1000
0000
0100
0000
,
0010
0000
0100
0000
2000
0000
0000
0010
0000
3010
0000
0000
0100
0000
0001
0000
,
0010
0000
0001
0000
0200
0000
0000
1000
0000
1300
0000
0000
0100
0000
0001
0000
,
1000
0000
0100
0000
0020
0000
0000
0001
0000
0031
0000
0000
0010
0000
0100
0000
,
1000
0000
0001
0000
0200
0000
0000
0010
0000
0310
0000
0000
0100
0000
0001
0000
,
0010
0000
0001
0000
0200
0000
0000
1000
0000
1300
0000
0000
0100
0000
0010
0000
,
1000
0000
0001
0000
0020
0000
0000
0100
0000
0130
0000
0000
0010
0000
0001
0000
,
1000
0000
1100
0000
0001
0010
0100
0000
,
1000
0010
1000
0100
0010
0001
0100
0000
,
0001
0100
1000
0000
1000
0100
0001
0000
,
0001
0000
0010
0000
0100
0000
1000
0000
0001
0000
1000
0000
0010
0000
0000
0010
,
0100
0000
0000
0100
0001
0000
0000
0001
1000
0000
0100
0000
1000
0000
0000
0000
,
1000
0000
0100
0000
0010
0000
0100
0000
1000
0000
0100
0000
0010
0000
0000
0010
,
0001
0000
0000
0001
1000
0000
0000
1000
0010
0000
0100
0000
0001
0000
0100
0000
,
0010
0000
0000
1000
0000
0000
0001
0000
0000
0000
0100
0000
0010
0000
0100
0000
,
0002
0000
0000
0003
,
0001
0100
0010
0100
0001
0000
1000
0020
,
0000
0001
0000
1000
0000
0031
0000
0010
,
1000
0100
1000
0001
1000
0000
0001
0200
,
0000
1000
0000
0010
0000
1300
0000
0100
,
0001
0010
0100
1000
0001
0000
0010
1000
,
0020
0000
0031
0100
0010
0100
0001
0000
,
1000
0100
0010
0001
1000
0000
0100
0001
,
0200
0000
1300
0010
0100
0010
1000
0000
,
0001
0100
1000
0100
0001
0100
1000
0100
,
0001
0010
0001
0100
0001
0010
0001
0100
,
0001
0010
1000
0010
0001
0010
1000
0010
,
0100
1000
0010
1000
0100
1000
0010
1000
,
0100
0010
0001
1000
0001
0010
0100
1000
,
0001
0100
0010
1000
0010
0100
0001
1000
,
0100
1000
0001
1000
0100
0010
0001
1000
,
0001
0011
1010
1001
,
0001
0000
0100
0000
0010
0000
0000
1000
0000
1000
0000
0000
0010
0000
0100
0000
,
0001
0000
1000
0000
0100
0000
0000
0010
0000
0010
0000
0000
0100
0000
0001
0000
,
0100
0000
1000
0000
0001
0000
0000
0100
0000
0001
0000
0000
1000
0000
0001
0000
,
0100
0000
0010
0000
1000
0000
0000
0001
0000
0010
0000
0000
0001
0000
1000
0000
,
0010
0000
0100
0000
0001
0000
0000
1000
0000
1000
0000
0000
0001
0000
0100
0000
,
0010
0000
1000
0000
0100
0000
0000
0010
0000
0010
0000
0000
1000
0000
0010
0000
,
0001
0000
0100
0000
0010
0000
0000
0100
0000
0100
0000
0000
0001
0000
1000
0000
,
0001
0000
0100
0000
0010
0000
0000
1000
0000
0100
0000
0000
0010
0000
0001
0000
,
2002
0000
0000
0000
,
3003
0000
0000
0000
;

//---------------dance-single - ----------------
#NOTES:
     dance-single:
     :
     Challenge:
     10:
     0.702524,0.773442,0.261747,0.245883,0.801104,620.000000,587.000000,33.000000,31.000000,16.000000,13.000000,0.702524,0.773442,0.261747,0.245883,0.801104,620.000000,587.000000,33.000000,31.000000,16.000000,13.000000:
0000
0000
0000
0000
,
0000
0000
0000
0000
,
0000
0000
0000
0000
,
0000
0000
0000
0000
,
1000
0000
0100
0000
0010
0000
0001
0100
0000
0100
0000
0010
0100
0000
0100
0000
,
0001
0000
0010
0000
0100
0000
1000
0010
0000
0010
0000
0100
0001
1000
0001
1000
,
0010
0000
1000
0000
0001
0000
0100
0010
0000
0010
0000
0100
0010
0000
1000
0000
,
0100
0000
0001
0000
0100
0000
0010
0001
0000
1000
0000
0001
0100
0010
1000
0000
,
0001
0000
0010
0000
0001
0100
1000
0100
0001
0010
0100
1000
0100
0000
0010
0001
,
1000
0000
1000
0000
0100
0000
0001
0100
0010
0001
0000
0100
0010
0000
1000
0001
,
0010
0000
0010
0000
0100
0000
1000
0010
0100
0010
1000
0001
0100
0000
1000
0100
,
0010
0100
0001
0010
0100
0010
1000
0010
0100
0000
0010
0001
0100
0000
0001
0010
,
0001
0000
0100
1000
0100
0000
0001
0010
0001
0100
0010
1000
0001
0000
0000
0001
,
0010
0100
0010
1000
0010
0001
0100
0010
0100
1000
0100
0001
1000
0000
0100
0001
,
0100
0000
1000
0010
1000
0000
0100
0001
0100
1000
0010
0100
0001
0000
0010
0000
,
0001
0100
0010
0100
0001
1000
0001
0010
0100
1000
0001
1000
0010
0100
0010
1000
,
0400
0000
0000
0300
,
1000
0100
1000
0000
0001
0010
0001
0000
0100
0000
0000
M00M
0000
0000
0102
0000
,
0000
1203
0000
2310
0000
3021
0000
0130
,
1000
0010
1000
0000
0001
0100
0001
0000
0010
0000
M00M
0000
0000
0000
0021
0000
,
0000
0132
0000
1203
0000
2310
0000
3001
,
0100
0010
0100
0000
0001
1000
0001
0000
0100
0000
0000
0000
0010
0000
1000
0000
,
0102
0000
0000
0000
0013
0000
0001
0000
1000
0100
1000
0000
0110
0000
0000
0MM0
,
1000
0001
1000
0000
0100
0010
0100
0000
1000
0000
0000
0000
0001
0000
0010
0000
,
1200
0000
0000
0000
0310
0000
0001
0000
0200
0000
0000
0000
1300
0100
0001
0010
,
1000
0000
0010
0000
0100
0000
0010
0001
0000
0001
0000
1000
0100
0010
0001
0000
,
1000
0000
0010
0000
0100
0000
0010
0001
0000
0010
0000
0010
0100
0001
1000
0000
,
0100
0000
0010
0000
0001
0000
1000
0100
0000
0010
0000
0100
0001
0100
0010
0000
,
0001
0000
1000
0000
0010
0000
0100
1000
0000
0100
0000
0010
1000
0001
0010
0000
,
0100
0000
1000
0000
0001
0000
1000
0100
0000
0010
0000
0001
0010
0100
1000
0000
,
0001
0000
0100
0000
0001
0000
1000
0001
0000
0100
0000
0001
0100
0010
1000
0000
,
0001
0000
0010
0000
0100
0000
1000
0010
0000
1000
0000
0001
1000
0100
0010
0000
,
0001
0000
0100
0010
1000
0000
0100
0010
0001
0000
0010
0100
1000
0000
0010
0100
,
0001
0010
0100
1000
0000
0001
0100
0000
0010
0100
0000
0001
1000
0000
0100
1000
,
0010
0000
0100
0000
0001
0000
1000
0100
0010
0001
0000
0100
0010
1000
0001
1000
,
0100
0001
0100
1000
0000
0010
0100
0010
0001
0010
1000
0001
0000
0010
0100
0000
,
1000
0000
0001
0000
1001
0000
1000
0100
0010
0000
0001
0010
0100
0000
1000
0010
,
1000
0000
0100
0001
0100
0000
1000
0010
1000
0100
0001
0100
1000
0000
0010
0000
,
0100
0001
1000
0001
0100
0010
1000
0001
0010
0000
0100
0010
0001
0000
1000
0000
,
0110
0000
0001
1000
0010
0000
0100
0000
0110
0000
1000
0001
0010
0000
0100
0000
,
1000
0100
0010
0100
1000
0001
0100
0010
0100
0001
1000
0010
0100
0010
1000
0001
,
0040
0000
0000
0030
,
0001
0010
0001
0000
1000
0100
1000
0000
0010
0000
0000
M00M
0000
0000
2010
0000
,
0000
3021
0000
0132
0000
1203
0000
0310
,
0001
0100
0001
0000
1000
0010
1000
0000
0100
0000
0000
M00M
0000
0000
1200
0000
,
0000
2310
0000
3021
0000
0132
0000
1003
,
0010
0100
0010
0000
1000
0001
1000
0000
0010
0000
0000
M00M
0100
0000
0001
0000
,
2010
0000
0000
0000
3100
0000
1000
0000
0001
0010
0001
0000
0110
0000
0000
0MM0
,
0001
1000
0001
0000
0010
0100
0010
0000
0001
0000
0000
0000
1000
0000
0100
0000
,
0021
0000
0000
0000
0130
0000
1000
0000
0020
0000
0000
0000
0031
0010
1000
0100
,
0001
0000
0100
0000
0010
0000
0001
1000
0001
0000
1000
0000
0010
0000
1200
0000
,
0000
0010
0301
1020
0000
0100
0031
1200
,
0000
0010
0301
1000
0000
0001
0010
0100
,
1000
0000
0000
0101
0000
0000
1100
0000
0000
0000
0001
0000
0010
0000
0100
0000
,
1000
0000
1000
0012
0000
0100
1003
0201
,
0000
0010
1300
2002
0000
0010
3003
1000
,
0001
0010
0000
0100
1000
0000
0001
0000
0100
0000
0010
0000
0100
0000
0001
0000
,
1000
0100
1000
0010
0100
0010
1000
0001
0100
0010
0100
0001
0010
0100
1000
0001
,
0100
0000
0010
0000
0100
0000
1000
0100
0000
0001
0000
1000
0100
0010
0001
0000
,
1000
0000
0010
0000
0100
0000
0001
0010
0000
1000
0000
0010
0001
1000
0100
0000
,
0010
0000
0001
0000
1000
0000
0010
0100
0000
0001
0000
0100
0010
1000
0001
0000
,
0010
0000
0100
0000
1000
0000
0100
0010
0000
1000
0000
0010
0100
1000
0001
0000
,
0100
0000
0010
0000
1000
0000
0010
0001
0000
0010
0000
0100
0001
1000
0010
0000
,
0100
0000
0001
0000
0010
0000
0001
0100
0000
0010
0000
0100
0001
1000
0100
0000
,
0010
0000
0100
0000
1000
0000
0010
0100
0000
0010
0000
1000
0100
0010
0001
0000
,
1000
0000
0010
1000
0100
0000
0010
0001
0100
0000
0010
1000
0001
0000
0010
0002
,
2000
0000
0000
0000
,
3003
M00M
0000
0000
;

//---------------dance-double - ----------------
#NOTES:
     dance-double:
     :
     Easy:
     2:
     0.157501,0.212570,0.031727,0.079317,0.000000,139.000000,135.000000,4.000000,10.000000,0.000000,0.000000,0.157501,0.212570,0.031727,0.079317,0.000000,139.000000,135.000000,4.000000,10.000000,0.000000,0.000000:
00000000
00000000
00000000
00000000
,
00000000
00000000
00000000
00000000
,
00000000
00000000
00000000
00000000
,
00000000
00000000
00000000
00000000
,
00100000
00100000
00000000
01000000
,
00010000
00010000
00000000
00010000
,
00000100
00000100
00000000
00000010
,
00000001
00001000
00000000
00000000
,
00000001
00000001
00000100
00000000
,
00001000
00000000
00010000
00000000
,
01000000
01000000
10000000
00000000
,
00100000
00000000
00010000
00000000
,
00001000
00000000
00000010
00000000
,
00000001
00000000
00001000
00000000
,
00000001
00000100
00000001
00000000
,
00001000
00000100
00001000
00000000
,
00000000
00000000
00000000
00000000
,
00011000
00000000
00001000
00000000
,
00010000
00001000
00010000
00000000
,
00100000
00000000
10000000
00000000
,
00010000
00000000
01000000
00000000
,
00011000
00000000
00001000
00000000
,
00010000
00001000
00010000
00000000
,
00000100
00000000
00000010
00000000
,
00000001
00000000
00001000
00000000
,
00000001
00000100
00000000
00000000
,
00000100
00001000
00000000
00000000
,
00001000
00010000
00000000
00000000
,
01000000
10000000
00000000
00000000
,
10000000
01000000
00000000
00000000
,
01000000
00010000
00000000
00000000
,
00010000
00001000
00000000
00000000
,
00000100
00000001
00000000
00000000
,
00000001
00000001
00000010
00000000
,
00000100
00000000
00010000
00000000
,
00001000
00000000
01000000
00000000
,
00100000
00100000
10000000
00000000
,
00010000
00000000
00100000
00000000
,
00010000
00000000
01000000
00000000
,
00001000
00000000
00010000
00000000
,
00000100
00000100
00000010
00000000
,
00000001
00000000
00000000
00000000
,
00001001
00000000
00000001
00000000
,
00000100
00000010
00001000
00000001
,
00000010
00000000
00001000
00000000
,
00010000
00001000
00010000
00001000
,
00010000
00000000
00100000
00000000
,
10000000
01000000
00100000
00010000
,
10000000
00000000
01000000
00000000
,
00010000
00000000
00001000
00000000
,
00000200
00000300
00000000
00000000
,
02000000
03000000
00000000
00000000
,
00000020
00000030
00000000
00000000
,
00200000
00300000
00000000
00000000
,
00020000
00030000
00000000
00000000
,
00000200
00000300
00000000
00000000
,
00002000
00003000
00000000
00000000
,
02000000
03000000
00000000
00000000
,
00010000
10000000
00000000
00000000
,
00001000
00010000
00000000
00000000
,
00000001
00001000
00000000
00000000
,
00000010
00000100
00000001
00000000
,
00000010
00001000
00000000
00000000
,
00001000
00010000
00000000
00000000
,
00010000
00100000
00000000
00000000
,
10000000
01000000
00100000
00010000
,
20020000
00000000
00000000
00000000
,
30030000
00000000
00000000
00000000
;

//---------------dance-double - ----------------
#NOTES:
     dance-double:
     :
     Medium:
     4:
     0.245883,0.265713,0.031727,0.039659,0.000000,217.000000,213.000000,4.000000,5.000000,0.000000,0.000000,0.245883,0.265713,0.031727,0.039659,0.000000,217.000000,213.000000,4.000000,5.000000,0.000000,0.000000:
00000000
00000000
00000000
00000000
,
00000000
00000000
00000000
00000000
,
00000000
00000000
00000000
00000000
,
00000000
00000000
00000000
00000000
,
10000000
01000000
00010000
00000000
,
00010000
00001000
00010000
00000000
,
00001000
00000100
00000001
00000000
,
00000001
00000010
00000001
00001000
,
00001100
00000100
00000010
00000010
,
00000001
00000100
00001000
00000000
,
00010000
00010000
00001000
00001000
,
00010000
00100000
10000000
00000000
,
00010000
00100000
00010000
01000000
,
00010000
00000000
10000000
00000000
01000000
01000000
01000000
00000000
,
10000000
00100000
10000000
01000000
,
00010000
00001000
00000100
00000001
,
00002002
00000000
00000000
00003003
,
00001001
00000001
00000010
00000000
,
00000100
00010000
00000100
00001000
,
00000010
00010000
00001000
00000000
,
00100000
00010000
00100000
01000000
,
10000000
00010000
01000000
00000000
,
10000000
01000000
00010000
00100000
,
00001000
00010000
00000100
00000000
,
00000001
00000100
00001000
00000010
,
00000100
00000000
00000010
00000000
00001000
00000000
00000001
00000001
,
00000001
00000000
00000000
00000000
,
00001000
00000000
00000100
00000000
00010000
00000000
00001000
00001000
,
00001000
00000000
00000000
00000000
,
00010000
00000000
00001000
00000000
01000000
00000000
00100000
00100000
,
00100000
00000000
00000000
00000000
,
10000000
00000000
01000000
00000000
00100000
00000000
00010000
00010000
,
00010000
00000000
00000000
00000000
,
10000000
01000000
00010000
00001000
,
00010000
00001000
00000100
00000001
,
00000010
00000100
00001000
00000001
,
00001000
00000100
00000010
00000001
,
00000100
00000010
00001000
00010000
,
00001000
00000010
00010000
00001000
,
00100000
01000000
00100000
00010000
,
01000000
00100000
10000000
00010000
,
20020000
00000000
00000000
30030000
,
10000000
00000000
01000000
00000000
00010000
00000000
00001000
00001000
,
00001000
00000000
00010000
00000000
,
00001000
00000000
00000100
00000000
00000001
00000000
00001000
00001000
,
00001000
00000000
00000100
00000000
,
00000010
00000000
00001000
00000000
00010000
00000000
00100000
00100000
,
00100000
00000000
01000000
00000000
,
01000000
00000000
00010000
00000000
00100000
00000000
00001000
00001000
,
00001000
00000000
00000010
00000000
,
00000001
00000100
00000000
00000000
,
00000100
00001000
00000000
00000000
,
00001000
00010000
00000000
00000000
,
01000000
10000000
00000000
00000000
,
10000000
00010000
00000000
00000000
,
00001000
00000001
00000000
00000000
,
00010000
00001000
00010000
00001000
,
01000000
00100000
00010000
00001000
,
00000100
00000010
00001000
00000001
,
00000010
00001000
00010000
00100000
,
01000000
00010000
10000000
01000000
,
00010000
00000000
00001000
00000000
00000100
00000000
00000001
00001000
,
00000001
00000010
00001000
00000010
,
00000100
00010000
00001000
01000000
,
00100000
01000000
00010000
10000000
,
01000000
00000000
00100000
00000000
00010000
00000000
10000000
00010000
,
20000000
00000000
00000000
00000000
,
30000000
00000000
00000000
00000000
;

//---------------dance-double - ----------------
#NOTES:
     dance-double:
     :
     Hard:
     7:
     0.449842,0.451712,0.174498,0.222088,0.000000,397.000000,375.000000,22.000000,28.000000,0.000000,0.000000,0.449842,0.451712,0.174498,0.222088,0.000000,397.000000,375.000000,22.000000,28.000000,0.000000,0.000000:
// measure 0
00000000
00000000
00000000
00000000
,  // measure 1
00000000
00000000
00000000
00000000
,  // measure 2
00000000
00000000
00000000
00000000
,  // measure 3
00000000
00000000
00000000
00000000
,  // measure 4
00001000
00010000
00001000
00000000
00000100
00000000
00000001
00000000
,  // measure 5
00000010
00000100
00001000
00000000
00000010
00000000
00010000
00000000
,  // measure 6
00001000
00100000
00010000
00000000
01000000
00000000
00100000
00000000
,  // measure 7
11000000
01010000
00011000
00001100
,  // measure 8
00000100
00000010
00000001
00000010
00000100
00000010
00000001
00000000
,  // measure 9
00001000
00000010
00000100
00000010
00001000
00000010
00000100
00000000
,  // measure 10
00000001
00000010
00001000
00000000
00010000
00100000
10000000
00000000
,  // measure 11
01000000
00100000
01000000
10000000
01000000
00100000
00010000
00000000
,  // measure 12
10000000
01000000
10000000
00000000
00010000
01000000
00010000
00000000
,  // measure 13
10000000
01000000
00010000
01000000
10000000
01000000
00100000
00001000
,  // measure 14
00010000
00000100
00000001
00000000
00000100
00001000
00000010
00000000
,  // measure 15
00000100
00000000
00000001
00000000
00000010
00000001
00000100
00000000
,  // measure 16
00001000
00000000
00000100
00000000
00000001
00001000
00001001
00000000
,  // measure 17
00000001
00000010
00000001
00001000
00000001
00000000
00000001
00000020
,  // measure 18
00000000
00002030
00000000
00023000
00000000
00230000
00000000
10300000
,  // measure 19
00010000
10000000
01000000
10000000
00010000
00000000
10000000
00200000
,  // measure 20
00000000
00320000
00000000
00032000
00000000
00003020
00000000
00000031
,  // measure 21
00001000
00000001
00000100
00000001
00001000
00000000
00000001
00000200
,  // measure 22
00000000
00002300
00000000
00023000
00000000
02030000
00000000
13000000
,  // measure 23
00010000
10000000
01000000
10000000
00010000
00000000
10000000
02000000
,  // measure 24
00000000
03010000
00001000
00000100
00000000
00000100
00000001
00000010
,  // measure 25
00000011
00000000
00001001
00000000
00000100
00001000
00000010
00000000
,  // measure 26
00001010
00000000
00001001
00000000
00001000
00000100
00010000
00000000
,  // measure 27
00011000
00000000
01001000
00000000
00001000
01000000
00010000
00000000
,  // measure 28
01010000
00000000
10010000
00000000
10000000
00010000
00100000
00000000
,  // measure 29
01000000
10000000
00100000
10000000
01000000
00010000
00001000
00000000
,  // measure 30
00010000
00001000
00000100
00000001
00000010
00000001
00000100
00000000
,  // measure 31
00000001
00000010
00000100
00000010
00001000
00000010
00000100
00000010
,  // measure 32
00000001
00000100
00000010
00000100
00001000
00000100
00000001
00000000
,  // measure 33
00000010
00000100
00001000
00000001
00000010
00000100
00010000
00000000
,  // measure 34
00001000
00010000
00100000
10000000
00001000
01000000
00100000
00000000
,  // measure 35
10000000
01000000
00010000
00000000
01000000
00010000
00001000
00000000
,  // measure 36
00010000
00001000
00000100
00000000
00001000
00000100
00000010
00000000
,  // measure 37
00000100
00000010
00001000
00010000
01000000
00100000
00010000
00000000
,  // measure 38
00001000
00100000
00010000
00000000
00100000
00001000
00010000
00000000
,  // measure 39
00001000
00010000
01000000
00100000
00010000
00001000
00000100
00000010
,  // measure 40
00000001
00000000
00001000
00000000
00000001
00001000
00000010
00000000
,  // measure 41
00000200
00000001
00001000
00000301
,  // measure 42
00000010
00000001
00001000
00000001
00000100
00000000
00000001
00000200
,  // measure 43
00000000
00002300
00000000
00023000
00000000
01030000
10000000
00000000
,  // measure 44
00100000
10000000
00010000
10000000
01000000
00000000
00010000
00002000
,  // measure 45
00000000
00003200
00000000
00000302
00000000
00000013
00000001
00000000
,  // measure 46
00000010
00000001
00001000
00000001
00000100
00000000
00001000
00020000
,  // measure 47
00000000
01030000
10000000
00200000
00000000
01300000
00010000
00100000
,  // measure 48
10000000
00100000
00010000
01000000
10000000
00000000
01000000
00020000
,  // measure 49
00000000
00130000
00001000
00020000
00000000
00030100
00001000
00000010
,  // measure 50
00000100
00000000
00000110
00000000
00000010
00001000
00000001
00000000
,  // measure 51
00000010
00000000
00000011
00000000
00000001
00001000
00000100
00000000
,  // measure 52
00010000
00000000
00010100
00000000
00000100
00010000
00001000
01000000
,  // measure 53
00100000
00000000
01000000
00000000
00010000
00000000
10000000
01000000
,  // measure 54
00100000
00000000
00110000
00000000
00010000
01000000
00001000
00000000
,  // measure 55
00010000
00000000
00011000
00000000
00010000
00000100
00000010
00000001
,  // measure 56
00002000
00000010
00003002
00000100
,  // measure 57
00001003
00001100
00000101
00001001
,  // measure 58
00000001
00000100
00000001
00001000
00000001
00000010
00001000
00010000
,  // measure 59
00100000
10000000
00010000
10000000
01000000
00100000
00010000
00000000
,  // measure 60
10000000
01000000
00100000
00010000
01000000
00100000
00010000
00001000
,  // measure 61
00000100
00000010
00001000
00000001
00000010
00000100
00000001
00000000
,  // measure 62
00000100
00001000
00000001
00000010
00000100
00001000
00000001
00000000
,  // measure 63
00000100
00000010
00010000
00000100
00001000
00000010
00010000
00000000
,  // measure 64
00001000
00100000
01000000
00010000
01000000
10000000
00100000
00010000
,  // measure 65
00001000
00010000
00100000
10000000
01000000
00000000
00100000
01000000
,  // measure 66
20020000
00000000
00000000
00000000
,  // measure 67
30030000
00000000
00000000
00000000
;

//---------------dance-double - ----------------
#NOTES:
     dance-double:
     :
     Challenge:
     11:
     0.594879,0.770567,0.341064,0.182430,0.404518,525.000000,478.000000,43.000000,23.000000,0.000000,24.000000,0.594879,0.770567,0.341064,0.182430,0.404518,525.000000,478.000000,43.000000,23.000000,0.000000,24.000000:
// measure 0
00000000
00000000
00000000
00000000
,  // measure 1
00000000
00000000
00000000
00000000
,  // measure 2
00000000
00000000
00000000
00000000
,  // measure 3
00000000
00000000
00000000
00000000
,  // measure 4
10000000
00000000
00010000
00000000
02000000
00000000
00000000
00100000
00000000
03001000
00000000
00000000
00010000
00000000
00000100
00000000
,  // measure 5
00000010
00000000
00000001
00000000
00002000
00000000
00000000
00000100
00000000
00003001
00000000
00000000
00000001
00000000
00000010
00000000
,  // measure 6
00000100
00000000
00010000
00000000
00002000
00000000
00000000
01000000
00000000
00013000
00000000
00000000
00001000
00000000
01000000
00000000
,  // measure 7
00100000
00000000
10000000
00010000
01000000
00000000
00010000
00100000
00001000
00000000
00010000
00000100
00001000
00000000
00000100
00001000
,  // measure 8
00000001
00000000
00000001
00000000
00000100
00000000
00000100
00000000
00000010
00010000
00100000
00000000
01000000
00000000
01000000
00010000
,  // measure 9
00100000
00000000
01000000
00000000
01000000
00000000
00010000
00001000
00000100
00000000
00000001
00000010
00000001
00000000
00001000
00000100
,  // measure 10
00000001
00000000
00000100
00000000
00010000
00000000
01000000
00000000
10000000
00100000
01000000
00000000
11000000
00000000
00000000
00000000
,  // measure 11
01000000
00010000
00100000
01000000
00010000
00000100
00001000
00000010
00000100
00000000
00000001
00001000
00000001
00000000
00000010
00000100
,  // measure 12
00001000
00000000
00000010
00000100
00001000
00000000
01000000
00010000
00100000
10000000
00100000
00010000
01000000
00000000
00100000
00000000
,  // measure 13
10000000
00000000
01000000
00000000
00001000
00000000
00000010
00000000
00000100
00001000
00000100
00000000
00000001
00000000
00001000
00000100
,  // measure 14
00000010
00000000
00001000
00010000
00100000
00000000
01000000
00000000
00010000
00000000
10000000
00100000
00010000
00000000
00001000
00000000
,  // measure 15
00000010
00000001
00000100
00001000
00010000
01000000
10000000
00100000
01000000
00100000
10000000
00010000
00100000
01000000
10000000
00010000
,  // measure 16
02000000
00000000
00000000
03100000
,  // measure 17
10010000
01000000
00011000
00000100
00001001
00000000
00000002
00000200
,  // measure 18
00000000
00001000
00000000
00010000
00000000
00100303
00000000
00000000
,  // measure 19
00001001
00000010
00011000
00100000
10010000
00000000
20000000
02000000
,  // measure 20
00000000
00010000
00000000
00001000
00000000
33000010
00000000
00000000
,  // measure 21
10010000
00100000
00011000
00000010
00001001
00000000
00000200
00020000
,  // measure 22
00000000
00000000
00000010
00130300
00000000
00011100
00000000
00000000
,  // measure 23
00001001
00000100
00011000
01000000
10010000
00000000
02000000
00002000
,  // measure 24
00000000
00000000
00100000
03003010
00000000
00000000
01001000
00010100
,  // measure 25
00010000
00000000
00100000
00000000
10000000
00000000
01000000
00010000
00000000
00000010
00000000
00000100
00000001
00000000
00000010
00000000
,  // measure 26
00000001
00000000
00000100
00000000
00001000
00000000
00100000
10000000
00000000
00100000
00000000
00001000
01000000
00000000
10000000
00000000
,  // measure 27
01000000
00000000
00100000
00000000
00001000
00000000
00000010
00010000
00000000
01000000
00000000
10000000
00010000
00000000
10000000
00000000
,  // measure 28
01000000
00000000
00001000
00000000
00010000
00000000
00000010
00000001
00000000
00000010
00000000
00000100
00010000
00000000
00000010
00000000
,  // measure 29
00000001
00000000
00000010
00000000
00010000
00000000
01000000
10000000
00000000
00010000
00000000
10000000
00100000
00000000
01000000
00000000
,  // measure 30
00001000
00000000
00010000
00000000
00000010
00000000
00000100
00000001
00000000
00000010
00000000
00001000
00000010
00000000
00000100
00000000
,  // measure 31
00010000
00000000
01000000
00000000
00010000
00000000
00000100
00000010
00000000
00010000
00000000
01000000
10000000
00000000
01000000
00000000
,  // measure 32
01010000
00001100
01110000
00001110
,  // measure 33
00010000
00001000
00000000
00000100
00000000
00000000
00000010
00000000
00001000
00010000
00000000
01000000
00000000
00000000
00100000
00000000
,  // measure 34
10000000
00000000
01000000
00000000
00010000
00000000
00001000
00000000
00000100
00000000
00000001
00000010
00000100
00000000
00001000
00000000
,  // measure 35
00100000
00001000
00000010
00010000
01000000
00010000
00000100
00001000
,  // measure 36
00000001
00000010
00001000
00000000
00011000
00000000
00010000
00100000
10000000
00000000
01000000
00100000
01000000
00000000
10000000
01000000
,  // measure 37
00010000
00000000
00001000
00000100
00000001
00000000
00000010
00000100
00001000
00000001
00001000
00000100
00000010
00000000
00000001
00000000
,  // measure 38
00000100
00000000
00010000
00000000
00100000
00000000
01000000
00000000
00010000
01000000
10000000
00100000
00010000
00000000
00000100
00000000
,  // measure 39
00000010
00000001
00000010
00000001
00010000
00000000
00001000
00000000
01000000
10000000
01000000
00100000
01000000
00000000
00010000
00000000
,  // measure 40
10000000
01000000
10000000
00010000
00100000
00001000
00010000
00000100
00000010
00000001
00000100
00000010
00001000
00000001
00000010
00000100
,  // measure 41
00002000
00000000
00000000
00003001
,  // measure 42
00001001
00000100
00011000
01000000
10010000
00000000
20000000
02000000
,  // measure 43
00000000
00010000
00000000
00001000
00000000
33000010
00000000
00000000
,  // measure 44
10010000
00100000
00011000
00000010
00001001
00000000
00000002
00000200
,  // measure 45
00000000
00001000
00000000
00010000
00000000
00100303
00000000
00000000
,  // measure 46
00001001
00000010
00011000
00100000
10010000
00000000
02000000
00002000
,  // measure 47
00000000
00000000
00100000
03003010
00000000
01011000
00000000
00000000
,  // measure 48
10010000
01000000
00011000
00000100
00001001
00000000
00000200
00020000
,  // measure 49
00000000
00000000
00000010
00130300
00000000
00000000
00010100
01001000
,  // measure 50
00011000
00001000
00100000
00010000
10000000
01000000
00010000
00001000
,  // measure 51
00000100
00001000
00010000
01000000
00010000
00001000
00000010
00001000
,  // measure 52
00010000
00100000
00010000
00001000
00000010
00000001
00000100
00010000
,  // measure 53
00000100
00000001
00000010
00010000
00100000
00001000
00010000
00100000
,  // measure 54
10000000
01000000
00001000
01000000
10000000
00100000
00001000
00000010
,  // measure 55
00001000
00000001
00000010
00000100
00010000
00001000
00000100
00000000
,  // measure 56
00000010
00010000
00001000
00000000
00100000
00001000
00010000
00000000
,  // measure 57
00011000
00100100
01000010
10000001
,  // measure 58
00011000
00000000
00001000
00000000
00010000
00000000
00000000
00100000
00000000
10000000
00000000
00000000
01000000
00000000
00010000
00000000
,  // measure 59
00001000
00000000
00000100
00000000
00000001
00000000
00000000
00000010
00000000
00001000
00000000
00000000
00010000
00000000
00000100
00000000
,  // measure 60
00001000
00000000
00000010
00000000
00000001
00000000
00000000
00000010
00000000
00001000
00000000
00000000
00010000
00000000
00100000
00000000
,  // measure 61
10000000
00000000
00100000
00000000
00010000
00000000
00000000
01000000
00000000
10000000
00000000
00000000
01000000
00000000
00010000
00000000
,  // measure 62
10000000
00000000
01000000
00000000
00010000
00000000
00000000
00000100
00000000
00000001
00000000
00000000
00000100
00000000
00010000
00000000
,  // measure 63
00000001
00000000
00000010
00000000
00001000
00000000
00000000
00100000
00000000
10000000
00000000
00000000
00100000
00000000
00010000
00000000
,  // measure 64
01000000
00000000
00100000
00000000
00010000
00000000
00000000
00000010
00000000
00000001
00000000
00000000
00000010
00000000
00010000
00000000
,  // measure 65
00100000
00000000
10000000
00000000
00001000
00000000
00000000
00010000
00000000
01000000
00000000
00000000
10000000
00000000
00010000
00000000
,  // measure 66
20020000
00000000
00000000
00000000
,  // measure 67
30030000
00000000
00000000
00000000
;
