#TITLE:Saturday Night;
#SUBTITLE:;
#ARTIST:Whigfield;
#TITLETRANSLIT:;
#SUBTITLETRANSLIT:;
#ARTISTTRANSLIT:;
#GENRE:;
#CREDIT:;
#BANNER:Saturday Night-Banner.png;
#BACKGROUND:Saturday Night-Background.png;
#LYRICSPATH:;
#CDTITLE:;
#MUSIC:Whigfield - Saturday Night.ogg;
#OFFSET:-1.009000;
#SAMPLESTART:74.866997;
#SAMPLELENGTH:14.772000;
#SELECTABLE:YES;
#BPMS:0.000000=129.979996
;
#STOPS:
;
#BGCHANGES:;
#KEYSOUNDS:;
#ATTACKS:;

//---------------dance-single - ----------------
#NOTES:
     dance-single:
     :
     Beginner:
     2:
     0.134813,0.212135,0.148183,0.046795,0.000000,121.000000,102.000000,19.000000,6.000000,0.000000,0.000000,0.134813,0.212135,0.148183,0.046795,0.000000,121.000000,102.000000,19.000000,6.000000,0.000000,0.000000:
0000
0000
0000
0000
,
0000
0000
0000
0000
,
0000
0000
0000
0000
,
0000
0000
0000
0000
,
0010
0000
0010
0000
,
1000
0000
0200
0300
,
0000
0000
0000
0010
,
0010
0000
0000
0000
,
0010
0000
0010
0000
,
0001
0000
0200
0300
,
0000
0000
0000
0010
,
0010
0000
0000
0000
,
1000
0000
0001
0000
,
0100
0100
0100
0000
,
0001
0000
0000
0000
,
1000
0000
0000
0000
,
0001
0000
1000
0000
,
0100
0100
0100
0000
,
1000
0000
0001
0000
,
0010
0000
0000
0000
,
1001
0000
0001
0000
,
0100
0000
2000
3000
,
0000
0000
0000
0100
,
0100
0000
0000
0000
,
1001
0000
1000
0000
,
0100
0000
0002
0003
,
0000
0000
0000
0100
,
0100
0000
0000
0000
,
0010
0000
0010
0000
,
1000
0000
1000
0000
,
0001
0000
0001
0000
,
0100
0000
0100
0000
,
0010
0000
0000
0000
,
1000
0000
0000
0000
,
0001
0000
0000
0000
,
0100
0000
0000
0000
,
0001
0001
0000
0000
,
0010
0000
0000
0000
,
1000
1000
0000
0000
,
0010
0000
0000
0000
,
1001
0000
0100
0000
,
0001
0000
1000
0000
,
0010
0010
0000
0000
,
0010
0010
0000
0000
,
1000
0000
0000
0000
,
0001
0000
0000
0000
,
0100
0100
0000
0000
,
0200
0000
0300
0000
,
1001
0000
0000
0000
,
0110
0000
0000
0000
,
1001
0000
0001
0000
,
0110
0000
0010
0000
,
1001
0000
0000
0000
,
0110
0000
0000
0000
,
1001
0000
1000
0000
,
0110
0000
0100
0000
,
1001
0000
0000
0000
,
0110
0000
0000
0000
,
1001
0000
0001
0000
,
0110
0000
0010
0000
,
1001
0000
0000
0000
,
0110
0000
0000
0000
,
1001
0000
1000
0000
,
0110
0000
0100
0000
,
0001
0000
1000
0000
,
0100
0000
0000
0000
,
1000
0000
0001
0000
,
0100
0100
0200
0000
,
0300
0000
0000
0000
;

//---------------dance-single - ----------------
#NOTES:
     dance-single:
     :
     Easy:
     3:
     0.220603,0.371237,0.179379,0.101388,0.000000,198.000000,175.000000,23.000000,13.000000,0.000000,0.000000,0.220603,0.371237,0.179379,0.101388,0.000000,198.000000,175.000000,23.000000,13.000000,0.000000,0.000000:
0000
0000
0000
0000
,
0000
0000
0000
0000
,
0000
0000
0000
0000
,
0000
0000
0000
0000
,
0001
0010
0001
0000
,
0100
0010
2000
0000
,
3000
0000
0000
0001
,
0100
0000
0000
0000
,
1000
0100
1000
0000
,
0010
0100
0002
0000
,
0003
0000
0000
0100
,
0010
0000
0000
0000
,
1000
0001
0010
0000
,
0001
0010
0200
0000
,
0300
0000
0000
0100
,
0010
0000
0000
0000
,
0001
1000
0100
0000
,
0010
0100
2000
0000
,
3000
0000
0000
0001
,
0100
0000
0000
0000
,
0010
0010
1000
1000
,
0100
0001
0010
1000
,
0001
0000
1000
0000
,
0010
0000
0100
0000
,
0010
0010
0100
0100
,
0001
0010
1000
0100
,
0001
0000
1000
0000
,
0100
0000
0100
0000
,
1001
0100
1000
0100
,
1001
0100
0001
0100
,
1001
0000
0010
0000
,
1001
0000
0100
0000
,
0020
0000
0030
0000
,
2000
0000
3000
0000
,
0002
0000
0003
0000
,
0200
0000
0300
0000
,
0020
0000
0030
0000
,
2000
0000
3000
0000
,
0002
0000
0003
0000
,
0200
0000
0300
0000
,
0001
0010
0001
0100
,
0001
1000
0001
0000
,
1000
0010
1000
0100
,
1000
0001
1000
0000
,
1001
0100
1000
0100
,
1001
0100
0001
0100
,
1001
0000
0010
0000
,
0100
0000
0000
0000
,
1001
1001
0001
0010
,
0110
0110
0100
1000
,
1001
1001
0001
0100
,
0110
0110
0010
1000
,
1100
1100
0100
0010
,
0011
0011
0001
0100
,
0110
0110
0010
1000
,
1001
1001
0001
0010
,
0100
0100
1000
0100
,
0010
0010
0001
0010
,
0001
0100
1000
0000
,
0100
0001
0010
0000
,
0100
0100
1000
1000
,
0001
0010
1000
0010
,
0001
1000
0010
0000
,
0100
0001
1000
0000
,
0010
0010
0100
0100
,
0001
0001
0000
1000
,
0001
0001
1000
1000
,
0100
0100
0200
0000
,
0300
0000
0000
0000
;

//---------------dance-single - ----------------
#NOTES:
     dance-single:
     :
     Medium:
     5:
     0.257370,0.318203,0.031196,0.015598,0.000000,231.000000,227.000000,4.000000,2.000000,0.000000,0.000000,0.257370,0.318203,0.031196,0.015598,0.000000,231.000000,227.000000,4.000000,2.000000,0.000000,0.000000:
0000
0000
0000
0000
,
0000
0000
0000
0000
,
0000
0000
0000
0000
,
0000
0000
0000
0000
,
0001
0100
0001
1000
,
0010
0000
0100
0100
0100
0000
0000
0000
,
0010
0000
0100
0000
,
0001
1000
0001
0000
0000
0000
0000
0000
,
1000
0100
0010
0001
,
1000
0000
0010
0010
0010
0000
0000
0000
,
0100
0000
0010
0000
,
1000
0001
1000
0000
0000
0000
0000
0000
,
0001
0100
0001
0010
,
0100
0000
1000
1000
1000
0000
0000
0000
,
0001
0000
1000
0000
,
0010
0100
0010
0000
0000
0000
0000
0000
,
1000
0010
0100
0010
,
1000
0000
0001
0001
0001
0000
0000
0000
,
0010
0000
0100
0000
,
0010
0001
1000
0000
0000
0000
0000
0000
,
1001
0010
0100
0010
,
1001
0000
0001
1000
0001
0000
1000
0000
,
0100
0010
0001
0100
,
1000
0100
0001
0100
,
1001
0100
0010
1001
,
0010
0000
1000
0001
1000
0000
0000
0000
,
0001
0010
0100
1000
,
0010
1000
0100
0010
,
0001
0000
0100
0000
0001
0000
0100
0001
,
1000
0000
0100
0000
1000
0000
0100
1000
,
0001
0000
0010
0000
0001
0000
0010
0001
,
1000
0000
0010
0000
1000
0000
0010
1000
,
0001
0000
0000
0000
,
1000
0010
0100
0000
,
0001
0000
0000
0000
,
1000
0100
1000
0000
0000
0000
0000
0000
,
0001
0010
0100
0000
,
1000
0000
0000
0000
,
0001
0000
0000
0000
,
1000
0010
1000
0000
0000
0000
0000
0000
,
0010
0000
1000
0000
0001
0000
0100
0001
,
1000
0000
0100
0000
0010
0000
0001
1000
,
0010
0000
0100
0000
0010
0000
1000
0100
,
1000
0000
0010
0000
0100
0000
0001
0010
,
0001
0000
1000
0000
0001
0000
0100
0010
,
1000
0000
0001
0000
1000
0000
0100
0010
,
0001
0000
1000
0000
0010
0000
0100
0010
,
0100
0000
0000
0000
,
0001
0010
0001
0000
0000
0000
0000
0000
,
1000
0100
1000
0000
0000
0000
0000
0000
,
0010
0100
0010
1000
0000
0000
0000
0000
,
0100
0010
0100
0001
0000
0000
0000
0000
,
0100
1000
0100
0000
0000
0000
0000
0000
,
0010
0001
0010
0000
0000
0000
0000
0000
,
0001
0100
0001
1000
0000
0000
0000
0000
,
1000
0100
1000
0001
0000
0000
0000
0000
,
0010
0001
0010
0000
0000
0000
0000
0000
,
0100
1000
0100
0000
0000
0000
0000
0000
,
1000
0010
1000
0001
0000
0000
0000
0000
,
0001
0100
0001
1000
0000
0000
0000
0000
,
0010
0100
0010
0000
0000
0000
0000
0000
,
1000
0001
1000
0000
0000
0000
0000
0000
,
0100
0010
0001
1000
0000
0000
0000
0000
,
0010
0100
0001
1000
0000
0000
0000
0000
,
0001
1000
0001
1000
,
0010
0100
0010
0100
,
0001
0010
0100
1000
,
0002
0000
2000
0000
,
3003
0000
0000
0000
;

//---------------dance-single - ----------------
#NOTES:
     dance-single:
     :
     Hard:
     7:
     0.391069,0.450788,0.101388,0.031196,0.105288,351.000000,338.000000,13.000000,4.000000,0.000000,0.000000,0.391069,0.450788,0.101388,0.031196,0.105288,351.000000,338.000000,13.000000,4.000000,0.000000,0.000000:
// measure 0
0000
0000
0000
0000
,  // measure 1
0000
0000
0000
0000
,  // measure 2
0000
0000
0000
0000
,  // measure 3
0000
0000
0000
0000
,  // measure 4
1000
0100
1000
0100
0000
0010
0001
0000
,  // measure 5
0100
0000
0010
0100
0001
0000
1000
0000
,  // measure 6
0001
0000
0100
0010
0000
1000
0100
0000
,  // measure 7
0010
0000
0001
0010
0000
0100
0010
0000
,  // measure 8
0001
0100
0001
0100
0000
0010
1000
0000
,  // measure 9
0001
0010
0100
0000
1000
0100
0010
0000
,  // measure 10
0001
0000
1000
0010
0000
0100
0001
0000
,  // measure 11
1000
0000
0001
0010
0000
0100
1000
0000
,  // measure 12
0010
0100
0010
1000
0000
0001
0010
0000
,  // measure 13
0100
0010
0100
1000
0001
0000
0100
0000
,  // measure 14
0010
0000
1000
0100
0000
1000
0010
0000
,  // measure 15
0100
0000
0001
0010
0000
0001
0100
0000
,  // measure 16
0001
1000
0001
1000
0000
0010
0100
0000
,  // measure 17
0001
0010
0100
1000
0001
0000
1000
0000
,  // measure 18
0100
0000
0010
0100
0000
1000
0001
0000
,  // measure 19
0010
0000
0100
0010
0000
0001
1000
0000
,  // measure 20
0011
1100
0101
1010
,  // measure 21
0001
0100
1000
0100
0001
1000
1000
0000
,  // measure 22
0100
0000
0010
0000
0100
0010
0001
0000
,  // measure 23
0100
0000
0010
0000
0100
0010
1000
0000
,  // measure 24
1010
0101
1100
0011
,  // measure 25
0001
0100
1000
0100
0001
1000
1000
0000
,  // measure 26
1100
0000
0001
0010
0100
0000
1000
0000
,  // measure 27
0101
0000
1000
0010
0100
0000
1000
0000
,  // measure 28
1001
0000
0000
0001
0000
0000
0001
0000
0000
0001
0000
0000
0100
0000
0000
0000
,  // measure 29
0010
0000
0000
0010
0000
0000
0010
0000
0000
0010
0000
0000
1000
0000
0000
0000
,  // measure 30
0100
0000
0000
1000
0000
0000
0001
0000
0000
1000
0000
0000
0100
0000
0000
0000
,  // measure 31
0010
0000
0000
0001
0000
0000
1000
0000
0000
0001
0000
0000
0010
0000
0000
0000
,  // measure 32
0100
1000
0001
1000
0000
0010
0100
0000
,  // measure 33
0001
0010
0001
1000
0001
0000
0100
0000
,  // measure 34
0010
0000
0000
0000
0000
0000
1000
0001
,  // measure 35
0100
0000
0000
0000
,  // measure 36
0001
0010
0001
1000
0000
0100
1000
0000
,  // measure 37
0010
0100
0010
1000
0001
0000
0010
0000
,  // measure 38
0100
0000
0000
0000
0000
0010
0001
0100
,  // measure 39
0000
0010
1000
0001
0000
0000
0010
0000
,  // measure 40
0110
0000
0000
0001
0000
0000
1000
0000
0000
0001
0000
0000
0100
0000
0000
0000
,  // measure 41
0010
0000
0000
1000
0000
0000
0001
0000
0000
1000
0000
0000
0100
0000
0000
0000
,  // measure 42
0010
0000
0000
0001
0000
0000
0100
0000
0000
1000
0000
0000
0100
0000
0000
0000
,  // measure 43
0010
0000
0000
1000
0000
0000
0100
0000
0000
0001
0000
0000
0100
0000
0000
0000
,  // measure 44
1000
0000
0000
0010
0000
0000
1000
0000
0000
0001
0000
0000
1000
0000
0000
0000
,  // measure 45
0001
0000
0000
0100
0000
0000
0001
0000
0000
1000
0000
0000
0001
0000
0000
0000
,  // measure 46
0010
0000
0000
0100
0000
0000
1000
0000
0000
0100
0000
0000
0010
0000
0000
0000
,  // measure 47
2002
0000
0000
3003
,  // measure 48
0001
0001
0100
0010
0000
1000
0001
0000
,  // measure 49
1000
1000
0100
0010
0000
0001
1000
0000
,  // measure 50
0001
0001
0100
1000
0000
0100
0001
0000
,  // measure 51
1000
1000
0100
0001
0000
0100
1000
0000
,  // measure 52
0001
0001
0100
0010
0000
1000
0010
0000
,  // measure 53
1000
1000
0100
0010
0000
0001
0010
0000
,  // measure 54
0100
0100
1000
0010
0000
0100
0010
0000
,  // measure 55
0100
0100
0001
0010
0000
0100
0010
0000
,  // measure 56
0001
0010
0001
1000
0000
1000
0001
0000
,  // measure 57
1000
0010
1000
0001
0000
0001
1000
0000
,  // measure 58
0100
0010
0100
1000
0000
0100
0001
0000
,  // measure 59
0100
0010
0100
0001
0000
0100
1000
0000
,  // measure 60
0001
0100
0001
1000
0000
0010
0100
0000
,  // measure 61
0010
1000
0010
0100
0000
0001
0010
0000
,  // measure 62
0100
1000
0001
1000
0000
0100
0010
0000
,  // measure 63
0001
0100
0001
1000
0000
0010
0100
0000
,  // measure 64
0010
0000
0000
1000
0000
0000
0001
0000
1000
0000
0000
0100
0000
0000
0010
0000
,  // measure 65
0001
0000
0000
0100
0000
0000
0001
0000
0000
0000
1000
0000
0100
0000
0010
0000
,  // measure 66
0001
0000
0000
0100
0000
0000
0001
0000
1000
0000
0000
0010
0000
0000
1000
0000
,  // measure 67
0002
1000
2000
0000
,  // measure 68
3003
0000
0000
0000
;

//---------------dance-single - ----------------
#NOTES:
     dance-single:
     :
     Challenge:
     9:
     0.608329,0.607647,0.382156,0.062393,0.409452,546.000000,497.000000,49.000000,8.000000,0.000000,0.000000,0.608329,0.607647,0.382156,0.062393,0.409452,546.000000,497.000000,49.000000,8.000000,0.000000,0.000000:
0000
0000
0000
0000
,
0000
0000
0000
0000
,
0000
0000
0000
0000
,
0000
0000
0000
0000
,
1000
0001
1000
0000
0100
0000
0020
0000
0000
0000
0031
0000
0100
0000
0001
0000
,
0010
0000
0010
0000
0100
0000
0100
0000
1000
0001
1000
0000
0010
0000
0000
0000
,
0100
0000
0000
0100
0001
0000
0001
0000
1000
0000
0000
1000
0100
0000
0100
0000
,
0010
0000
0000
0010
0001
0000
0001
0000
0000
0000
1000
0000
0010
0000
1000
0000
,
0001
0100
0001
0000
1000
0000
0020
0000
0000
0000
0130
0000
0001
0000
1000
0000
,
0001
0000
0001
0000
1000
0000
1000
0000
0010
0100
0010
0000
1000
0000
0100
0000
,
0010
0000
0000
0010
0001
0000
1000
0000
0010
0000
0000
0100
0001
0000
1000
0000
,
0100
0000
0000
0010
0001
0000
1000
0000
0000
0000
0001
0000
0100
0000
0010
0000
,
1000
0100
1000
0000
0001
0000
2000
0000
0000
0000
3001
0000
0100
0000
0100
0000
,
0010
0000
0010
0000
1000
0000
0001
0000
0100
0010
0100
0000
0001
0000
1000
0000
,
0001
0000
0000
1000
0100
0000
0010
0000
0001
0000
0000
0001
0100
0000
0010
0000
,
1000
0000
0000
1000
0001
0000
0100
0000
0000
0000
0010
0000
0100
0000
0001
0000
,
1000
0100
1000
0000
0001
0000
0200
0000
0000
0000
0310
0000
0100
0000
0001
0000
,
0001
0000
1000
0000
1000
0000
0010
0000
0100
0010
1000
0000
0000
0000
0001
0000
,
0100
0000
0000
0100
0001
0000
1000
0000
0100
0000
0000
0100
1000
0000
0001
0000
,
0100
0000
0000
0100
0010
0000
0100
0000
0001
0000
1000
0100
0010
0000
0000
0000
,
0011
0000
0000
0000
1001
0000
0000
1000
0100
0000
0010
0000
1001
0000
0000
0000
,
1010
0000
0000
0000
1001
0000
0000
0001
0100
0000
0010
0000
1001
0000
0000
0000
,
1100
0000
0000
0001
0010
0000
0001
0000
0101
0000
0000
1000
0010
0000
1000
0000
,
1100
0000
0000
0100
0010
0000
0100
0000
1001
0000
1000
0000
0001
0000
0100
0000
,
1100
0000
0000
0000
1001
0000
0000
0001
0010
0000
0100
0000
1001
0000
0000
0000
,
0101
0000
0000
0000
1001
0000
0000
1000
0010
0000
0100
0000
1001
0000
0000
0000
,
0011
0000
0000
1000
0100
0000
1000
0000
1010
0000
0000
0001
0100
0000
0001
0000
,
0011
0000
0000
0010
0100
0000
0010
0000
1001
0000
0001
0100
0010
0000
0000
0000
,
1010
0000
1000
0100
0000
0100
0010
0000
0010
0001
0000
0001
1000
0000
0001
0000
,
0100
0000
0100
0010
0000
0010
1000
0000
1000
0001
0000
0001
0100
0000
0001
0000
,
1010
0000
0001
0010
0000
0001
1000
0000
0001
0010
0000
0001
1000
0000
0100
0000
,
0011
0000
1000
0010
0000
1000
0001
0000
1000
0010
0000
1000
0001
0000
0100
0000
,
0010
0100
0010
0000
0100
0000
0002
0000
0000
0000
2003
0000
0000
0000
3100
0000
,
0010
0100
1000
0100
0001
0100
1000
0001
,
0010
0000
0000
0100
0000
0000
0010
0000
0001
0000
0000
1000
0000
0000
0010
0000
,
0100
0000
0000
0010
0000
0000
1000
0000
0000
0000
0001
0000
0100
0000
0001
0000
,
1000
0100
1000
0000
0001
0000
0020
0000
0000
0000
0031
0000
1000
0000
0001
0000
,
0100
0000
0100
0000
0010
0000
0010
0000
1000
0001
1000
0000
0010
0000
0100
0000
,
0001
0000
0000
0100
0000
0000
1000
0000
0100
0000
0000
0001
0000
0000
1000
0000
,
0100
0000
0000
0001
0000
0000
0100
0000
1000
0000
0001
0000
0100
0000
0010
0000
,
1010
0000
0000
0010
0100
0000
0001
0000
1000
0100
0000
0000
0011
0000
0000
0000
,
0101
0000
0000
1000
0100
0000
0010
0000
0001
0100
0000
0000
1010
0000
0000
0000
,
0110
0000
0000
0001
1000
0000
0001
0000
0100
0010
0000
0000
1100
0000
0000
0000
,
0011
0000
0000
1000
0100
0000
0001
0000
0100
1000
0000
0000
0110
0000
0000
0000
,
1001
0000
0000
0001
0010
0000
0001
0000
1000
0010
0000
0000
0110
0000
0000
0000
,
1001
0000
0000
1000
0100
0000
0010
0000
0100
1000
0000
0000
0101
0000
0000
0000
,
0110
0000
0000
0001
0100
0000
0010
0000
1000
0010
0000
0000
1001
0000
0000
0000
,
1000
0000
0000
0001
0000
0000
1000
0000
0000
0001
1000
0001
1000
0000
0000
0000
,
0010
0100
0010
0000
1000
0000
0001
0000
0010
0000
0001
0000
0100
0000
0100
0000
,
0001
0010
0001
0000
1000
0000
0001
0000
0010
0000
0100
0000
1000
0000
1000
0000
,
0100
0001
0100
0000
1000
0000
0001
1000
0001
0000
0100
0000
0010
0000
1000
0000
,
0001
0010
0001
0000
0100
0000
1000
0100
1000
0000
0100
0000
0010
0000
1000
0000
,
0001
0100
0001
0000
0100
0000
0001
0000
1000
0000
0001
0000
0010
0000
0010
0000
,
0100
1000
0100
0000
0010
0000
0001
0000
1000
0000
0010
0000
0100
0000
0100
0000
,
0001
1000
0001
0000
0100
0000
0010
0100
0010
0000
1000
0000
0001
0000
0010
0000
,
0100
1000
0100
0000
0010
0000
0001
1000
0001
0000
0100
0000
0010
0000
1000
0000
,
1010
0000
0000
0000
1001
0000
0000
0000
0101
0000
0000
0001
0100
0000
0010
0000
,
1010
0000
0000
0000
0011
0000
0000
0000
1100
0000
0000
1000
0100
0000
0010
0000
,
0011
0000
0000
0000
1001
0000
0000
0000
0101
0000
0000
0001
0100
0000
0010
0000
,
1010
0000
0000
0000
1001
0000
0000
0000
0011
0000
0000
0100
0010
0000
0100
0000
,
1000
0000
0000
0100
0001
0000
0100
0000
1000
0001
1000
0000
0010
0000
0100
0000
,
0001
0000
0000
0100
0010
0000
1000
0000
0001
1000
0001
0000
0010
0000
0100
0000
,
1000
0010
1000
0000
0100
0000
0010
0001
0010
0000
0100
0000
1000
0001
1000
0000
,
0010
0100
0010
0000
0100
0000
0001
1000
0001
0000
0100
0000
0010
1000
0010
0000
,
0100
0000
0000
0001
0000
0000
1000
0000
0001
0000
0000
0100
0000
0000
0010
0000
,
1000
0000
0000
0001
0000
0000
0010
0000
0000
0000
0100
0000
1000
0000
0100
0000
,
0001
0000
0000
0100
0000
0000
0010
0000
1000
0000
0000
0010
0000
0000
0001
0000
,
0100
0100
0200
0300
;

//---------------dance-double - ----------------
#NOTES:
     dance-double:
     :
     Easy:
     3:
     0.202776,0.238652,0.000000,0.007799,0.000000,182.000000,182.000000,0.000000,1.000000,0.000000,0.000000,0.202776,0.238652,0.000000,0.007799,0.000000,182.000000,182.000000,0.000000,1.000000,0.000000,0.000000:
00000000
00000000
00000000
00000000
,
00000000
00000000
00000000
00000000
,
00000000
00000000
00000000
00000000
,
00000000
00000000
00000000
00000000
,
10000000
00000000
01000000
00000000
,
00010000
00010000
00010000
00000000
,
00000000
00000000
00000000
00000000
,
00001000
00000000
00000000
00000000
,
00000001
00000000
00000100
00000000
,
00001000
00001000
00001000
00000000
,
00000000
00000000
00000000
00000000
,
00010000
00000000
00000000
00000000
,
01000000
00000000
00100000
00000000
,
00010000
10000000
00010000
00000000
,
00000000
00000000
00000000
00000000
,
00000010
00000000
00000000
00000000
,
00000010
00000000
00000100
00000000
,
00000001
00001000
00000001
00000000
,
00000000
00000000
00000000
00000000
,
00100000
00000000
00000000
00000000
,
01000000
01000000
10000000
10000000
,
00010000
00100000
00010000
00000000
,
01000000
00000000
00001000
00000000
,
00010000
00000000
00000100
00000000
,
00000010
00000010
00000001
00000001
,
00001000
00000100
00000010
00000000
,
00001000
00000000
00010000
00000000
,
00100000
00000000
01000000
00000000
,
00010000
10000000
00010000
10000000
,
01000000
00100000
01000000
00100000
,
00010000
00001000
00010000
00001000
,
00000100
00000010
00000100
00000010
,
00000001
00001000
00000001
00001000
,
00000010
00000100
00000010
00000100
,
00001000
00010000
00001000
00010000
,
00100000
01000000
00100000
01000000
,
00010000
00100000
00010000
00100000
,
01000000
10000000
01000000
10000000
,
00010000
01000000
00001000
00010000
,
00000100
00001000
00000100
00001000
,
00000001
00000010
00000001
00000010
,
00000100
00001000
00000100
00001000
,
00000010
00010000
00000010
00010000
,
00001000
00100000
00001000
00100000
,
00010000
01000000
00010000
01000000
,
00100000
10000000
00100000
10000000
,
01000000
00100000
01000000
00100000
,
00010000
00000000
00000000
00000000
,
10000000
01000000
00010000
00000000
,
00010000
00001000
00000100
00000000
,
00000100
00000001
00000010
00001000
,
00000010
00000001
00000100
00000000
,
00000001
00000100
00001000
00000000
,
00010000
01000000
10000000
00000000
,
00100000
00010000
00001000
00000010
,
00001000
00010000
00100000
00000000
,
01000000
00010000
10000000
00000000
,
10000000
00010000
00100000
00000000
,
00100000
00001000
00010000
00000100
,
00001000
00000001
00000010
00000000
,
00000001
00001000
00000010
00000000
,
00001000
00000001
00000010
00000000
,
00000001
00000010
00000100
00010000
,
00001000
00100000
01000000
00000000
,
10000000
00000000
00010000
00000000
,
00001000
00000000
00000001
00000000
,
00000100
00000000
00000010
00000000
,
00200000
00000000
00000000
00000000
,
00300000
00000000
00000000
00000000
;

//---------------dance-double - ----------------
#NOTES:
     dance-double:
     :
     Medium:
     5:
     0.306393,0.424271,0.194977,0.023397,0.000000,275.000000,250.000000,25.000000,3.000000,0.000000,0.000000,0.306393,0.424271,0.194977,0.023397,0.000000,275.000000,250.000000,25.000000,3.000000,0.000000,0.000000:
00000000
00000000
00000000
00000000
,
00000000
00000000
00000000
00000000
,
00000000
00000000
00000000
00000000
,
00000000
00000000
00000000
00000000
,
00010000
01000000
01000000
00100000
,
10000000
10000000
01000000
00000000
,
01000000
00000000
00010000
00000000
,
00001000
00000000
00000100
00000000
,
00000001
00000010
00000100
00001000
,
00000001
00000001
00001000
00000000
,
00000010
00000000
00010000
00000000
,
00001000
00000000
00000000
00000000
,
00010000
01000000
00010000
00010000
,
10000000
01000000
10000000
10000000
,
00010000
00000000
00100000
00000000
,
01000000
00000000
10000000
00000000
,
01000000
00100000
00010000
10000000
,
00100000
00010000
10000000
01000000
,
00100000
00000000
00010000
00000000
,
01000000
00000000
10000000
00000000
,
01000000
00010000
00001000
00000100
,
00000001
00000001
00000010
00000010
,
00000001
00000100
00001000
00000100
,
00010000
01000000
00010000
01000000
,
00100000
00100000
10000000
10000000
,
01000000
00010000
01000000
00010000
,
00001000
00000100
00001000
00010000
,
01000000
00010000
00000000
00000000
,
00011000
00000000
00011000
00000000
00000100
00000010
00000100
00000000
,
00011000
00000000
00011000
00000000
01000000
00100000
01000000
00000000
,
00011000
00000000
00011000
00000000
00001000
00000010
00001000
00000000
,
00011000
00000000
00011000
00000000
00010000
00100000
00010000
00000000
,
00011000
00001000
00000000
00000000
,
00000100
00000001
00001000
00000000
00000001
00000000
00000000
00000000
,
00001000
00010000
00000000
01000000
,
00100000
10000000
00000000
00000000
,
01000000
00000000
00010000
00000000
00000000
00000000
00001000
00010000
,
00100000
01000000
00000000
00010000
,
00100000
00000000
01000000
00000000
00000000
00000000
10000000
00010000
,
10000000
01000000
00000000
00000000
,
11000000
00000000
01010000
00000000
00001000
00010000
00000100
00000000
,
00001100
00000000
00000101
00000000
00000001
00000010
00001000
00000000
,
00011000
00000000
00001010
00000000
00000010
00001000
00000001
00000000
,
00000110
00000000
00011000
00000000
00010000
00100000
01000000
00000000
,
01100000
00000000
10010000
00000000
10000000
01000000
00010000
00000000
,
00011000
00000000
01100000
00000000
00100000
00010000
10000000
00000000
,
11000000
00000000
01010000
00000000
01000000
00100000
01000000
00000000
,
00020000
20030000
00000000
30000000
,
00010000
01000000
00010000
00000000
00100000
00000000
00100000
00000000
,
00001000
00010000
00001000
00000000
00000010
00000000
00000010
00000000
,
00000001
00001000
00000001
00000100
00000001
00000000
00000000
00000000
,
00001000
00000001
00001000
00000100
00001000
00000000
00000000
00000000
,
00000100
00010000
00000100
00000000
00010000
00000000
00010000
00000000
,
00001000
01000000
00001000
00000000
01000000
00000000
01000000
00000000
,
00010000
01000000
00010000
01000000
00100000
00000000
00100000
00000000
,
10000000
01000000
10000000
01000000
00100000
00000000
00100000
00000000
,
00010000
01000000
00010000
00000000
00000000
00000000
00011000
00000000
,
00000100
00001000
00000100
00000000
00000000
00000000
00011000
00000000
,
01000000
00000000
00010000
10000000
00010000
00000000
00000000
00000000
,
00100000
00000000
00001000
00010000
00001000
00000000
00000000
00000000
,
00000010
00000000
00000001
00000100
00000001
00000000
00001000
00000000
,
00000010
00000000
00001000
00000100
00001000
00000000
00000010
00000000
,
00000100
00000000
00000001
00001000
00000001
00001000
00000001
00000000
,
00000010
00000000
00000100
00000000
00010000
00001000
00010000
00000000
,
00001000
00010000
00100000
01000000
,
10000000
01000000
00100000
00010000
,
00001000
00000010
00000100
00000001
,
00000100
00000010
00002000
00000000
,
00003000
00000000
00000000
00000000
;

//---------------dance-double - ----------------
#NOTES:
     dance-double:
     :
     Hard:
     7:
     0.406667,0.450788,0.109187,0.085790,0.077991,365.000000,351.000000,14.000000,11.000000,0.000000,0.000000,0.406667,0.450788,0.109187,0.085790,0.077991,365.000000,351.000000,14.000000,11.000000,0.000000,0.000000:
00000000
00000000
00000000
00000000
,
00000000
00000000
00000000
00000000
,
00000000
00000000
00000000
00000000
,
00000000
00000000
00000000
00000000
,
00001000
00010000
00001000
00000020
00000000
00000031
00000100
00000000
,
00000001
00000100
00001000
00010000
,
01000000
00000000
10000000
00200000
00000000
10300000
01000000
00010000
,
01000000
00100000
00010000
01000000
,
00001000
00010000
00001000
00000200
00000000
00000300
00000001
00000000
,
00000010
00000100
00001000
00000000
00000010
00000000
00000000
00000000
,
00010000
00000000
00001000
00000000
00100000
00010000
01000000
20000000
,
00000000
31000000
00000000
00100000
00000000
10000000
00010000
00000000
,
10000000
00000000
01000000
00100000
00000000
00010000
00001000
00000000
,
00000100
00000000
00000010
00000100
00000000
00010000
00001000
00000000
,
01000000
00000000
00100000
00000000
10000000
00010000
10000000
01000000
,
10000000
00010000
00100000
01000000
,
10000000
00010000
10000000
00010000
01000000
00000000
00001000
00000000
,
00010000
00000000
00000100
00001000
00000001
00000000
00000010
00000000
,
00000001
00000000
00000100
00000010
00000000
00001000
00000001
00000010
,
00000100
00000000
00001000
00000100
00000000
00001000
00000100
00000000
,
00010000
00011000
00001000
01001000
,
01000000
00100000
01000000
00010000
01000000
00100000
01000000
00000000
,
00100000
10100000
10000000
10010000
,
00010000
00100000
01000000
10000000
,
01000000
01100000
00100000
00011000
,
00001000
00000100
00000010
00000100
00000001
00001000
00000001
00000000
,
00000010
00000000
00000001
00000000
00001000
00000100
00001000
00000100
,
00000010
00000000
00000001
00000000
00000000
00001000
00000010
00000000
,
00001000
00000000
00000000
00000100
00000000
00000000
00010000
00000000
00000000
00000100
00000000
00000000
00001000
00000000
00000000
00000000
,
00000001
00000000
00000000
00000010
00000000
00000000
00000001
00000000
00000000
00001000
00000000
00000000
00000001
00000000
00000000
00000000
,
00000010
00000000
00000000
00001000
00000000
00000000
00010000
00000000
00000000
00001000
00000000
00000000
00000100
00000000
00000000
00000000
,
00000010
00000000
00000000
00001000
00000000
00000000
00000001
00000000
00000000
00001000
00000000
00000000
00000100
00000000
00000000
00000000
,
00010000
00001000
00010000
01000000
00000000
10000000
00100000
00000000
,
01000000
00000000
00010000
10000000
00010000
00000000
00000000
00000000
,
00100000
00001000
00010000
00000100
,
00000010
00000001
00001000
00000010
,
00000100
00000001
00001000
00000001
00000000
00000100
00000010
00000000
,
00001000
00000000
00000100
00010000
00000100
00000000
00010000
00000000
,
00001000
01000000
00100000
00000000
,
10000000
01000000
00100000
00010000
,
11000000
00000000
01010000
00000000
10000000
01000000
00010000
00000000
,
00011000
00000000
00001100
00000000
00000100
00000001
00000010
00000000
,
00000011
00000000
00001010
00000000
00000010
00001000
00010000
00000000
,
00011000
00000000
00110000
00000000
00010000
00100000
10000000
00000000
,
01000000
00000000
00000000
10000000
00000000
00000000
00010000
00000000
00000000
10000000
00000000
00000000
01000000
00000000
00010000
00000000
,
00001000
00000000
00000000
00000100
00000000
00000000
00000001
00000000
00000000
00001000
00000000
00000000
00000001
00000000
00000100
00000000
,
00001000
00000000
00000000
00010000
00000000
00000000
01000000
00000000
00000000
00100000
00000000
00000000
00010000
00000000
10000000
00000000
,
00100000
00000000
00000000
00010000
00000000
00000000
00001000
00000000
00000000
00000000
00010000
00000000
00001000
00000000
00000000
00000000
,
00000010
00000100
00001000
00000001
00000100
00000010
00001000
00000000
,
00000001
00000100
00000001
00001000
00000100
00010000
00001000
00000000
,
00010000
00001000
00100000
00010000
20000000
01000000
31000000
00000000
,
10000000
00100000
01000000
00010000
00200000
00001000
00301000
00000000
,
00010000
00000100
00000010
00000100
00010000
00000100
00000010
00000000
,
00000001
00000100
00000010
00000100
00000001
00000100
00000010
00000000
,
00010000
00001000
01000000
00001000
00010000
00001000
00100000
01000000
,
10000000
00010000
10000000
01000000
10000000
00010000
10000000
00000000
,
00100000
01000000
00010000
01000000
00100000
01000000
00001000
00010000
,
00000100
00000010
00000100
00001000
00000100
00000010
00000100
00010000
,
00001000
00010000
00100000
01000000
00001000
00010000
00001000
00000010
,
00000100
00001000
00000010
00000100
00000000
00000001
00001000
00000000
,
00000001
00000010
00000100
00000000
00020000
00000000
00032000
00000000
,
00013000
00100000
01000000
00000000
00020000
00000000
20030000
00000000
,
31000000
00010000
00001000
00000100
00000000
00000001
00001000
00000000
,
00000001
00000100
00001000
00010000
00000000
01000000
10000000
00000000
,
00100000
00000000
00000000
10000000
00000000
00000000
00010000
00000000
10000000
00000000
00000000
01000000
00000000
00000000
00010000
00000000
,
00001000
00000000
00000000
00000100
00000000
00000000
00000001
00000000
00000000
00000000
00000010
00000000
00000001
00000000
00001000
00000000
,
00000001
00000000
00000000
00000100
00000000
00000000
00001000
00000000
00010000
00000000
00000000
01000000
00000000
00000000
00100000
00000000
,
00010000
00010000
10000000
20000000
,
30000000
00000000
00000000
00000000
;

//---------------dance-double - ----------------
#NOTES:
     dance-double:
     :
     Challenge:
     9:
     0.528110,0.554808,0.000000,0.038995,0.370457,474.000000,474.000000,0.000000,5.000000,0.000000,0.000000,0.528110,0.554808,0.000000,0.038995,0.370457,474.000000,474.000000,0.000000,5.000000,0.000000,0.000000:
00000000
00000000
00000000
00000000
,
00000000
00000000
00000000
00000000
,
00000000
00000000
00000000
00000000
,
00000000
00000000
00000000
00000000
,
10000000
00000000
00000000
00010000
00000000
00000000
01000000
00000000
00100000
00000000
00000000
00010000
00000000
00000000
00001000
00000000
,
00000010
00000000
00000000
00000001
00000000
00000000
00001000
00000000
00000000
00000000
00000001
00000000
00000100
00000000
00000010
00000000
,
00001000
00000000
00000000
00000100
00000000
00000000
00000010
00000000
00001000
00000000
00000000
00010000
00000000
00000000
00100000
00000000
,
01000000
00000000
00000000
00010000
00000000
00000000
10000000
00000000
00000000
00000000
00010000
00000000
01000000
00000000
10000000
00000000
,
01000000
00000000
00000000
00010000
00000000
00000000
00100000
00000000
01000000
00000000
00000000
00010000
00000000
00000000
00001000
00000000
,
00000100
00000000
00000000
00000010
00000000
00000000
00001000
00000000
00000000
00000000
00000001
00000000
00000010
00000000
00000100
00000000
,
00001000
00000000
00000000
00000010
00000000
00000000
00000100
00000000
00001000
00000000
00000000
00010000
00000000
00000000
01000000
00000000
,
00100000
00000000
00000000
00010000
00000000
00000000
01000000
00000000
00000000
00000000
00100000
00000000
10000000
00000000
00010000
00000000
,
10000000
01000000
00100000
00010000
00001000
00000100
00000010
00000001
,
00001000
00000001
00001000
00000000
00000001
00000000
00000010
00000000
00000100
00000000
00010000
00000000
00000020
00000000
00000000
00000000
,
00010030
00001000
00100000
00010000
01000000
00100000
10000000
01000000
,
00100000
01000000
00100000
00000000
01000000
00000000
10000000
00000000
00100000
00000000
00010000
00000000
00002000
00000000
00000000
00000000
,
00003010
00000001
00000100
00002000
00000000
00013000
00100000
10000000
,
01000000
00010000
00001000
00000100
00000001
00000010
00000100
00000000
,
00000010
00000000
00000000
00000001
00000000
00000000
00001000
00000000
00000100
00000000
00000000
00010000
00000000
00000000
00001000
00000000
,
01000000
00000000
00000000
00100000
00000000
00000000
10000000
00000000
00000000
00000000
00010000
01000000
00020000
00000000
00000000
00000000
,
10030000
00000000
00000000
00000000
00010000
00000000
00000000
01000000
00100000
00000000
10000000
00000000
01000000
00000000
00000000
00000000
,
00010000
00001000
00000100
00000001
00000010
00001000
00010000
00000000
,
00001000
00010000
00100000
00000000
00010000
00001000
00000010
00000000
,
00001000
00010000
01000000
00000000
00010000
00001000
00000100
00000000
,
00001000
00000000
00000000
00000100
00000001
00000000
00000010
00000000
00000100
00000000
00001000
00000000
00000001
00000000
00000100
00000000
,
00001000
00001000
00010000
00010000
00001000
00010000
00100000
00000000
,
10000000
00000000
00000000
00010000
00100000
00000000
01000000
00000000
10000000
00000000
00000000
00000000
00010000
00000000
00000000
00000000
,
10000000
00000000
00000000
01000000
00100000
00000000
00010000
00000000
10000000
00000000
00100000
01000000
00100000
00000000
10000000
00000000
,
01000000
00000000
00000000
10000000
00000000
00000000
00010000
00000000
00000000
00100000
00000000
00000000
00001000
00010000
00001000
00000000
,
00010000
00000000
00000000
00000100
00000000
00000000
00000010
00000000
00000000
00000001
00000000
00000000
00000100
00000010
00000100
00000000
,
00000001
00000000
00000000
00000010
00000000
00000000
00000100
00000000
00000000
00010000
00000000
00001000
01000000
00000000
00001000
00000000
,
01000000
00000000
00000000
00100000
00000000
00000000
00010000
00000000
00000000
00001000
00000000
00000100
00000010
00000000
00000100
00000000
,
00000001
00000000
00000000
00000010
00000000
00000000
00000001
00000000
00000000
00001000
00000000
00000000
00000100
00000000
00010000
00000000
,
00001000
00000000
00000000
00001000
00000000
00000000
01000000
00000000
00000000
00100000
00000000
00000000
10000000
00000000
10000000
00000000
,
01000000
00000000
00000000
00010000
00000000
00000000
01000000
00000000
00000000
00100000
00000000
00000000
00001000
00000000
00010000
00000000
,
00100000
00000000
00000000
10000000
00000000
00000000
01000000
00000000
00000000
00010000
00000000
00000000
00001000
00000000
00000100
00000000
,
00000001
00000000
00000000
00001000
00000000
00000000
00000001
00000000
00000000
00000100
00000000
00000000
00001000
00000000
00010000
00000000
,
00100000
00000000
00000000
01000000
00000000
00000000
00010000
00000000
00000000
10000000
00000000
00000000
01000000
00000000
00010000
00000000
,
00001000
00000000
00000000
00000100
00000000
00000000
00000010
00000000
00000000
00001000
00000000
00000000
00000001
00000000
00000010
00000000
,
00001000
00000000
00000000
00010000
00000000
00000000
00100000
00000000
00000000
10000000
00000000
00000000
00010000
10000000
00010000
10000000
,
00010000
00000000
00000000
01000000
00100000
00000000
10000000
00000000
00010000
01000000
00000000
00000000
00100000
00000000
10000000
00000000
,
01000000
00000000
00010000
00001000
00000000
00000000
00000100
00000000
00000001
00001000
00000000
00000000
00000001
00000000
00000010
00000000
,
00001000
00000000
00000010
00000001
00000000
00000000
00001000
00000000
00000100
00000010
00000000
00000000
00001000
00000000
00010000
00000000
,
00100000
00000000
01000000
00010000
00000000
00000000
10000000
00000000
00010000
01000000
00000000
00000000
10000000
00000000
01000000
00000000
,
00010000
00000000
00100000
01000000
00000000
00000000
00010000
00000000
00001000
00000100
00000000
00000000
00000010
00000000
00001000
00000000
,
00000001
00000000
00000010
00000100
00000000
00000000
00000010
00000000
00001000
00010000
00000000
00000000
00100000
00000000
01000000
00000000
,
00001000
00000000
01000000
00100000
00000000
00000000
00010000
00000000
00001000
00000100
00000000
00000000
00000010
00000000
00001000
00000000
,
00000001
00000000
00000010
00000100
00000000
00000000
00001000
00000000
00000000
00010000
01000000
00100000
01000000
00000000
00000000
00000000
,
00100000
10000000
00010000
10000000
01000000
00010000
00001000
00000100
,
00000001
00001000
00000001
00000010
00001000
00010000
00100000
10000000
,
00010000
10000000
00010000
00000000
10000000
00000000
01000000
00000000
00010000
00000000
00001000
00000000
00000100
00000000
00000001
00000000
,
00001000
00000001
00001000
00000000
00000001
00000000
00000010
00000000
00001000
00000000
00010000
00000000
00100000
00000000
10000000
00000000
,
00010000
00100000
00010000
00000000
10000000
00000000
01000000
00000000
00100000
00000000
00001000
00000000
00000010
00000000
00000100
00000000
,
00001000
00000010
00001000
00000000
00000010
00000000
00000100
00000000
00010000
00000000
01000000
00000000
00100000
00000000
10000000
00000000
,
00010000
10000000
00010000
00000000
01000000
00000000
00100000
00000000
10000000
00000000
01000000
00000000
00010000
00000000
00001000
00000000
,
00000100
00000010
00000100
00000000
00000001
00000000
00001000
00000000
00000001
00000000
00000010
00000000
00001000
00000000
00010000
00000000
,
00100000
01000000
00010000
00000000
10000000
00000000
01000000
00000000
10000000
00000000
00010000
00000000
00100000
00000000
00001000
00000000
,
00000100
00000010
00001000
00000000
00000001
00000000
00000010
00000000
00001000
00000000
00000010
00000000
00000001
00000000
00000100
00000000
,
00000010
00001000
00000001
00000000
00001000
00000000
00000010
00001000
00000001
00000000
00000010
00000000
00001000
00000000
00010000
00000000
,
00100000
10000000
00010000
00000000
00100000
00000000
01000000
10000000
00010000
00000000
01000000
00000000
00100000
00000000
10000000
00000000
,
01000000
00100000
01000000
00000000
10000000
00000000
00100000
00000000
00010000
00000000
00001000
00000000
00000100
00000000
00000010
00000000
,
00001000
00000001
00001000
00000000
00000001
00000000
00000010
00000000
00000100
00000000
00010000
00000000
01000000
00000000
00100000
00000000
,
00010000
10000000
00010000
00000000
01000000
00000000
00100000
01000000
00100000
00000000
10000000
00000000
01000000
00000000
00010000
00000000
,
00001000
00010000
00001000
00000000
00000100
00000000
00000010
00000100
00000010
00000000
00000100
00000000
00000001
00000000
00001000
00000000
,
00000001
00000000
00000000
00000010
00000000
00000000
00000001
00000000
00001000
00000000
00000000
00000100
00000000
00000000
00001000
00000000
,
00000001
00000000
00000000
00000010
00000000
00000000
00001000
00000000
00000000
00000000
00001000
00000000
00010000
00000000
00100000
00000000
,
10000000
00000000
00000000
00100000
00000000
00000000
10000000
00000000
00010000
00000000
00000000
01000000
00000000
00000000
00020000
00000000
,
10000000
00000000
00000000
00000000
10030000
00000000
00000000
00000000
10000000
00100000
01000000
00001000
10000000
00000000
00000000
00000000
;
