#TITLE:SANA MOLLETE NE ENTE (B.L.T.STYLE);
#SUBTITLE:;
#ARTIST:Togo Project feat. Sana;
#TITLETRANSLIT:;
#SUBTITLETRANSLIT:;
#ARTISTTRANSLIT:;
#GENRE:;
#CREDIT:;
#BANNER:Sana Mollete Ne Enter BLT STYLE -Banner.png;
#BACKGROUND:Sana Mollete Ne Enter BLT STYLE -Background.png;
#LYRICSPATH:;
#CDTITLE:;
#MUSIC:SANA MOLLETE NE ENTE (B.L.T.STYLE).ogg;
#OFFSET:-0.005124;
#SAMPLESTART:64.002937;
#SAMPLELENGTH:12.000000;
#SELECTABLE:YES;
#BPMS:0.000000=90.000000
,40.000000=180.000000
,264.000000=90.000000
;
#STOPS:
;
#BGCHANGES:;
#KEYSOUNDS:;
#ATTACKS:;

//---------------dance-single - ----------------
#NOTES:
     dance-single:
     :
     Beginner:
     1:
     0.090386,0.155850,0.009304,0.046522,0.000000,68.000000,67.000000,1.000000,5.000000,0.000000,0.000000,0.090386,0.155850,0.009304,0.046522,0.000000,68.000000,67.000000,1.000000,5.000000,0.000000,0.000000:
0000
0000
0000
0000
,
0000
0000
0000
0000
,
0000
0000
0000
0000
,
0000
0000
0000
0000
,
1000
0000
0000
0000
,
0001
0000
0000
0000
,
0100
0000
0100
0000
,
0100
0000
0000
0000
,
0010
0000
0010
0000
,
0010
0000
0000
0000
,
1000
0000
0000
0000
,
1000
0000
0000
0000
,
0001
0000
0000
0000
,
0001
0000
0000
0000
,
0010
0000
0000
0000
,
0010
0000
0000
0000
,
0100
0000
0000
0000
,
0100
0000
0000
0000
,
1000
0000
0000
0000
,
0001
0000
0000
0000
,
1000
0000
0000
0000
,
0001
0000
0000
0000
,
0100
0000
0100
0000
,
0100
0000
0000
0000
,
0100
0000
0000
0000
,
0100
0000
0000
0000
,
0010
0000
0010
0000
,
0010
0000
0000
0000
,
0010
0000
0000
0000
,
0010
0000
0000
0000
,
2000
0000
0000
0000
,
0000
0000
3000
0000
,
0002
0000
0000
0000
,
0000
0000
0003
0000
,
2000
0000
0000
0000
,
0000
0000
3000
0000
,
0002
0000
0000
0000
,
0000
0000
0003
0000
,
1000
0000
0000
0000
,
0001
0000
0000
0000
,
0100
0000
0100
0000
,
0100
0000
0000
0000
,
0001
0000
0000
0000
,
1000
0000
0000
0000
,
0100
0000
0100
0000
,
0100
0000
0000
0000
,
1000
0000
0000
0000
,
0010
0000
0000
0000
,
0100
0000
0000
0000
,
0001
0000
0000
0000
,
0001
0000
0000
0000
,
0010
0000
0000
0000
,
0100
0000
0000
0000
,
1000
0000
0000
0000
,
0001
0000
0000
0000
,
0100
0000
0000
0000
,
0001
0000
0001
0001
,
0001
0000
0000
0000
,
1000
0000
0000
0000
,
0100
0000
0000
0000
,
1000
0000
0000
0000
,
0001
0000
0000
0000
,
0010
0000
0000
0000
,
0010
0000
0000
0000
,
0010
0000
0000
0000
,
1001
0000
0000
0000
,
0200
0000
0000
0000
,
0300
0000
0000
0000
;

//---------------dance-single - ----------------
#NOTES:
     dance-single:
     :
     Easy:
     3:
     0.154189,0.249360,0.037218,0.046522,0.000000,116.000000,112.000000,4.000000,5.000000,0.000000,0.000000,0.154189,0.249360,0.037218,0.046522,0.000000,116.000000,112.000000,4.000000,5.000000,0.000000,0.000000:
0000
0000
0000
0000
,
0000
0000
0000
0000
,
0000
0000
0000
0000
,
0000
0000
0000
0000
,
0001
1000
0001
0000
,
1000
0001
1000
0000
,
0100
0000
0100
0000
,
0010
0001
1000
0000
,
0100
0000
0100
0000
,
0010
1000
1001
0000
,
0100
0000
0000
0000
,
0100
0000
0100
0000
,
0010
0000
0000
0000
,
0010
0000
0000
0000
,
1000
0000
0000
0000
,
1000
0000
1000
0000
,
0001
0000
0000
0000
,
0010
0000
0000
0000
,
0100
0000
0000
0000
,
0100
0000
0100
0000
,
0010
0000
0000
0000
,
0010
0000
0001
0000
,
1000
0000
0010
0000
,
0100
0100
0100
0000
,
0001
0000
0010
0000
,
0100
0000
0000
0000
,
0010
0000
0001
0000
,
1000
1000
1000
0000
,
0010
0000
0100
0000
,
0100
0000
0000
0000
,
0002
0000
0000
0003
,
0010
0000
0000
0000
,
2000
0000
0000
3000
,
0100
0000
0000
0000
,
0002
0000
0000
0000
,
0103
0000
0000
0000
,
2000
0000
0000
0000
,
3010
0000
0000
0000
,
0100
0000
0001
0000
,
1000
0001
1000
0000
,
0100
0000
1000
0000
,
0001
1000
0001
0000
,
0010
0000
0001
0000
,
1000
0001
1000
0000
,
0010
0000
1000
0000
,
0001
1000
0001
0000
,
0100
0000
0000
0000
,
0010
0000
0000
0000
,
1000
0000
0001
0000
,
0010
0000
0000
0000
,
0100
0000
0000
0000
,
1000
0000
0000
0000
,
0001
0000
0100
0010
,
0100
0000
0000
0000
,
0001
0000
1000
0000
,
0001
0000
1000
0000
,
0001
0000
1000
1000
,
1000
0000
0000
0010
,
0010
0000
0000
0100
,
0100
0000
0000
0001
,
0001
0000
0000
1000
,
1000
0000
0000
0100
,
0100
0000
0110
0000
,
0010
0000
1001
0000
,
1000
0000
0110
0000
,
0100
0000
0000
0000
,
0002
0000
0000
0000
,
0003
0000
0000
0000
;

//---------------dance-single - ----------------
#NOTES:
     dance-single:
     :
     Medium:
     4:
     0.272489,0.374040,0.083740,0.065131,0.000000,205.000000,196.000000,9.000000,7.000000,0.000000,0.000000,0.272489,0.374040,0.083740,0.065131,0.000000,205.000000,196.000000,9.000000,7.000000,0.000000,0.000000:
0000
0000
0000
0000
,
0000
0000
0000
0000
,
0000
0000
0000
0000
,
0000
0000
0000
0000
,
1000
0000
0010
0000
0100
0100
0000
0000
,
0001
0010
0100
0100
,
1000
0010
0100
0001
,
0001
0010
0100
1000
,
0001
1000
0001
1000
,
0010
0000
0100
0000
,
0001
0000
0010
0000
,
0001
0010
0100
1000
,
0010
0000
1000
0001
,
0100
0000
0000
0000
,
0100
0000
0010
0000
,
1000
0010
0100
0001
,
1000
0000
0001
0000
,
1000
0000
0000
0000
,
0100
0000
0010
0000
,
0001
0010
0100
0000
,
1000
0000
0010
0000
,
0100
0010
1000
0000
,
0001
0100
0001
0100
,
0010
1000
0001
0000
,
1000
0100
1000
0100
,
0010
0001
1000
0000
,
0010
0100
0010
0100
,
0001
0100
1000
0100
,
0010
0100
0010
0100
,
0001
1000
0001
0000
,
2000
0010
3010
0000
,
0001
1000
0010
0100
,
0002
0100
0103
0000
,
1000
0001
0100
0010
,
2000
0100
3100
0000
,
0001
1000
0010
0100
,
0002
0010
0013
0000
,
0001
0010
0100
1000
,
0001
0100
0001
0100
,
1000
0100
0001
0000
,
1000
0100
1000
0100
,
0001
0100
1000
0000
,
0010
1000
0010
1000
,
0001
0010
0100
1000
,
0001
0010
0001
0010
,
0001
0100
0010
1000
,
0001
0001
0100
0000
,
1000
1000
0100
0000
,
0010
1000
0001
1000
,
0100
0000
0000
0000
,
0010
0001
1000
0000
,
1000
0001
0100
0000
,
0100
0010
1000
0001
,
0010
0000
0000
0000
,
1001
0000
0010
0000
,
0100
0001
0010
0000
,
0100
1000
0010
1000
,
0001
0000
0000
0001
,
1001
1000
0010
0100
,
0110
0100
0001
1000
,
1001
1000
0100
0010
,
0110
0000
0000
0010
,
0001
0100
0101
0000
,
1000
0100
1100
0000
,
0010
0100
0110
0000
,
2002
0000
3003
0000
,
0200
0000
0000
0000
,
0300
0000
0000
0000
;

//---------------dance-single - ----------------
#NOTES:
     dance-single:
     :
     Hard:
     6:
     0.344266,0.498721,0.139567,0.027913,0.004652,259.000000,244.000000,15.000000,3.000000,0.000000,0.000000,0.344266,0.498721,0.139567,0.027913,0.004652,259.000000,244.000000,15.000000,3.000000,0.000000,0.000000:
0000
0000
0000
0000
,
0000
0000
0000
0000
,
0000
0000
0000
0000
,
0000
0000
0000
0000
,
1000
0001
0100
0100
0001
1000
0100
0000
,
1000
0001
0010
0000
0100
0000
0000
0000
,
0010
0001
0100
0000
0010
1000
0100
0000
,
0010
0001
1000
1000
0001
0100
0010
0000
,
0010
1000
0001
1000
0100
0100
0010
0000
,
1001
0000
0100
0000
0010
0000
0000
0010
0000
0000
0000
0000
0000
0000
0000
0000
,
1001
0000
0000
0001
0000
0000
0001
0000
,
0100
0000
0000
0100
0000
0000
0100
0000
,
0010
0000
0000
0010
0000
0000
0010
0000
,
1000
0000
0001
1000
,
0100
0000
0000
1000
0000
0001
0000
0010
,
0000
0001
0000
0000
1000
0000
0010
0000
,
0100
0000
0000
0010
0000
1000
0000
0010
,
0000
0000
0000
0010
0100
0000
0001
0000
,
1000
0000
0000
0001
0000
0010
0000
0001
,
0000
1000
0000
0000
0100
0000
0010
0000
,
0100
0000
0000
1000
0000
1000
0000
0010
,
0000
0000
0100
0010
,
1000
0100
0010
0100
,
0001
0000
0100
1000
0100
0000
0010
0000
,
0001
0000
1000
0000
0010
0000
0100
0001
,
0100
0000
0000
0000
,
0010
1000
0001
0100
,
0010
0000
0100
0001
1000
0000
0001
0000
,
0010
0000
0100
0000
1000
0001
1000
0000
,
0100
0000
0000
0100
,
1000
0000
0001
0000
0010
0001
0000
1000
,
0000
0001
0000
0100
0000
0001
0100
0000
,
0010
0000
1000
0000
0010
1000
0000
0001
,
0000
1000
0000
0100
0000
1000
0100
0000
,
0010
0000
0001
0000
1000
0001
0000
0100
,
0000
0001
0000
1000
0000
0001
0010
0000
,
0100
0000
1000
0000
0001
1000
0000
0010
,
0000
1000
0000
0001
0000
1000
0100
0000
,
0010
0000
0000
0001
0000
0100
0000
0001
,
0000
1000
0000
0000
0001
0000
0100
0000
,
0010
0000
0000
1000
0000
0001
0000
1000
,
0000
0100
0110
0000
,
0010
0000
0000
0001
0000
1000
0000
0001
,
0000
0100
0000
0000
0010
0000
0100
0000
,
0010
0000
0000
1000
0000
0001
0000
1000
,
0000
0100
0110
0000
,
0010
0001
0100
0001
,
0010
0000
0001
0100
0001
0000
0010
0000
,
0100
0000
1000
0000
0010
0000
1000
0100
,
1000
0010
0100
0000
,
0010
1000
0001
1000
,
0010
0000
0100
0001
1000
0000
0001
0000
,
0100
0000
0010
0000
1000
0001
0000
0010
,
0100
1000
0001
0000
,
1000
0100
0001
0100
,
0010
0001
1000
0010
,
0100
0001
1000
0001
0000
1000
0000
0100
,
0000
0010
0100
0000
1000
0000
0001
0000
,
0100
0010
0100
0001
,
1001
1000
0100
0010
,
0100
1000
0001
1000
,
1001
0000
0000
1000
,
0010
0000
0101
0000
1010
0000
0000
1001
,
0000
0000
0011
0000
1100
0000
0000
1001
,
0000
0000
1010
0000
0101
0000
0000
2002
,
0000
0000
0000
3003
,
0200
0000
0000
0000
,
0300
0000
0000
0000
;

//---------------dance-single - ----------------
#NOTES:
     dance-single:
     :
     Challenge:
     8:
     0.507759,0.592231,0.390789,0.148872,0.065131,382.000000,340.000000,42.000000,16.000000,0.000000,0.000000,0.507759,0.592231,0.390789,0.148872,0.065131,382.000000,340.000000,42.000000,16.000000,0.000000,0.000000:
// measure 0
0000
0000
0000
0000
,  // measure 1
0000
0000
0000
0000
,  // measure 2
0000
0000
0000
0000
,  // measure 3
0000
0000
0000
0000
,  // measure 4
1000
0000
0000
0001
0000
0100
0000
0001
0000
1000
0000
0001
0010
0000
0100
0000
,  // measure 5
1000
0000
0000
0001
0000
1000
0000
0100
0000
0010
0000
0001
0100
0000
0000
0000
,  // measure 6
0010
0000
0100
0000
0001
0000
0100
0000
0010
1000
0001
0000
0010
0000
0000
0000
,  // measure 7
0100
0000
1000
0000
0001
0000
1000
0100
0020
0000
0000
0000
0031
0000
0000
0000
,  // measure 8
0001
0000
0100
0000
0010
0000
0100
0000
0001
0100
0010
0000
1000
0000
0001
0000
,  // measure 9
1000
0000
1100
0000
0101
0000
0000
2002
0000
0000
0000
0000
3003
0000
0000
0000
,  // measure 10
1001
0000
0001
0100
0000
1000
0100
0000
,  // measure 11
0100
0000
0001
0010
0000
1000
0010
0000
,  // measure 12
0010
0000
0001
0100
0000
0010
1000
0000
,  // measure 13
2200
0000
3300
0000
,  // measure 14
1000
0100
0010
0001
0000
0010
1000
0000
,  // measure 15
1010
0000
1000
0010
0000
0001
0100
0000
,  // measure 16
0001
0100
0010
1000
0000
0100
0001
0000
,  // measure 17
0101
0000
0001
0100
0000
1000
0010
0000
,  // measure 18
0100
0001
0010
1000
0000
0010
0100
0000
,  // measure 19
1100
0000
1000
0010
0000
0100
1000
0000
,  // measure 20
0100
0001
0010
1000
0000
0010
0001
0000
,  // measure 21
0011
0000
0001
0100
0000
0010
0001
0000
,  // measure 22
0010
1000
0001
0010
0001
0100
1000
0100
,  // measure 23
0001
0000
0001
0010
0000
0001
0000
0100
,  // measure 24
0010
1000
0100
0001
0100
1000
0000
0010
,  // measure 25
0100
0000
0000
1001
0000
0000
0110
0000
,  // measure 26
0002
0000
0023
0000
2030
0000
3100
1000
,  // measure 27
0010
0001
0100
1000
0000
0100
0010
1000
,  // measure 28
0100
1000
0010
0001
0010
1000
0000
1010
,  // measure 29
0000
0001
0100
0001
0100
0010
1000
0001
,  // measure 30
2000
0000
3100
0100
0010
0010
0000
0011
,  // measure 31
0000
0110
0000
1100
0000
1001
1000
0010
,  // measure 32
0200
0000
0310
0010
0100
0100
0000
0101
,  // measure 33
0000
0110
0000
1010
0000
1000
0001
1000
,  // measure 34
0020
0000
0130
0100
0010
0010
0000
1010
,  // measure 35
0000
0110
0000
0101
0000
1000
0100
0010
,  // measure 36
0002
0000
1003
1000
0001
0001
0000
0011
,  // measure 37
0000
0110
0000
1100
0000
1000
0001
0000
,  // measure 38
0001
0010
0100
1000
0000
0100
0001
0000
,  // measure 39
0101
0000
0001
0100
0000
1000
0010
0000
,  // measure 40
1000
0010
0100
0001
0000
0010
1000
0000
,  // measure 41
1010
0011
0101
0100
,  // measure 42
0010
1000
0100
0001
0000
0100
0010
0000
,  // measure 43
0011
0000
0001
0100
0000
0010
0001
0000
,  // measure 44
0010
1000
0100
0001
0000
0100
1000
0000
,  // measure 45
1100
1010
0110
0001
,  // measure 46
1000
0000
0010
0000
0100
0000
0010
1000
,  // measure 47
0001
0000
0010
0100
0000
1000
0100
0010
,  // measure 48
0001
0100
0010
0100
0001
0010
0100
1000
,  // measure 49
0001
0000
1000
0010
0000
0100
0001
0000
,  // measure 50
1000
0000
0010
0000
0100
0000
1000
0100
,  // measure 51
0001
0000
0010
0100
0000
0001
0100
1000
,  // measure 52
0010
0000
0100
0000
0001
1000
0001
0010
,  // measure 53
0200
0000
0000
0000
,  // measure 54
1300
0010
0000
0001
0010
0000
0100
1000
,  // measure 55
0000
0100
0001
0000
0010
0100
0001
0100
,  // measure 56
0010
0001
1000
0010
0000
0100
0000
1000
,  // measure 57
0000
0100
0001
0000
1000
0100
0010
0001
,  // measure 58
1000
0000
0001
0010
1000
0000
0010
0001
,  // measure 59
0100
0000
0010
1000
0100
0010
0001
1000
,  // measure 60
0010
0000
0100
0001
0010
0000
1000
0010
,  // measure 61
0001
0000
0100
0010
1000
0001
0010
0100
,  // measure 62
1000
0000
1100
0000
0101
0000
0000
1001
,  // measure 63
0000
0000
1010
0000
0011
0000
0000
1001
,  // measure 64
0000
0000
0110
0000
1001
0000
0000
0220
,  // measure 65
0000
0000
0000
0000
0000
0330
0000
0000
,  // measure 66
2000
0000
0000
0000
,  // measure 67
3000
0000
0000
0000
;

//---------------dance-double - ----------------
#NOTES:
     dance-double:
     :
     Easy:
     2:
     0.114312,0.184229,0.018609,0.046522,0.000000,86.000000,84.000000,2.000000,5.000000,0.000000,0.000000,0.114312,0.184229,0.018609,0.046522,0.000000,86.000000,84.000000,2.000000,5.000000,0.000000,0.000000:
00000000
00000000
00000000
00000000
,
00000000
00000000
00000000
00000000
,
00000000
00000000
00000000
00000000
,
00000000
00000000
00000000
00000000
,
00000000
00000000
00000000
00000000
,
00000000
00000000
00000000
00000000
,
00010000
00100000
00000000
00000000
,
00010000
10000000
00000000
00000000
,
00001000
00000010
00000000
00000000
,
00001000
00000001
00000100
00000000
,
00000100
00000000
00000000
00000000
,
00000100
00000000
00001000
00000000
,
00010000
00000000
00000000
00000000
,
01000000
00000000
00000000
00000000
,
01000000
00000000
00000000
00000000
,
01000000
00000000
00010000
00000000
,
00001000
00000000
00000000
00000000
,
00000100
00000000
00000000
00000000
,
00000010
00000000
00000000
00000000
,
00000010
00000000
00001000
00000000
,
00010000
00000000
00000000
00000000
,
00100000
00000000
00000000
00000000
,
00100000
00000000
00010000
00000000
,
01000000
00000000
00000000
00000000
,
00001000
00000000
00000000
00000000
,
00010000
00000000
00000000
00000000
,
00000100
00000000
00001000
00000000
,
00000010
00000000
00000000
00000000
,
00010000
00000000
00000000
00000000
,
00001000
00000000
00000000
00000000
,
00200000
00000000
00000000
00300000
,
00000000
00000000
00000000
00000000
,
00000020
00000000
00000000
00000030
,
00000000
00000000
00000000
00000000
,
02000000
00000000
00000000
03000000
,
00000000
00000000
00000000
00000000
,
00000200
00000000
00000000
00000300
,
00000000
00000000
00000000
00000000
,
00010000
00000000
00001000
00000000
,
01000000
00000000
00000000
00000000
,
00001000
00000000
00010000
00000000
,
00000100
00000000
00000000
00000000
,
00010000
00000000
00001000
00000000
,
00100000
00000000
00000000
00000000
,
00001000
00000000
00010000
00000000
,
00000010
00000000
00000000
00000000
,
00010000
00000000
00100000
00000000
,
10000000
00000000
01000000
00000000
,
00010000
00000000
00001000
00010000
,
00001000
00000000
00000000
00000000
,
00001000
00000000
00000100
00000000
,
00000001
00000000
00000010
00000000
,
00001000
00000000
00010000
00001000
,
00010000
00000000
00000000
00000000
,
00011000
00000000
00000000
00000000
,
00001000
00000000
00000100
00000000
,
00000001
00000000
00000000
00000000
,
00001000
00000000
00000000
00000000
,
00010000
00000000
01000000
00000000
,
10000000
00000000
00000000
00000000
,
00010000
00000000
00000000
00000000
,
00011000
00000000
00000000
00000000
,
00000100
00000000
00000100
00000000
,
00000010
00000000
00000010
00000000
,
00000001
00000000
00001000
00000000
,
00020000
00000000
00000000
00000000
,
10030000
00000000
00000000
00000000
;

//---------------dance-double - ----------------
#NOTES:
     dance-double:
     :
     Medium:
     4:
     0.228625,0.276343,0.046522,0.065131,0.000000,172.000000,167.000000,5.000000,7.000000,0.000000,0.000000,0.228625,0.276343,0.046522,0.065131,0.000000,172.000000,167.000000,5.000000,7.000000,0.000000,0.000000:
00000000
00000000
00000000
00000000
,
00000000
00000000
00000000
00000000
,
00000000
00000000
00000000
00000000
,
00000000
00000000
00000000
00000000
,
00000000
00000000
00000000
00000000
,
00000000
00000000
00000000
00000000
,
10000000
01000000
10000000
00000000
,
00010000
01000000
00001000
00000000
,
00010000
00000100
00001000
00000000
,
00000010
00001001
00000100
00000000
,
00000100
00001000
00000100
00001000
,
00000001
00000000
00000001
00000000
,
00000010
00000000
00001000
00000000
,
00010000
00000000
00100000
00000000
,
10000000
01000000
10000000
01000000
,
00100000
00000000
00010000
00000000
,
01000000
00000000
00001000
00010000
,
00000100
00000000
00000000
00000000
,
00001000
00000000
00000100
00000010
,
00000001
00000000
00001000
00000000
,
00000001
00000000
00000100
00000010
,
00001000
00000001
00001000
00000000
,
00000100
00010000
00001000
00010000
,
01000000
00100000
00010000
00000000
,
10000000
00010000
01000000
00100000
,
10000000
00000000
00000000
00000000
,
10000000
10000000
00010000
00010000
,
10000000
01000000
00100000
00010000
,
00001000
00000100
00000010
00000001
,
00001000
00000000
00000000
00000000
,
00000002
00000000
00000100
00000000
,
00001000
00000000
00000013
00000100
,
00020000
00000000
00001000
00000000
,
00000100
00000000
00031000
00010000
,
00200000
00000000
10000000
00000000
,
01000000
00000000
10300000
01000000
,
00200000
00000000
00010000
00000000
,
01000000
00000000
00310000
00000000
,
01000000
00010000
10000000
00010000
,
01000000
00000000
00001000
00010000
,
00000100
00001000
00000001
00001000
,
00000100
00000000
00010000
00001000
,
01000000
00010000
10000000
00010000
,
01000000
00000000
00001000
00010000
,
00000100
00001000
00000001
00001000
,
00000100
00000010
00000010
00000000
,
00000001
00000001
00001000
00001000
,
00000001
00000100
00000010
00001000
,
00010000
01000000
00100000
10000000
,
00010000
00000000
10000000
00000000
,
00010000
00010000
10000000
10000000
,
01000000
00010000
01000000
10000000
,
00010000
01000000
00100000
10000000
,
00010000
00000000
00000000
00000000
,
00011000
00000000
00000100
00000000
,
00000010
00000000
00000001
00000000
,
00000100
00001000
00010000
01000000
,
00100000
00000000
00010000
00000000
,
10000000
00000000
00000000
00000000
,
02000000
00000000
03000000
00000000
,
00100000
00000000
00010000
00000000
,
02000000
00000000
03000000
00000000
,
00100000
00000000
10010000
00000000
,
00001000
00010000
00011000
00000000
,
00000100
00000000
00001001
00000010
,
00000002
00000000
00000000
00000000
,
00001003
00000000
00000000
00000000
;

//---------------dance-double - ----------------
#NOTES:
     dance-double:
     :
     Hard:
     7:
     0.384142,0.460572,0.093045,0.083740,0.004652,289.000000,279.000000,10.000000,9.000000,0.000000,0.000000,0.384142,0.460572,0.093045,0.083740,0.004652,289.000000,279.000000,10.000000,9.000000,0.000000,0.000000:
00000000
00000000
00000000
00000000
,
00000000
00000000
00000000
00000000
,
00000000
00000000
00000000
00000000
,
00000000
00000000
00000000
00000000
,
00000000
00000000
00000000
00000000
,
00000000
00000000
00000000
00000000
,
00010000
00001000
01000000
00000000
00001000
00010000
00000100
00000000
,
00000010
00000010
00000001
00001000
00000020
00000000
00000130
00000000
,
00000001
00001000
00000100
00010000
00001000
01000000
00010000
00000000
,
00000000
00000000
00100000
00000000
00100000
00000000
00000000
20020000
00000000
00000000
00000000
00000000
30030000
00000000
00000000
00000000
,
10000000
00000000
10000000
00010000
00000000
00010000
10000000
00000000
,
01000000
00000000
00000000
00010000
00000000
00000000
00001000
00000000
,
00001000
00000000
00001000
00000100
00000000
00000100
00000001
00000000
,
00000010
00000000
00000100
00001000
,
00000010
00000000
00000010
00001000
00000000
00001000
00000100
00000000
,
00010000
00000000
00000000
00001000
00000000
00000000
00010000
00000000
,
00100000
00000000
10000000
00010000
00000000
00010000
10000000
00000000
,
01000000
00000000
01100000
00000000
,
00100000
00000000
00010000
01000000
00000000
01000000
00001000
00000000
,
00010000
00000000
00000000
00000100
00000000
00000000
00000010
00000000
,
00000001
00000000
00000100
00000010
00000000
00000010
00001000
00000000
,
00000100
00010000
00001000
00000000
,
00010000
00100000
10000000
01000000
,
00010000
00000000
00001000
00010000
00000000
00010000
00001000
00000000
,
00000100
00000000
00000001
00000000
00000010
00000000
00001000
00010000
,
00001000
00000000
00000000
00000000
,
00010000
00100000
01000000
00010000
,
00000100
00000010
00001000
00000100
,
00000010
00000000
00010000
00000000
00100000
01000000
00010000
00001000
,
00000100
00000000
00000000
00000010
,
00001000
00000000
00000001
00000100
00000001
00000100
00000000
00001000
,
00000000
00010000
00000000
01000000
00000000
10000000
01000000
00000000
,
10000000
00000000
10000000
01000000
10000000
01000000
00000000
00010000
,
00000000
00001000
00000000
00000100
00000000
00000001
00000100
00000000
,
00000001
00000000
00000100
00000010
00000100
00000010
00000000
00001000
,
00000000
00000001
00000000
00000010
00000000
00001000
00010000
00000000
,
00100000
00000000
10000000
00010000
10000000
00010000
00000000
10000000
,
00000000
00100000
00000000
00010000
00000000
00001000
00010000
00000000
,
00001000
00010000
00100000
10000000
00000000
00010000
00000000
10000000
,
00000000
01000000
00010000
00000000
00001000
00000000
00010000
00000000
,
00010000
00001000
00000010
00000001
00000000
00001000
00000000
00000001
,
00000000
00000001
00000100
00000000
00001000
00000000
00010000
00000000
,
00001000
00010000
00100000
10000000
00000000
00010000
00000000
10000000
,
00000000
00010000
10000000
00000000
01000000
00000000
00010000
00000000
,
00010000
00001000
00000010
00000001
00000000
00001000
00000000
00000001
,
00000000
00000100
00000010
00000000
00000100
00000000
00001000
00000000
,
00010000
00000000
00100000
00000000
10000000
00000000
00010000
10000000
,
01000000
00000000
00010000
00001000
00000000
00010000
00001000
00000100
,
00000001
00000000
00001000
00000000
00000001
00000100
00001000
00010000
,
01000000
00000000
00100000
00010000
00000000
10000000
00010000
00000000
,
10000000
00010000
00001000
00000100
,
00000001
00001000
00010000
01000000
,
10000000
00000000
00010000
00000000
10000000
00100000
00010000
00001000
,
00000010
00000002
00000200
00000303
,
00000001
00000000
00000100
00000010
00000100
00000000
00000001
00000010
,
00000000
00001000
00010000
00000000
00100000
10000000
00000000
00010000
,
00100000
01000000
10000000
00010000
00000000
01010000
00000000
22000000
,
00000000
00000000
33000000
00000000
10000000
01000000
00010000
00001000
,
00010000
00000000
00001000
00010000
00001000
00000100
00000001
00001000
,
00000001
00000000
00000001
00000010
00001000
00010000
00001000
00010000
,
00100000
00000000
00010000
00100000
10000000
00010000
10000000
00010000
,
01000000
00000000
00010000
01000000
10000000
01000000
00010000
00100000
,
00001000
00000000
00010000
00000000
00010100
00000000
00000000
01001000
,
00000000
00000000
00001000
00000000
00010010
00000000
00000000
00101000
,
00000000
00000000
00010000
00000000
00001100
00000000
00000000
00002002
,
00000000
00000000
00003003
00000000
,
00000010
00000000
00000000
00000000
;

//---------------dance-double - ----------------
#NOTES:
     dance-double:
     :
     Challenge:
     8:
     0.470541,0.521982,0.325657,0.074436,0.013957,354.000000,319.000000,35.000000,8.000000,0.000000,0.000000,0.470541,0.521982,0.325657,0.074436,0.013957,354.000000,319.000000,35.000000,8.000000,0.000000,0.000000:
00000000
00000000
00000000
00000000
,
00000000
00000000
00000000
00000000
,
00000000
00000000
00000000
00000000
,
00000000
00000000
00000000
00000000
,
00000000
00000000
00000000
00000000
,
00000000
00000000
00000000
00000000
,
10000000
00000000
01000000
00000000
00010000
00000000
00001000
00000000
00000100
00000000
00000001
00001000
00000001
00000000
00000100
00000000
,
00001000
00000000
00010000
00000000
01000000
00000000
10000000
00010000
10000000
00000000
00000000
00000000
00100000
00000000
00000000
00000000
,
01000000
00100000
00010000
00001000
00000010
00000100
00001000
00000000
,
00000001
00000000
00000100
00000000
00000101
00000000
00000000
00002002
00000000
00000000
00000000
00000000
00003003
00000000
00000000
00000000
,
00001001
00000000
00000001
00000100
00000000
00000100
00001000
00000000
,
00011000
00000000
00010000
01000000
00000000
01000000
10000000
00000000
,
10010000
00000000
10000000
00100000
00000000
00100000
00010000
00000000
,
00011000
00000000
00010100
00000000
,
00010000
00001000
00000010
00000001
00000000
00000100
00000000
00001000
,
00000000
00000100
00000000
00000001
00000010
00000000
00001000
00010000
,
00001000
00010000
00100000
10000000
00000000
00010000
00000000
10000000
,
00000000
00000000
00000000
10010000
00000000
00000000
00010000
00000000
,
10000000
00100000
00010000
00001000
00000000
00000010
00000000
00000001
,
00000000
00001000
00000000
00000001
00001000
00000000
00001000
00000000
,
00000001
00000010
00001000
00010000
00000000
00100000
00000000
10000000
,
00000000
00000000
00000000
10010000
00000000
00000000
00000000
00000000
,
10000000
01000000
00010000
00000000
00001000
00000100
00000001
00000000
,
00000010
00001000
00010000
00100000
00000000
00010000
00001000
00000010
,
00000100
00001000
00000001
00000100
00001000
00010000
00000010
00001000
,
00000100
00000000
00000000
00010000
00000000
00000000
00001000
00000000
,
01000000
00000000
01010000
00000000
00010000
00000000
00010000
10000000
,
01000000
00000000
00100000
00010000
00000000
10000000
00100000
00010000
,
00001000
00000000
00000010
00000000
00000001
00001000
00000001
00000100
,
00000002
00000000
00000000
00000000
00000003
00000000
00000001
00000100
,
00001000
00000000
00000100
00001000
00010000
01000000
00000000
00100000
,
00000000
01000000
00000000
10000000
00000000
01000000
00100000
00000000
,
01000000
00000000
01000000
00010000
00001000
00000100
00000000
00000010
,
00000000
00000100
00000000
00000001
00000000
00000100
00000001
00000100
,
00000010
00000000
00000100
00001000
00010000
01000000
00000000
00100000
,
00000000
01000000
00000000
10000000
00000000
01000000
00100000
01000000
,
00010000
00000000
01000000
00010000
00001000
00000100
00000000
00000010
,
00000000
00000100
00000000
00000001
00000000
00000100
00000010
00000000
,
00000100
00001000
00000100
00000001
00000010
00001000
00000010
00000001
,
00000100
00000010
00001100
00010000
,
00001000
00010000
00100000
10000000
00010000
00100000
01000000
10000000
,
00001000
00011000
01000100
00011000
,
00010000
00100000
01000000
00010000
10000000
01000000
00010000
00001000
,
00010000
00001000
00011000
00000100
,
00010000
00001000
00000010
00000001
00001000
00000100
00000010
00000001
,
00010000
00011000
01000100
00011000
,
01010000
00011000
00001100
00011000
,
00010000
00100000
01000000
00010000
00000000
10000000
01000000
00010000
,
01000000
00000000
10000000
00000000
00100000
01000000
00010000
01000000
,
00100000
00000000
10000000
00010000
00000000
01000000
00001000
00000000
,
01010000
00011000
00001100
00011000
,
00100000
00001000
00010000
00000010
00000000
00000100
00000010
00001000
,
00000001
00000000
00000010
00000000
00000100
00000010
00000001
00000010
,
00001000
00000000
00000000
00001000
,
00000010
00000000
00000001
00000100
00001000
00010000
01000000
00100000
,
00010000
10000000
00100000
01000000
10000000
01000000
00100000
10000000
,
00010000
00100000
01000000
00020000
00000000
00032000
00000000
00003200
,
00000000
00000310
00001000
00000000
00000001
00001000
00000100
00001000
,
00000001
00000010
00000100
00001000
00000001
00000010
00000100
00001000
,
00000001
00001000
00000100
00010000
,
00001000
00010000
00100000
01000000
00010000
00100000
01000000
10000000
,
00010000
00000000
10000000
00000000
01000000
10000000
00010000
10000000
,
01000000
00000000
11000000
00000000
10010000
00000000
00000000
01010000
,
00000000
00000000
00011000
00000000
00001100
00000000
00000000
00001001
,
00000000
00000000
00000011
00000000
00000110
00000000
00000000
00002200
,
00000000
00000000
00000000
00003300
,
00010000
00000000
00000000
00000000
;
