#VERSION:0.83;
#TITLE:Run Away With Me;
#SUBTITLE:;
#ARTIST:Carly Rae Jepsen;
#TITLETRANSLIT:;
#SUBTITLETRANSLIT:;
#ARTISTTRANSLIT:;
#GENRE:;
#CREDIT:;
#MUSIC:Carly Rae Jepsen - Run Away With Me.ogg;
#BANNER:Run Away With Me-Banner.png;
#BACKGROUND:Run Away With Me-BG.png;
#CDTITLE:;
#SAMPLESTART:53.720;
#SAMPLELENGTH:15.360;
#SELECTABLE:YES;
#OFFSET:0.009;
#BPMS:0.000=125.000;
#STOPS:;
#SPEEDS:0.000=1.000=0.000=0;
#SCROLLS:0.000=1.000;
#TICKCOUNTS:0.000=4;
#TIMESIGNATURES:0.000=4=4;
#LABELS:0.000=Song Start;
#COMBOS:0.000=1;
#ORIGIN:;
#PREVIEWVID:;
#JACKET:;
#CDIMAGE:;
#DISCIMAGE:;
#BGCHANGES:;
#FGCHANGES:;

//--------------- dance-single - K. Pearman ----------------
#NOTEDATA:;
#STEPSTYPE:dance-single;
#DESCRIPTION:K. Pearman;
#DIFFICULTY:Beginner;
#METER:1;
#RADARVALUES:0.111034,0.152807,0.015092,0.150921,0,103,101,2,20,0,0,0,0,0,0.111034,0.152807,0.015092,0.150921,0,103,101,2,20,0,0,0,0,0;
#CHARTNAME:;
#CHARTSTYLE:;
#CREDIT:;
#NOTES:
0000
0000
0000
0000
,
0000
0000
0000
0000
,
0000
0000
0000
0000
,
0000
0000
0000
0000
,
0000
1000
0000
0001
,
0000
0000
0100
0100
,
0000
0000
0001
0000
,
1000
0000
0100
0100
,
0000
0000
1000
0000
,
0000
0000
0001
0000
,
0020
0000
0000
0000
,
0030
0000
0000
0000
,
0000
0000
0001
0000
,
1000
0000
0010
0010
,
0000
0000
1000
0000
,
0001
0000
0100
0100
,
0000
0000
0001
0000
,
0000
0000
1000
0000
,
0200
0000
0000
0000
,
0300
0000
0000
0000
,
2000
0000
3000
0000
,
0002
0000
0003
0000
,
0200
0000
0300
0000
,
0020
0000
0030
0000
,
2000
0000
3000
0000
,
0002
0000
0003
0000
,
0020
0000
0030
0000
,
0200
0000
0300
0000
,
1001
0000
0010
0000
,
0100
0000
0001
0000
,
1000
1000
0000
0000
,
1000
0000
0100
0100
,
0100
0000
0000
0000
,
0010
0000
0001
0000
,
0200
0000
0300
0000
,
0020
0000
0030
0000
,
0001
0000
0100
0000
,
0010
0000
1000
0000
,
0100
0100
0000
0000
,
0010
0000
0001
0001
,
0001
0000
0000
1000
,
0000
0010
0000
0100
,
0200
0000
0300
0000
,
0020
0000
0030
0000
,
1000
0000
0001
0000
,
1000
0000
0001
0000
,
0200
0000
0300
0000
,
0200
0000
0300
0000
,
0001
0000
1000
0000
,
0001
0000
1000
0000
,
0200
0000
0300
0000
,
0200
0000
0300
0000
,
1001
0000
0001
0000
,
0100
0000
0010
0000
,
1000
1000
0000
0000
,
0100
0000
0010
0000
,
0001
0001
0000
0000
,
1000
0000
0010
0000
,
0100
0000
0000
0010
,
0010
0000
0000
0100
,
0100
0000
0001
0000
,
1000
0000
0100
0000
,
0010
0010
0000
0000
,
0001
0000
1000
0000
,
0100
0100
0000
0000
,
1000
0000
0010
0000
,
0200
0000
0300
0000
,
0020
0000
0030
0000
;

//--------------- dance-single - K. Pearman ----------------
#NOTEDATA:;
#STEPSTYPE:dance-single;
#DESCRIPTION:K. Pearman;
#DIFFICULTY:Easy;
#METER:2;
#RADARVALUES:0.162779,0.204497,0.045276,0.166013,0,151,145,6,22,0,0,0,0,0,0.162779,0.204497,0.045276,0.166013,0,151,145,6,22,0,0,0,0,0;
#CHARTNAME:;
#CHARTSTYLE:;
#CREDIT:;
#NOTES:
0000
0000
0000
0000
,
0000
0000
0000
0000
,
0000
0000
0000
0000
,
0000
0000
0000
0000
,
0000
1000
0000
0010
,
0000
0100
0001
1000
,
0000
0001
0000
0010
,
0000
0100
1000
0001
,
0000
0000
1000
0000
,
0010
0000
0001
0000
,
0020
0000
0030
0000
,
0200
0000
0300
0000
,
0000
0100
0000
0010
,
0000
1000
0001
0100
,
0000
0001
0000
1000
,
0000
0100
1000
0001
,
0000
0010
0000
0001
,
0000
1000
0000
0010
,
0200
0000
0300
0000
,
0020
0000
0030
0000
,
2000
3100
1000
0000
,
0002
0103
0001
0000
,
2000
3010
1000
0000
,
0002
0013
0001
0000
,
0100
0010
1000
0000
,
0100
0010
0001
0000
,
2000
0000
0000
0000
,
0002
0000
0000
3003
,
1001
0000
0010
0000
,
0100
0100
0010
0010
,
0100
0000
0001
0000
,
1000
1000
0001
0001
,
1000
0000
0100
0000
,
0010
0000
0001
1000
,
0200
0000
0000
0300
,
0020
0000
0000
0030
,
1001
0000
0010
0000
,
0100
0100
0001
0001
,
1000
0000
0100
0000
,
1000
1000
0010
0010
,
0100
0000
0010
0000
,
2000
3000
0002
0003
,
0200
0000
0000
0300
,
0020
0000
0000
0030
,
1001
0000
0010
0000
,
0100
0001
0010
0001
,
0100
0000
0100
0000
,
0010
0000
0010
0000
,
1001
0000
1000
0000
,
0010
1000
0100
1000
,
0010
0000
0100
0000
,
0001
1000
0001
1000
,
1001
0000
0010
0000
,
0100
0100
0001
0001
,
1000
0000
0001
0000
,
0100
0000
0010
0000
,
1000
0001
0010
0000
,
0100
1000
0001
0000
,
2000
0000
3000
0000
,
0002
0000
0003
0000
,
1001
0000
0010
0000
,
1000
1000
0010
0010
,
0100
0000
0010
0000
,
1000
0000
0001
0100
,
0010
0000
0100
0000
,
0002
0003
2000
3000
,
0200
0000
0000
0300
,
0020
0000
0000
0030
;

//--------------- dance-single - K. Pearman ----------------
#NOTEDATA:;
#STEPSTYPE:dance-single;
#DESCRIPTION:K. Pearman;
#DIFFICULTY:Medium;
#METER:5;
#RADARVALUES:0.285671,0.386262,0.181105,0.316933,0.049049,265,241,24,42,0,0,0,0,0,0.285671,0.386262,0.181105,0.316933,0.049049,265,241,24,42,0,0,0,0,0;
#CHARTNAME:;
#CHARTSTYLE:;
#CREDIT:;
#NOTES:
0000
0000
0000
0000
,
0000
0000
0000
0000
,
0000
0000
0000
0000
,
0000
0000
0000
0000
,
0000
1000
0100
1000
,
0000
0001
0010
0001
,
0000
0100
0010
1000
,
0000
0100
0010
0001
,
0000
1000
0010
0200
,
0300
0001
0010
0100
,
2000
0000
0010
0000
,
3002
0000
0100
0000
,
1003
1100
0000
0101
,
0000
1001
0010
0100
,
0000
0011
0000
1010
,
0000
1001
0100
0010
,
0000
0001
2000
3010
,
0000
1000
0002
0013
,
0200
1000
0000
0001
,
0320
0001
0000
1000
,
0031
0100
0010
1000
,
0001
1000
0010
0100
,
0001
0010
0001
0100
,
0010
1000
0100
1000
,
0010
0010
0100
0100
,
0001
0010
0100
2000
,
0002
0000
0000
3000
,
0200
0000
0303
0101
,
1000
0001
0100
1001
,
0001
0010
0100
1000
,
0001
1000
0100
1001
,
1000
0001
0100
0100
,
0010
1000
0100
0110
,
0010
0000
0010
0000
0000
0000
0100
0000
0000
0100
0000
0100
,
1000
0001
1000
0001
,
0100
0010
0100
0010
,
2000
3100
0010
1001
,
0002
0103
2000
3100
,
0001
0010
0100
1001
,
1000
0010
0100
0001
,
1000
0001
0100
0110
,
0010
0000
1000
0000
0000
0000
0010
0000
0000
0100
0000
0100
,
0001
1000
0001
0010
,
0100
1000
0001
1000
,
0002
0023
0230
2300
,
3002
0203
0320
2030
,
3002
0100
2003
0100
,
3002
0010
2003
0010
,
3002
0203
0320
2030
,
3002
0023
0230
2300
,
3002
0100
2003
0010
,
3002
0010
2003
3100
,
1001
0010
0100
0101
,
0001
0010
0100
1000
,
0010
1000
0001
1100
,
1000
0100
0010
0001
,
0100
0010
0100
1001
,
0001
0000
0100
0000
0000
0000
0010
0000
0000
1000
0000
1000
,
0010
0100
0001
1000
,
0101
0110
1010
1001
,
0001
0000
0001
0010
0000
0000
0100
0000
0000
1001
0000
0000
,
1000
0010
0100
0001
,
1000
0000
1000
0100
0000
0000
0010
0000
0000
1100
0000
0000
,
1000
0010
0100
0001
,
1000
0000
0001
0010
0000
0000
0100
0000
0000
0011
0000
0000
,
0001
0000
0001
0100
0000
0000
0010
0000
0010
1000
0000
0000
,
0002
0100
2003
0100
,
3002
0000
0000
0010
0000
0000
1003
0000
0020
0000
0200
0000
,
0000
0330
0000
0000
;

//--------------- dance-single - K. Pearman ----------------
#NOTEDATA:;
#STEPSTYPE:dance-single;
#DESCRIPTION:K. Pearman;
#DIFFICULTY:Hard;
#METER:7;
#RADARVALUES:0.40533,0.412013,0.256565,0.120736,0.377302,376,342,34,16,0,0,0,0,0,0.40533,0.412013,0.256565,0.120736,0.377302,376,342,34,16,0,0,0,0,0;
#CHARTNAME:;
#CHARTSTYLE:;
#CREDIT:;
#NOTES:
0000
0000
0000
0000
,
0000
0000
0000
0000
,
0000
0000
0000
0000
,
0000
0000
0000
0000
,
1000
0000
0000
0001
0000
0100
0001
0000
0000
1000
0000
0100
,
1000
0000
0000
0001
0000
0010
0001
0000
0000
1000
0000
0000
,
0010
0000
0000
0100
0000
0010
1000
0000
0000
0100
0000
0010
,
0001
0000
0000
0100
0000
0010
1000
0000
0001
0010
0000
0000
,
0100
0000
0000
0010
0000
0001
0100
0000
0000
0100
0000
0000
,
0100
0000
0000
0010
0000
1000
0100
0000
0000
0100
0000
0000
,
0200
0010
2300
0001
,
3020
0001
0230
1000
,
0301
0011
0100
1010
,
0100
0000
0000
1001
0000
1000
0010
0000
0010
0100
0000
0100
,
0001
0101
0001
1100
,
1000
0000
0000
1001
0000
0001
0010
0000
0010
0100
0000
0100
,
1000
1100
1000
0101
,
0001
0000
0000
1010
0000
1000
0100
0000
0000
0010
0000
0001
,
0200
0010
0302
0010
,
2003
0100
3010
1010
,
1000
0000
1000
0100
0000
0000
0010
0000
0000
1001
0000
0000
,
0001
0000
0001
0100
0000
0000
0010
0000
0010
1000
0000
0000
,
0001
0000
0000
0010
0000
0100
1000
0000
0000
1001
0000
0000
,
1000
0000
0010
1000
0000
0000
0001
0000
0010
0001
0000
0000
,
0010
0001
0010
1100
,
1000
0000
0100
0010
0000
0000
0001
0000
0100
0010
0000
1000
,
0002
0000
0000
0100
0000
0000
1003
0000
0000
0001
0010
0100
,
2000
0100
3001
1001
,
0010
1001
0100
0011
,
0100
0000
1000
0010
0000
0000
0100
0000
0001
0010
0000
0000
,
0100
0000
1000
0001
0000
0000
0100
0000
0000
1001
0000
0000
,
0010
0000
1000
0000
0100
0000
0001
0000
0100
0000
0010
0000
,
0001
0000
1000
0010
0000
0000
0100
0000
0001
0010
0000
0000
,
0100
0000
0100
1000
0000
0000
0100
0000
0100
0001
0000
0000
,
0200
1000
0001
1000
,
0320
1000
0001
1030
,
0010
0000
0001
0100
0000
0000
0010
0000
0000
0101
0000
0000
,
0010
0000
1000
0100
0000
0000
0001
0000
0100
0010
0000
0000
,
0001
0000
1000
0010
0000
0000
0100
0000
0000
1010
0000
0000
,
1000
0000
0010
0000
0100
0000
0010
0000
0001
0000
0010
0000
,
1000
0000
0001
0010
0000
0000
0100
0000
0000
1001
0000
0000
,
1000
0000
0100
1000
0000
0000
0001
0000
0100
0001
0000
0000
,
0020
1000
0100
0001
,
0230
0001
0010
1300
,
0001
0000
0000
0101
0000
0100
0001
0000
0000
1001
0000
0000
,
1000
0000
0000
1100
0000
0100
1000
0000
0000
1001
0000
0000
,
0001
0000
0000
0100
0010
1000
0001
0000
0100
0000
0010
0000
,
0100
0000
0000
0010
1000
0001
0100
0000
0010
0000
0100
0000
,
0001
0000
0000
0011
0000
0010
0001
0000
0000
1001
0000
0000
,
1000
0000
0000
1010
0000
0010
1000
0000
0000
1001
0000
0000
,
0001
0000
0000
1000
0010
0100
0001
0000
1000
0000
0001
0000
,
0100
0000
0000
0010
1000
0001
0010
0000
0100
0000
1000
0000
,
0100
0000
0100
1000
0000
0000
0010
0000
0000
1010
0000
0000
,
0100
0000
0001
0010
0000
0000
0100
0000
1000
0010
0000
0000
,
0100
0000
0001
1000
0000
0000
0100
0000
0000
1001
0000
0000
,
0001
0000
0010
0000
0100
0000
0010
0000
1000
0000
0010
0000
,
0001
0000
1000
0010
0000
0000
0100
0000
0000
1001
0000
0000
,
0001
0000
0100
0010
0000
0000
1000
0000
0100
0010
0000
0000
,
0002
0100
1000
0010
,
2003
0100
0001
3010
,
0100
0000
0001
0010
0000
0000
0100
0000
0000
1001
0000
0000
,
0100
0000
0010
1000
0000
0000
0100
0000
0010
0001
0000
0000
,
0010
0000
0100
1000
0000
0000
0001
0000
0000
0110
0000
0000
,
1000
0000
0100
0000
0001
0000
0100
0000
0010
0000
0100
0000
,
1000
0000
0001
0100
0000
0000
0010
0000
0000
1100
0000
0000
,
1000
0000
0100
0010
0000
0000
0001
0000
0100
0010
0000
0000
,
1000
0000
0000
0001
0100
0010
1000
0000
0001
0000
0010
0000
,
0100
0000
0000
0010
0001
1000
0100
0000
0010
0000
0200
0000
,
0000
0300
0000
0000
;

//--------------- dance-single - K. Pearman ----------------
#NOTEDATA:;
#STEPSTYPE:dance-single;
#DESCRIPTION:K. Pearman;
#DIFFICULTY:Challenge;
#METER:8;
#RADARVALUES:0.481868,0.516903,0.181105,0.279203,0.709327,447,423,24,37,0,0,0,0,0,0.481868,0.516903,0.181105,0.279203,0.709327,447,423,24,37,0,0,0,0,0;
#CHARTNAME:K. Pearman;
#CHARTSTYLE:;
#CREDIT:;
#NOTES:
0000
0000
0000
0000
,
0000
0000
0000
0000
,
0000
0000
0000
0000
,
0000
0000
0000
0000
,
1000
0000
0000
0001
0100
0001
0100
0000
0000
0010
1000
0010
,
1000
0000
0000
0100
0010
0100
0010
0000
0010
0001
0000
0000
,
1000
0000
0000
0010
1000
0010
1000
0000
0000
0001
0100
0001
,
0100
0000
0000
0010
0100
0010
0100
0000
0100
0001
0000
0000
,
1000
0000
0000
0100
0010
0100
2000
0000
0000
3001
0000
0000
,
0010
0000
0000
0100
1000
0100
0020
0000
0000
0031
0000
0000
,
0200
0000
0000
1000
0000
0000
0001
0000
0000
0310
1000
0001
,
0020
1000
0001
0130
,
1000
0000
0000
0001
0100
0010
1000
0000
0000
1000
0100
0010
,
0001
0000
0000
0100
0010
0100
0010
0000
0100
0001
0000
1000
,
0010
0000
0000
0010
1000
0100
0010
0000
0000
0100
0010
0001
,
0100
0000
0000
0001
0100
0010
1000
0000
0100
0010
0000
0100
,
1000
0000
0000
0010
0100
0001
0200
0000
0000
0301
0000
0000
,
0100
0000
0000
0010
1000
0100
0020
0000
0000
0001
0000
0000
,
0230
0000
0000
0001
0000
0000
1000
0000
0000
0310
0001
1000
,
0020
0000
0000
0130
0000
0000
0001
0000
0010
0000
0001
0000
,
0010
0000
0000
0110
0000
0001
1000
0000
0000
1001
0000
0000
,
1000
0000
0100
0000
0010
0000
0001
0000
0010
0000
0100
0000
,
1000
0000
0000
1001
0000
0000
0001
0000
0001
0100
0000
0000
,
0010
0000
1000
0000
0010
0000
0100
0000
0010
0000
1000
0000
,
0001
0000
0000
0011
0000
0100
1000
0000
0000
1100
0000
0000
,
1000
0000
0100
0000
0001
0000
0100
0000
0010
0000
0100
0000
,
2000
0000
0000
0010
0000
0000
3100
0000
0000
1000
0010
0100
,
0002
0000
0003
1001
,
0001
0000
0001
0200
0000
0000
1000
0000
0000
0301
0000
0000
,
0001
0000
0010
0002
0000
0000
1003
0000
0100
0020
0000
0000
,
0031
0000
0001
0200
0000
0000
0301
0000
0000
1001
0000
0000
,
1000
0000
0100
0000
0010
0000
0001
0000
0010
0000
0100
0000
,
0010
0100
1000
0001
1000
0100
0010
0000
0000
1001
0000
0000
,
0001
0000
0001
0100
0000
0000
0020
0000
0000
1030
0000
1000
,
0100
0000
0100
1000
0000
0001
0100
0000
0100
0001
0000
0000
,
1000
0010
0100
0001
1000
0100
0010
0001
1000
0010
0100
0010
,
1000
0000
1000
0020
0000
0000
0001
0000
0000
1030
0000
0000
,
0001
0000
0001
2000
0000
0000
3001
0000
0010
0200
0000
0000
,
1300
0000
0001
0020
0000
0000
0130
0000
0000
1001
0000
0000
,
0001
0000
0010
0000
0100
0000
1000
0000
0100
0000
0010
0000
,
0100
0010
0001
1000
0001
0010
0100
0000
0000
1001
0000
0000
,
1000
0000
1000
0010
0000
0000
0200
0000
0000
0301
0000
0001
,
0010
0000
0010
0001
0000
1000
0010
0000
0010
1000
0000
0000
,
0001
0100
0010
1000
0001
0010
0100
1000
0001
0100
1000
0100
,
0020
0000
0000
2030
0000
3100
0010
0000
0001
1000
0000
0000
,
0001
0000
0001
0100
0000
0000
1000
0000
1000
0100
0000
0000
,
0110
0000
0000
0001
1000
0010
1000
0000
1010
0000
1001
0000
,
0001
0000
0000
1000
0001
0010
0001
0000
0011
0000
1002
0000
,
0203
0000
0000
0302
0000
0013
0100
0000
1000
0001
0000
0000
,
1000
0000
1000
0010
0000
0000
0001
0000
0001
0010
0000
0000
,
0110
0000
0000
1000
0001
0100
0001
0000
0101
0000
1001
0000
,
1000
0000
0000
0001
1000
0100
1000
0000
1100
0000
1001
0000
,
0001
0000
0001
0020
0000
0000
1000
0000
0000
0031
0000
0000
,
1000
0000
0100
0002
0000
0000
0103
0000
1000
0002
0000
0000
,
1003
0000
0001
0020
0000
0000
0031
0000
0000
1001
0000
0000
,
1000
0000
0010
0000
0100
0000
1000
0000
0100
0000
0001
0000
,
0100
0010
1000
0001
1000
0010
0100
0000
0000
1001
0000
0000
,
0001
0000
0001
0010
0000
0000
0200
0000
0000
1300
0000
1000
,
0010
0000
0010
1000
0000
0001
0010
0000
0010
0001
0000
0000
,
1000
0100
0010
0001
1000
0010
0100
0001
1000
0100
0010
0100
,
1000
0000
1000
0200
0000
0000
0001
0000
0000
1300
0000
0000
,
0001
0000
0010
2000
0000
0000
3001
0000
0100
2000
0000
0000
,
3001
0000
0001
0200
0000
0000
0310
0000
0000
1001
0000
0000
,
0001
0000
0100
0000
0010
0000
0001
0000
0010
0000
1000
0000
,
0010
0100
0001
1000
0001
0100
0010
0000
0000
1001
0000
0000
,
1000
0000
1000
0100
0000
0000
0020
0000
0000
0031
0000
0001
,
0100
0000
0100
0001
0000
1000
0100
0000
0100
1000
0000
0000
,
0001
0010
0100
1000
0001
0100
0010
0000
2000
0000
0002
0000
,
0000
0000
3003
0000
;

//--------------- dance-double - K. Pearman ----------------
#NOTEDATA:;
#STEPSTYPE:dance-double;
#DESCRIPTION:K. Pearman;
#DIFFICULTY:Easy;
#METER:3;
#RADARVALUES:0.202665,0.255622,0.022638,0.203743,0,188,185,3,27,0,0,0,0,0,0.202665,0.255622,0.022638,0.203743,0,188,185,3,27,0,0,0,0,0;
#CHARTNAME:;
#CHARTSTYLE:;
#CREDIT:;
#NOTES:
00000000
00000000
00000000
00000000
,
00000000
00000000
00000000
00000000
,
00000000
00000000
00000000
00000000
,
00000000
00000000
00000000
00000000
,
00000000
00010000
00000000
01000000
,
00000000
00100000
00000000
01000000
,
01000000
00000000
00010000
00000000
,
00100000
00000000
00001000
00001000
,
00010000
00000000
00000100
00000000
,
00000010
00000000
00000100
00001000
,
00000001
00000000
00000000
00000000
,
00001000
00000000
00000000
00000000
,
00000100
00010000
00000000
00001000
,
00000000
01000000
00100000
01000000
,
00000000
00010000
00000000
00100000
,
00000000
01000000
00010000
00001000
,
00000000
00000100
00000000
00000010
,
00000000
00001000
00000000
00000001
,
00000200
00000000
00000300
00000000
,
00000020
00000000
00000030
00000000
,
00001001
00000001
00001000
00000000
,
00000100
00010000
00001000
00000000
,
01000000
00010000
10000000
00000000
,
00100000
01000000
00010000
00000000
,
01000000
00001000
00010000
00000000
,
00000100
00010000
00001000
00000000
,
00020000
00000000
00030000
00000000
,
00002000
00000000
00003000
00011000
,
00001000
00010000
00001000
00000000
,
01000000
00100000
01000000
00000000
,
00010000
10000000
00010000
00000000
,
01000000
00001000
00010000
00000100
,
00001000
00000010
00001000
00000000
,
00000001
00000100
00000001
00000000
,
00000100
00000010
00000100
00000000
,
00000001
00001000
00000001
00001000
,
00000100
00010000
00000100
00000000
,
01000000
00100000
01000000
00000000
,
00010000
00100000
00010000
00000000
,
10000000
01000000
00100000
01000000
,
00010000
00001000
00010000
00000000
,
00001000
00000100
00001000
00000000
,
00000100
00000010
00001000
00000100
,
00000010
00000001
00000100
00000010
,
00000200
00000320
00020030
00031000
,
00002000
00203000
00320000
10030000
,
02000000
00000000
03100000
00000000
,
00020000
00000000
10030000
00000000
,
00200000
02300000
03002000
00013000
,
00020000
00030200
00002300
00003001
,
00000020
00000000
00000130
00000000
,
00002000
00000000
00003001
00000000
,
00001001
00000001
00001000
00000100
,
00001000
00000001
00001000
00000010
,
00001000
00000100
00010000
00001000
,
01000000
01000000
00100000
00100000
,
10000000
00010000
01000000
00010000
,
20000000
00000000
32000000
00000000
,
03200000
00000000
00300000
00000000
,
02000000
00000000
13000000
00010000
,
01000000
00100000
10000000
00010000
,
01000000
00010000
10000000
00010000
,
00100000
00010000
01000000
00001000
,
00010000
00000100
00001000
00000010
,
00000100
00000001
00001000
00000000
,
00000010
00000100
00000002
00000000
,
00002003
00000000
00003002
00000000
,
00000103
00000010
00001000
00000001
;

//--------------- dance-double - K. Pearman ----------------
#NOTEDATA:;
#STEPSTYPE:dance-double;
#DESCRIPTION:K. Pearman;
#DIFFICULTY:Medium;
#METER:4;
#RADARVALUES:0.266267,0.28153,0.128283,0.143375,0.007546,247,230,17,19,0,0,0,0,0,0.266267,0.28153,0.128283,0.143375,0.007546,247,230,17,19,0,0,0,0,0;
#CHARTNAME:;
#CHARTSTYLE:;
#CREDIT:;
#NOTES:
00000000
00000000
00000000
00000000
,
00000000
00000000
00000000
00000000
,
00000000
00000000
00000000
00000000
,
00000000
00000000
00000000
00000000
,
00000000
00010000
01000000
00001000
,
00010000
00000100
00001000
00001000
,
00000000
00001000
00000100
00010000
,
00001000
01000000
00010000
00010000
,
00000000
01000000
00001000
00010000
,
00000000
00001000
00010000
00000100
,
00000020
00000000
00000030
00000000
,
00000002
00000000
00000003
00000000
,
00001000
00000010
00001000
00000100
,
00001000
00000010
00010000
00001000
,
00100000
00010000
10000000
00010000
,
00100000
00010000
01000000
00001000
,
00000000
00010000
00200000
00000000
,
00300000
10000000
00010000
10000000
,
02000000
00000000
03000000
00000000
,
00200000
00000000
00300000
00000000
,
00010000
01000000
00001000
00010000
,
00000100
00000100
00001000
00001000
,
00000100
00010000
00001000
01000000
,
00010000
00010000
01000000
01000000
,
00100000
10000000
01000000
00010000
,
01000000
00100000
00001000
00010000
,
00000200
00001000
00000010
00000001
,
00002000
00000000
00003300
00001100
,
00001000
00000001
00001000
00000100
,
00010000
00010000
00000010
00000010
,
00000100
00001000
00010000
01000000
,
00100000
00100000
00001000
00001000
,
00010000
00100000
10000000
01000000
,
00100000
10010000
01000000
10010000
,
00100000
00010000
00010000
10000000
,
00010000
01000000
00001000
00010000
,
00001000
00000010
00000001
00000100
,
00001000
00001000
00010000
00010000
,
00100000
10000000
01000000
00010000
,
01000000
00100000
00001000
00010000
,
00000100
00000100
00001000
00000001
,
00000010
00001001
00000100
00001001
,
00000010
00000001
00000001
00000100
,
00001000
00010000
01000000
10000000
,
00020000
01030000
00100000
01010000
,
20000000
31000000
00100000
11000000
,
10000000
01000000
00010000
00010000
,
00001000
00000100
00000001
00000001
,
00002000
00003100
00001100
00000001
,
00000002
00000103
00000101
00001000
,
00001000
00000010
00000001
00000010
,
00001000
00000100
00010000
00001000
,
00020000
00030000
00100000
10010000
,
20000000
30000000
02000000
03000000
,
00010000
00001000
00010000
00011000
,
00001000
00000100
00000001
00000010
,
00000200
00000300
00010000
00011000
,
00002000
00003000
02000000
03000000
,
00100000
10000000
01000000
00010000
,
00001000
00000100
00000001
00000010
,
00000001
00000100
00000010
00000101
,
00000100
00000100
00000010
00000010
,
00001000
00000100
00000010
00001100
,
00000100
00010000
00001000
00100000
,
00010000
01000000
00100000
01010000
,
00100000
00100000
01000000
01000000
,
12000000
00100000
13000000
00010000
,
02010000
00000000
00000000
00100000
00000000
00000000
03010000
00000000
10000000
00000000
01000000
00000000
;

//--------------- dance-double - K. Pearman ----------------
#NOTEDATA:;
#STEPSTYPE:dance-double;
#DESCRIPTION:K. Pearman;
#DIFFICULTY:Hard;
#METER:6;
#RADARVALUES:0.342805,0.358311,0.233927,0.256565,0.181105,318,287,31,34,0,0,0,0,0,0.342805,0.358311,0.233927,0.256565,0.181105,318,287,31,34,0,0,0,0,0;
#CHARTNAME:;
#CHARTSTYLE:;
#CREDIT:;
#NOTES:
00000000
00000000
00000000
00000000
,
00000000
00000000
00000000
00000000
,
00000000
00000000
00000000
00000000
,
00000000
00000000
00000000
00000000
,
10000000
01000000
00010000
00001000
,
00000100
00000001
00000011
00001001
,
00000001
00000010
00001000
00010000
,
00100000
10000000
10100000
10010000
,
00000000
10000000
02000000
03100000
,
00010000
01000000
00001000
00020000
,
00030100
00000010
00000001
00000100
,
00000010
00000000
00000000
00000000
,
00000010
00001001
00000100
00001001
,
00000100
00010100
00001000
01001000
,
01000000
10010000
00100000
10010000
,
00100000
00110000
00001000
00011000
,
00010000
00000000
00000000
00000100
00000000
00000010
00000001
00000000
00000000
00000100
00000000
00000000
,
00000010
00000000
00000000
00001000
00000000
00000100
00000010
00000000
00000000
00000001
00000000
00000000
,
00002000
00000100
00000010
00003100
,
00010000
00000000
00000000
00001000
00000000
00000000
00010000
00000000
00001000
00000000
00010000
00000000
,
00001000
01001000
01000000
01010000
,
00010000
10000000
01000000
00100000
,
00010000
00110000
00100000
01100000
,
01000000
00010000
00001000
00000100
,
00000010
00001010
00001000
00001001
,
00000001
00000010
00000100
00001000
,
00001002
00000000
00000000
00000100
00000000
00000000
00001000
00000000
00000000
00000103
00000010
00002000
,
00000000
00000000
00003000
00001001
,
00000001
00000000
00000001
00000100
00000000
00000000
00000010
00000000
00000000
00002001
00000000
00000000
,
00003100
00000000
00000100
00010000
00000000
00000000
00001000
00000000
00001000
01000000
00000000
00000000
,
00100000
10000000
00010000
10010000
,
10000000
00000000
01000000
00000000
00100000
00000000
00010000
00000000
01000000
00000000
00001000
00000000
,
00010000
00000000
00010000
00001000
00000000
00000000
00000100
00000000
00000000
00001001
00000000
00000000
,
00000001
00000000
00000001
00000010
00000000
00000000
00000100
00000000
00000100
00001000
00000000
00000000
,
00000020
00000001
00001000
00000001
,
00000230
00001000
00000001
00001000
,
00000301
00000000
00000010
00000100
00000000
00000000
00001000
00000000
00000000
00020100
00000000
00000000
,
00031000
00000000
01000000
00010000
00000000
00000000
00100000
00000000
01000000
10000000
00000000
00000000
,
00100000
00000000
10000000
00010000
00000000
00000000
01000000
00000000
00000000
10010000
00000000
00000000
,
10000000
00000000
01000000
00000000
00100000
00000000
00010000
00000000
01000000
00000000
00001000
00000000
,
00010000
00000000
00000100
00000010
00000000
00000000
00000100
00000000
00000000
00001001
00000000
00000000
,
00000001
00000000
00000100
00000010
00000000
00000000
00001000
00000000
00000100
00000010
00000000
00000000
,
00000002
00000100
00000010
00000100
,
00002003
00000100
00000010
00003100
,
00002000
00003020
00020030
00032000
,
00203000
00320000
20030000
32000000
,
00010000
10000000
00010000
10000000
,
03200000
10000000
00010000
10000000
,
00320000
02030000
03002000
00023000
,
00030200
00000320
00000032
00002003
,
00003020
00000001
00001000
00000001
,
00000230
00001000
00000001
00001000
,
00000301
00000000
00000001
00000010
00000000
00000000
00000100
00000000
00000000
00001001
00000000
00000000
,
00001000
00000000
00000100
00010000
00000000
00000000
00001000
00000000
01000000
00001000
00000000
00000000
,
00010000
00000000
00100000
01000000
00000000
00000000
00010000
00000000
00000000
10010000
00000000
00000000
,
10000000
00000000
01000000
00000000
00100000
00000000
00010000
00000000
01000000
00000000
00001000
00000000
,
00010000
00000000
00000100
00001000
00000000
00000000
00000010
00000000
00000000
00001001
00000000
00000000
,
00000001
00000100
00001000
00000100
,
00000020
00000001
00001000
00000001
,
00000230
00000000
00000000
00001000
00000000
00000000
00000001
00000000
00000000
00001000
00000300
00000000
,
00000001
00000000
00000001
00000010
00000000
00000000
00000100
00000000
00000000
00020100
00000000
00000000
,
00031000
00000000
00000000
00010000
00000000
00000000
00100000
00000000
01000000
00010000
00000000
00000000
,
10000000
00000000
00000000
01000000
00000000
00000000
00010000
00000000
00001000
00010000
00000000
00000000
,
00001000
00000000
00010000
00000000
00001000
00000000
00000010
00000000
00000001
00000000
00000100
00000000
,
00000010
00000000
00001000
00000001
00000000
00000000
00000100
00000000
00000000
00001001
00000000
00000000
,
00000001
00000000
00000010
00000100
00000000
00000000
00010000
00000000
00000000
00001000
00000000
00000100
,
00000020
00001000
00000001
00000130
,
00001000
00000000
00000000
00000100
00000000
00000000
00000001
00000000
00000010
00000000
00000100
00000000
;

//--------------- dance-double - K. Pearman ----------------
#NOTEDATA:;
#STEPSTYPE:dance-double;
#DESCRIPTION:K. Pearman;
#DIFFICULTY:Challenge;
#METER:8;
#RADARVALUES:0.441982,0.515017,0.150921,0.211289,0.611228,410,390,20,28,0,0,0,0,0,0.441982,0.515017,0.150921,0.211289,0.611228,410,390,20,28,0,0,0,0,0;
#CHARTNAME:;
#CHARTSTYLE:;
#CREDIT:;
#NOTES:
00000000
00000000
00000000
00000000
,
00000000
00000000
00000000
00000000
,
00000000
00000000
00000000
00000000
,
00000000
00000000
00000000
00000000
,
10000000
00000000
00000000
00010000
00000000
01000000
00200000
00000000
00000000
01300000
00000000
00010000
,
20000000
00000000
00000000
30010000
00000000
01000000
00200000
00000000
00000000
00302000
00000000
00000000
,
00003010
00000000
00000000
00000100
00000000
00000001
00002000
00000000
00000000
00003100
00000000
00000010
,
00000002
00000000
00000000
00000103
00000000
00000010
00002000
00000000
00000000
02003000
00000000
00000000
,
03100000
00000000
00000000
00010000
00000000
00010000
01000000
00000000
00000000
01000000
00000000
00000000
,
00100000
00000000
00000000
00100000
00000000
00000000
10000000
00000000
10000000
01000000
00000000
00000000
,
01000000
00000000
00000000
00100000
00000000
00000000
00100000
00000000
00000000
00001000
00010000
00002000
,
00020000
00000000
00033000
00000000
,
00011000
00000000
00000000
00100000
00001000
00010000
00000010
00000000
00001000
00000010
00010000
00001000
,
00100000
00000000
00010000
00100000
00001000
00010000
00000010
00000000
00000010
00000100
00000000
00000100
,
00000001
00000000
00000000
00000010
00000001
00000100
00001000
00000000
00000100
00000010
00001000
00000100
,
00000001
00000000
00000100
00000010
00000001
00000100
00001000
00000000
00010000
01000000
00000000
10000000
,
00100000
00000000
00000000
01000000
00010000
00100000
02000000
00000000
00000000
13000000
00000000
00000000
,
11000000
00000000
00000000
01000000
10000000
00100000
02000000
00000000
00000000
03010000
00000000
00000000
,
01010000
00000000
00000000
00021000
00000000
00000000
00030100
00000000
00000000
00010000
00001000
00010000
,
00000100
00000000
00000100
00000010
00000000
00000001
00000010
00000000
00000001
00000000
00001000
00000000
,
00000100
00000000
00010000
00001000
00000000
00000000
01000000
00000000
00001000
00010000
00000000
00000000
,
00000010
00000000
00010000
00001000
00000000
00000000
00100000
00000000
00001000
00010000
00000000
00000000
,
00000100
00000000
00000010
00000001
00000000
00000000
00000100
00000000
00001000
00010000
00000000
00000000
,
01000000
00000000
10000000
00100000
00000000
00000000
01000000
00000000
00001000
00010000
00000000
00000000
,
00000100
00000000
00000010
00001000
00000000
00000000
01000000
00000000
00100000
00010000
00000000
00000000
,
00001000
00000000
00010000
00000000
01000000
00000000
00100000
00000000
00001000
00000000
00000010
00000000
,
00000200
00000000
00000000
00001000
00000000
00000000
00000001
00000000
00000000
00001300
00000010
00000100
,
00000020
00000000
00000030
00011000
,
00001000
00000000
00001000
02000000
00000000
00000000
13000000
00000000
00000000
01010000
00000000
00000000
,
10000000
00000000
01000000
00010000
00000000
00000000
00001000
00000000
00000010
00000001
00000000
00000000
,
00000100
00000000
00001000
00010000
00000000
00000000
00001000
00000000
00000000
00012000
00000000
00000000
,
00103000
00000000
00010000
00000000
01000000
00000000
10000000
00000000
01000000
00000000
00001000
00000000
,
00010000
00000000
00000010
00000100
00000000
00000000
00000010
00000000
00000000
00001001
00000000
00000000
,
00001000
00000000
00001000
00000100
00000000
00000000
00010000
00000000
00010000
00001000
00000000
00001000
,
01000000
00000000
00000000
01000000
00100000
10000000
00001000
00000000
00010000
00000000
00000001
00000000
,
00000010
00000000
00000000
00000100
00000010
00000001
00010000
00000000
00001000
00000000
10000000
00000000
,
00010000
00000000
00100000
00002000
00000000
00000000
00013000
00000000
00000000
00001010
00000000
00000000
,
00000001
00000000
00000010
00001000
00000000
00000000
00010000
00000000
01000000
10000000
00000000
00000000
,
00100000
00000000
00010000
00001000
00000000
00000000
00010000
00000000
00000000
00021000
00000000
00000000
,
00030100
00000000
00001000
00000000
00000010
00000000
00000001
00000000
00000010
00000000
00010000
00000000
,
00001000
00000000
01000000
00100000
00000000
00000000
01000000
00000000
00000000
10010000
00000000
00000000
,
00010000
00000000
00010000
00100000
00000000
00000000
00001000
00000000
00001000
00010000
00000000
00010000
,
00000010
00000000
00000000
00000010
00000100
00000001
00010000
00000000
00001000
00000000
10000000
00000000
,
01000000
00000000
00000000
00100000
01000000
10000000
00001000
00000000
00010000
00000000
00000001
00000000
,
00000020
00000000
00000000
00000130
00000000
00010000
00001000
00000000
00000010
00000100
00000000
00000000
,
00001000
00000000
01000000
00100000
00000000
00001000
00010000
00000000
00000010
00000100
00000000
00000000
,
00000001
00000000
00000000
00000010
00000001
00000100
00001000
00000000
00000100
00000000
00000010
00000000
,
00010010
00000000
00000000
00010000
00001000
00100000
01000000
00000000
10000000
00000000
00100000
00000000
,
10200000
00000000
00000000
01300000
00000000
00001000
00010000
00000000
00100000
01000000
00000000
00000000
,
00010000
00000000
00000100
00000010
00000000
00010000
00001000
00000000
00100000
01000000
00000000
00000000
,
10000000
00000000
00000000
01000000
00100000
00010000
01000000
00000000
00001000
00000000
00010000
00000000
,
00010100
00000000
00000000
00000100
00001000
00000001
00000010
00000000
00000001
00000000
00001000
00000000
,
00000100
00000000
00010000
00000020
00000000
00000000
00000031
00000000
00000000
00002010
00000000
00000000
,
00003001
00000000
00000010
00001000
00000000
00000000
00010000
00000000
01000000
10000000
00000000
00000000
,
00100000
00000000
00010000
00001000
00000000
00000000
00010000
00000000
00000000
00021000
00000000
00000000
,
00030100
00000000
00001000
00000000
00000010
00000000
00000001
00000000
00000010
00000000
00010000
00000000
,
00001000
00000000
01000000
10000000
00000000
00000000
01000000
00000000
00000000
10010000
00000000
00000000
,
00010000
00000000
00010000
00100000
00000000
00000000
00001000
00000000
00001000
00010000
00000000
00010000
,
00000010
00000000
00000000
00000010
00000100
00000001
00010000
00000000
00001000
00000000
10000000
00000000
,
01000000
00000000
00000000
00100000
01000000
10000000
00001000
00000000
00010000
00000000
00000001
00000000
,
00001000
00000000
00000100
00020000
00000000
00000000
00031000
00000000
00000000
01020000
00000000
00000000
,
10030000
00000000
01000000
00010000
00000000
00000000
00001000
00000000
00000010
00000001
00000000
00000000
,
00000100
00000000
00001000
00010000
00000000
00000000
00001000
00000000
00000000
00012000
00000000
00000000
,
00103000
00000000
00010000
00000000
01000000
00000000
10000000
00000000
01000000
00000000
00001000
00000000
,
00010000
00000000
00000010
00000001
00000000
00000000
00000010
00000000
00000000
00001001
00000000
00000000
,
00001000
00000000
00001000
00000100
00000000
00000000
00010000
00000000
00010000
00001000
00000000
00001000
,
01000000
00000000
00000000
01000000
00100000
10000000
00001000
00000000
00010000
00000000
00000001
00000000
,
00000010
00000000
00000000
00000100
00000010
00000001
00010000
00000000
00001000
00000000
20000000
00000000
,
00000000
30000000
00000000
00000000
;
