#TITLE:Roses Are Red;
#SUBTITLE:;
#ARTIST:Aqua;
#TITLETRANSLIT:;
#SUBTITLETRANSLIT:;
#ARTISTTRANSLIT:;
#GENRE:;
#CREDIT:;
#BANNER:Roses Are Red-Banner.png;
#BACKGROUND:Roses Are Red-BG.png;
#LYRICSPATH:;
#CDTITLE:;
#MUSIC:Roses Are Red 145.ogg;
#OFFSET:0.001000;
#SAMPLESTART:56.215000;
#SAMPLELENGTH:26.483000;
#SELECTABLE:YES;
#BPMS:0.000000=145.000000
;
#STOPS:
;
#BGCHANGES:;
#KEYSOUNDS:;
#ATTACKS:;

//---------------dance-single - K. Pearman----------------
#NOTES:
     dance-single:
     K. Pearman:
     Beginner:
     2:
     0.144901,0.202120,0.081440,0.000000,0.000000,137.000000,126.000000,11.000000,0.000000,0.000000,0.000000,0.144901,0.202120,0.081440,0.000000,0.000000,137.000000,126.000000,11.000000,0.000000,0.000000,0.000000:
0000
0000
0000
0000
,
0000
0000
0000
0000
,
0000
0000
0000
0000
,
0000
0000
0000
0000
,
0000
0000
0000
0000
,
0000
0000
0000
0000
,
1000
0000
0000
0000
,
0001
0000
0000
0000
,
0100
0000
0000
0000
,
1001
0000
0000
0000
,
0010
0000
0010
0000
,
0100
0000
0100
0000
,
1000
0000
1000
0000
,
0001
0000
0001
0000
,
0010
0000
0010
0000
,
0100
0000
0100
0000
,
0001
0000
0001
0000
,
1000
1000
1000
0000
,
1001
0000
0001
0000
,
0000
0100
0100
0000
,
1000
0000
1000
0000
,
0000
0100
0100
0000
,
1001
0000
0001
0000
,
0000
0010
0010
0000
,
1000
0000
1000
0000
,
0000
0010
0010
0000
,
0110
0000
0010
0000
,
0000
0100
0100
0000
,
0001
0000
1000
0000
,
0000
0010
0010
0000
,
1000
0000
0100
0000
,
1000
0000
0001
0001
,
0000
0001
0000
0100
,
0100
0000
0100
0000
,
1001
0000
0000
0000
,
0010
0000
0010
0000
,
1000
0000
0000
0000
,
0010
0000
0010
0000
,
0001
0000
0000
0000
,
0100
0000
0100
0000
,
1000
0000
0000
0000
,
0100
0000
0100
0000
,
0001
0000
0010
0000
,
0100
0000
1000
0000
,
0001
0000
0100
0000
,
0010
0000
1000
0000
,
1001
0000
0000
0000
,
0010
0000
0000
0000
,
0100
0000
0000
0000
,
0000
0000
0000
0000
,
1001
0000
0000
0000
,
0000
0000
0000
0000
,
0001
0000
0000
0000
,
1000
0000
0000
0000
,
0110
0000
0000
0000
,
1000
0000
0100
0000
,
1000
0000
0000
0000
,
0001
0000
0100
0000
,
0001
0000
0000
0000
,
1000
0000
0010
0000
,
0001
0000
0000
0000
,
0001
0000
0100
0000
,
1000
0000
0100
0100
,
0000
0000
0010
0010
,
0000
0000
1000
1000
,
0000
0000
0000
0000
,
1001
0000
0001
0001
,
0000
0000
0010
0010
,
0000
0000
0100
0100
,
0000
0000
1000
0000
,
1001
0000
1000
1000
,
0000
0000
0010
0010
,
0000
0000
0100
0100
,
0000
0000
0001
0000
,
1000
0000
0001
0001
,
0000
0000
0010
0010
,
0000
0100
0100
0100
,
0000
1000
0000
0001
,
1001
0000
0000
0000
;

//---------------dance-single - K. Pearman----------------
#NOTES:
     dance-single:
     K. Pearman:
     Easy:
     4:
     0.235860,0.296147,0.111055,0.111055,0.000000,223.000000,208.000000,15.000000,15.000000,0.000000,0.000000,0.235860,0.296147,0.111055,0.111055,0.000000,223.000000,208.000000,15.000000,15.000000,0.000000,0.000000:
0000
0000
0000
0000
,
0000
0000
0000
0000
,
0000
0000
0000
0000
,
0000
0000
0000
0000
,
0000
0000
0000
0000
,
0000
0000
0000
0000
,
1000
0000
0000
0000
,
0001
0000
0000
0000
,
0100
0000
0000
0000
,
1001
0000
0000
0000
,
0001
0100
0001
0000
,
1000
0100
1001
0000
,
0001
0001
1000
0000
,
1000
1000
0001
0000
,
1000
0010
1000
0000
,
0001
0010
0001
0000
,
1000
1000
0001
0000
,
0001
0001
1000
0000
,
1001
0000
0010
0000
,
0001
0100
0001
0000
,
1000
0000
0010
0000
,
1000
0100
1000
0000
,
0110
0000
0001
0000
,
1000
0100
0010
0000
,
1000
0000
0001
0000
,
0100
0001
1000
0000
,
0110
0000
1001
0000
,
0000
0100
0100
0000
,
1000
0000
0001
0000
,
0000
0010
0010
0000
,
1001
0000
0110
0000
,
0000
1000
1000
0000
,
0001
0000
1000
0000
,
0000
0001
0001
0001
,
1001
0000
0001
0100
,
0010
0000
1000
0100
,
0010
0000
0010
0001
,
1000
0000
0010
1000
,
0001
0000
0100
0001
,
1000
0000
0100
1000
,
0001
0000
0010
0100
,
1000
1000
0001
0001
,
0200
0300
0010
0010
,
0200
0300
0010
0010
,
0200
0300
0010
0010
,
1000
0001
1000
0001
,
2001
3000
0001
0010
,
0002
0003
1000
0010
,
2002
0000
0000
0000
,
0000
0000
0000
3003
,
1001
0010
0000
0100
,
0000
0010
0000
0100
,
0000
0010
0000
0100
,
0000
0010
1000
0001
,
0100
0100
0001
0001
,
0100
0001
1000
0000
,
0010
0010
1000
1000
,
0010
1000
0001
0000
,
1001
0001
0010
0000
,
0100
1000
0001
0000
,
0100
0001
1000
0000
,
0010
1000
0001
0100
,
0001
0100
0001
0001
,
1000
0100
1000
0000
,
0001
0010
0001
0001
,
1000
0010
1000
0000
,
0010
0100
0001
0001
,
0010
0100
1000
0000
,
1000
0010
0100
0100
,
0001
0010
0100
0000
,
2000
3010
1000
1000
,
0002
0103
0001
0001
,
2000
3100
1000
1000
,
0001
0010
0100
1000
,
1002
1003
0100
0100
,
2000
3001
0010
0010
,
0002
1003
0010
0010
,
0100
0001
1000
0010
,
2002
0000
0000
0000
,
0000
0000
0000
0000
,
3003
0000
0000
0000
;

//---------------dance-single - K. Pearman----------------
#NOTES:
     dance-single:
     K. Pearman:
     Medium:
     6:
     0.305666,0.384991,0.199899,0.111055,0.000000,289.000000,262.000000,27.000000,15.000000,0.000000,0.000000,0.305666,0.384991,0.199899,0.111055,0.000000,289.000000,262.000000,27.000000,15.000000,0.000000,0.000000:
0000
0000
0000
0000
,
0000
0000
0000
0000
,
0000
0000
0000
0000
,
0000
0000
0000
0000
,
0000
0000
0000
0000
,
0000
0000
0000
0000
,
0000
1000
0000
0000
0001
0000
0000
0000
,
0000
0100
0000
0000
0010
0000
0000
0000
,
0000
1000
0000
0000
0100
0000
0000
0000
,
2002
0000
0000
3003
,
0001
0001
0100
0100
,
0010
0100
0001
0001
,
1000
1000
0100
0100
,
0010
0100
1000
1000
,
1001
0001
0010
0100
,
1000
0010
0100
0001
,
1000
0100
0001
0100
,
1000
0010
0100
0001
,
0011
0000
0000
0100
,
1001
0000
0000
0010
,
1001
0000
0000
1000
,
0110
0000
0000
0001
,
0110
0000
0000
1000
,
1100
0000
0000
0001
,
0101
0000
0000
1000
,
1010
0000
0000
0001
,
0011
0001
0100
0100
,
0010
1000
0100
0100
,
1000
0000
1000
0000
0001
1000
0001
0000
,
0100
0100
0010
0010
,
1001
0001
0010
0100
,
1000
0000
0010
0000
0100
0010
0100
0000
,
0010
1000
0001
0200
,
0020
0000
0330
0000
,
0110
0000
0001
0000
1000
1000
0000
0000
,
0010
0000
1000
0000
0001
0001
0000
0000
,
0100
0000
0001
0000
1000
1000
0000
0000
,
0001
0010
0100
1000
,
1001
0000
0010
0000
0100
0100
0000
0000
,
0001
0000
0100
0000
0010
0010
0000
0000
,
1000
0100
0001
0100
,
1000
1000
0001
0001
,
0011
0000
0001
0000
0100
0100
0000
0000
,
1010
0000
1000
0000
0100
0100
0000
0000
,
0101
0000
0001
0000
0010
0010
0000
0000
,
0100
0100
1000
1000
,
1100
0000
1000
0000
0010
0010
0000
0000
,
0100
0000
0001
0000
0010
0010
0000
0000
,
0100
1000
0001
0100
,
0010
1000
0001
0010
,
1001
0001
0000
0100
,
0000
1000
0000
0100
,
0000
0001
0000
0010
,
0000
0100
0010
0100
,
0001
0010
0001
0100
,
0010
1000
0100
1000
,
0010
0100
0001
1000
,
0100
0010
0001
1000
,
1001
1001
0001
0100
,
0110
0110
0010
1000
,
0001
1000
0100
0010
,
0001
0001
1000
1000
,
0110
0000
0001
0000
0100
0010
0200
0000
,
0300
0000
0001
0000
1000
0100
2000
0000
,
3000
0000
1000
0000
0001
0100
0002
0000
,
0003
1000
0010
0100
,
0101
0000
0001
0000
1000
0100
2000
0000
,
3000
0000
1000
0000
0001
0010
0002
0000
,
0003
0000
0100
0000
0001
1000
0001
0000
,
0001
0100
0010
1000
,
1010
0000
0010
0000
0100
0001
0200
0000
,
0300
0000
0010
0000
1000
0001
2000
0000
,
3000
0000
0100
0000
1000
0001
1000
0000
,
0001
0010
0100
1000
,
1100
0000
1000
0000
0001
0100
0002
0000
,
0003
0000
1000
0000
0010
1000
0020
0000
,
0030
0000
0100
0000
0001
1000
0001
0000
,
0100
0000
0010
0000
1000
0010
0100
0002
,
2000
0000
0000
0000
,
0000
0000
0000
0000
,
3003
0000
0000
0000
;

//---------------dance-single - K. Pearman----------------
#NOTES:
     dance-single:
     K. Pearman:
     Hard:
     8:
     0.482297,0.533065,0.074037,0.244321,0.159179,456.000000,446.000000,10.000000,33.000000,0.000000,0.000000,0.482297,0.533065,0.074037,0.244321,0.159179,456.000000,446.000000,10.000000,33.000000,0.000000,0.000000:
0000
0000
0000
0000
,
0000
0000
0000
0000
,
0000
0000
0000
0000
,
0000
0000
0000
0000
,
0000
0000
0000
0000
,
0000
0000
0000
0000
,
0000
0001
0000
1000
0100
0010
0001
0000
,
0000
1000
0000
0001
0010
0100
1000
0000
,
0000
0010
0000
0010
0100
0010
0100
0000
,
2002
0000
0000
3003
,
0001
0000
0010
0000
0001
0000
0000
0000
1000
0100
0000
1000
0100
0000
0000
0000
,
1000
0000
0010
0000
1000
0000
0000
0000
0001
0100
0000
0001
0100
0000
0000
0000
,
0010
0000
1000
0000
0001
0000
0000
0000
0100
0001
0000
1000
0001
0000
0000
0000
,
0100
0000
0001
0000
1000
0000
0000
0000
0100
1000
0000
0001
1000
0000
0000
0000
,
0010
0000
0100
0000
0001
0000
0100
0000
0010
1000
0000
0010
0000
0000
0100
0000
,
0001
0000
0010
0000
0100
0000
1000
0000
0001
0100
0000
0001
0000
0000
0010
0000
,
0100
0000
1000
0000
0010
0000
1000
0000
0001
0100
0000
0001
0000
0000
1000
0000
,
0100
1000
0010
0100
0001
0010
0001
0100
,
0110
0010
1000
0001
0002
0000
0013
0000
,
0100
0100
1000
0001
1000
1000
0100
0000
,
0010
0001
0100
1000
0100
0001
0010
0100
,
0001
0100
0010
0001
1000
0010
0100
0000
,
1001
0000
0001
0100
0010
0000
1000
0000
,
0100
0000
0010
0100
1000
0000
0001
0000
,
0100
0001
0010
0000
0100
1000
0010
0000
,
0100
0000
1000
0000
0100
0000
0001
0000
0100
0010
0000
0100
0010
0000
0010
0000
,
1000
0000
0001
0000
0000
0100
0000
0000
0001
0000
0000
1000
0000
0000
0001
0000
,
0000
0000
0010
0000
0000
0100
0000
0000
1000
0000
0000
0001
0000
0000
1000
0000
,
0000
0000
0010
0000
0000
0100
0000
0000
0001
0000
0000
0100
0000
0000
0010
0000
,
0000
0000
1000
0000
0000
0100
0000
0000
0001
0000
0000
0100
0000
0000
1000
0000
,
1001
0000
0002
0000
0000
0100
0000
0000
1000
0000
0000
0100
0000
0000
0103
0000
,
0000
0000
2000
0000
0000
0001
0000
0000
0100
0000
0000
0001
0000
0000
3002
0000
,
0000
0013
0000
0100
1000
1000
0001
0100
,
0020
0000
0000
0030
,
1010
0001
0000
0010
0100
1000
0001
0001
,
0000
1000
0000
0010
0100
0001
1000
1000
,
0000
0010
0000
0100
0001
1000
0100
0100
,
0000
0010
0001
0100
1000
0100
0001
0010
,
0011
1000
0000
0010
0100
0001
1000
1000
,
0000
0001
0000
0010
0100
1000
0001
0001
,
0000
0010
0000
0100
1000
0001
0100
0100
,
0010
1000
0100
0000
0001
0100
1000
0020
,
0000
0230
0000
0301
0010
0100
1000
0002
,
0000
2003
0000
3010
0100
0001
1000
0200
,
0000
0302
0000
0103
1000
0010
0001
0000
,
0010
1000
0100
0001
0100
0010
0001
0200
,
0000
0320
0000
1030
0100
0010
0001
2000
,
0000
3002
0000
0103
0010
1000
0001
0000
,
0200
0000
0310
1000
0001
0100
1000
0000
,
0200
0000
0301
1000
0100
0001
0100
0000
,
1001
0001
0000
0100
,
0000
0001
0000
1000
,
0000
0010
0000
0100
,
0000
0100
0001
0010
1000
0010
0001
1000
,
1000
0000
0010
0000
1000
0000
0000
0000
0001
0100
0000
0001
0100
0000
0000
0000
,
0001
0000
0010
0000
0001
0000
0000
0000
1000
0100
0000
1000
0100
0000
0000
0000
,
0010
0000
0001
0000
1000
0000
0000
0000
0100
1000
0000
0001
1000
0000
0000
0000
,
0100
0000
1000
0000
0001
0000
0000
0000
0100
0001
0000
1000
0001
0000
0000
0000
,
0010
0000
0100
0000
1000
0000
0100
0000
0010
0001
0000
0010
0000
0000
0100
0000
,
1000
0000
0010
0000
0100
0000
0001
0000
1000
0100
0000
1000
0000
0000
0010
0000
,
0100
0000
0001
0000
0010
0000
0001
0000
1000
0100
0000
1000
0000
0000
0001
0000
,
0100
0001
0010
0100
1000
0010
1000
0100
,
0011
1000
0000
0010
0100
0001
1000
1000
,
0000
0001
0000
0010
0100
1000
0001
0001
,
0000
0010
0000
0100
1000
0001
0100
0100
,
0000
0010
1000
0100
0001
0100
1000
0010
,
1010
0001
0000
0010
0100
1000
0001
0001
,
0000
1000
0000
0010
0100
0001
1000
1000
,
0000
0010
0000
0100
0001
1000
0100
0100
,
0010
0001
0100
0000
1000
0100
0001
0020
,
0000
0230
0000
1300
0010
0100
0001
2000
,
0000
3002
0000
0013
0100
1000
0001
0200
,
0000
2300
0000
3100
0001
0010
1000
0000
,
0010
0001
0100
1000
0100
0010
1000
0200
,
0000
0320
0000
0031
0100
0010
1000
0002
,
0000
2003
0000
3100
0010
0001
1000
0200
,
0000
0320
0000
0031
0100
0010
0100
0001
,
1000
0000
0010
0000
0100
0000
0000
0000
0001
1000
0001
0000
1000
0000
0100
0000
,
2002
0000
0000
0000
,
0000
0000
0000
0000
,
3003
0000
0000
0000
;

//---------------dance-single - K. Pearman----------------
#NOTES:
     dance-single:
     :
     Challenge:
     9:
     0.611332,0.681138,0.162881,0.066633,0.547872,578.000000,556.000000,22.000000,9.000000,7.000000,0.000000,0.611332,0.681138,0.162881,0.066633,0.547872,578.000000,556.000000,22.000000,9.000000,7.000000,0.000000:
0000
0000
0000
0000
,
0000
0000
0000
0000
,
0000
0000
0000
0000
,
0000
0000
0000
0000
,
0000
0000
0000
0000
,
0000
0000
0000
0000
,
1000
0020
0000
0130
0001
1000
0100
0000
,
1000
0020
0000
0130
0001
1000
0020
0000
,
0130
0002
0000
0013
0100
1000
0001
0000
,
2002
0000
00M0
3003
,
1000
0000
0100
0000
0010
0000
0001
0000
0100
0010
0000
0100
0000
0001
0100
0000
,
0010
0000
1000
0000
0001
0000
0010
0000
0100
1000
0000
0100
0000
0010
0100
0000
,
1000
0000
0010
0000
0100
0000
0001
0000
0100
0010
0000
0100
0000
0001
0100
0000
,
0001
0000
0010
0000
0100
0000
1000
0000
0010
0100
0000
0010
0000
1000
0010
0000
,
1010
0000
1000
0000
0100
0000
0001
0000
0100
0010
0000
0100
0000
1000
0100
0000
,
0010
0000
0001
0000
0100
0000
1000
0000
0100
0010
0000
0100
0000
0001
0100
0000
,
0001
0000
0010
0000
1000
0000
0010
0000
0100
1000
0000
0010
0000
1000
0100
0000
,
1000
0000
0010
0000
0001
0000
0010
0000
0100
0001
0000
1000
0000
0001
0010
0000
,
0011
0000
0001
0000
0100
0000
0010
0100
0001
0000
0001
0000
1000
0000
0000
0000
,
0001
0000
0010
0000
0100
0000
1000
0010
0100
0000
0100
0000
0001
0000
0000
0000
,
0010
0000
0001
0000
1000
0000
0100
0000
0001
0000
0100
1000
0001
0000
0100
0000
,
0100
0000
0010
1000
0001
0000
0010
0000
0010
0000
0000
0000
0100
0000
0000
0000
,
1001
0000
0001
0100
1000
0000
0100
0000
,
0001
0000
1000
0010
0001
0000
0010
0000
,
1000
0000
0100
1000
0001
0000
0100
0000
0010
0000
0100
0000
0001
0000
0010
0001
,
1000
0000
0001
0000
0010
0000
0100
0000
1000
0010
0000
0100
0001
0000
1000
0000
,
1100
0000
0001
0000
1000
0010
1000
0000
0100
0000
1000
0001
1000
0000
0100
0000
,
0000
0000
0010
0000
0001
1000
0001
0000
0100
0000
0001
0010
0001
0000
1000
0000
,
0000
0000
0001
0000
0100
0010
0100
0000
0001
0000
1000
0010
1000
0000
0100
0000
,
0000
0000
0010
0000
0100
1000
0100
0000
1000
0000
0001
1000
0001
0000
0100
0000
,
0110
0000
0010
0000
1000
0100
1000
0000
0001
0000
0010
0100
0010
0000
0001
0000
,
0000
0000
0100
0000
0010
0001
0010
0000
0100
0000
0001
1000
0001
0000
0010
0000
,
0000
0000
0100
0000
0010
1000
0010
0000
0001
0000
1000
0001
1000
0000
0010
0000
,
0400
0000
0304
0000
1003
0100
0001
0100
,
1001
0000
0001
0000
0010
0100
0000
0000
1000
0000
0000
0001
0000
0000
0100
0000
,
0000
0000
0001
0000
0100
0010
0000
0000
1000
0000
0000
0010
0000
0000
0100
0000
,
0000
0000
0001
0000
0010
0001
0000
0000
1000
0000
0000
0100
0000
0000
0010
0000
,
0000
0000
0100
0000
1000
0001
1000
0000
0001
0000
0010
0000
0001
0000
0100
0000
,
1001
0000
1000
0000
0010
1000
0000
0000
0010
0000
0000
0100
0000
0000
0001
0000
,
0000
0000
1000
0000
0100
0010
0000
0000
0100
0000
0000
1000
0000
0000
0001
0000
,
0000
0000
0010
0000
0100
0010
0000
0000
0001
0000
0000
1000
0000
0000
0010
0000
,
0100
0001
0100
0000
0010
1000
0010
0000
1000
0100
0010
0001
0010
0100
1000
0000
,
1100
0000
0001
0000
0010
0001
0000
0000
1000
0000
0000
0001
0000
0001
0010
0000
,
0100
0000
0001
0000
0100
1000
0000
0000
0001
0000
0000
1000
0000
1000
0010
0000
,
0100
0000
1000
0000
0100
0001
0000
0000
1000
0000
0000
0001
0000
0001
0010
0000
,
0100
0000
1000
0001
1000
0000
0010
0000
0100
0000
0001
0000
0010
0000
0100
0000
,
1100
0000
1000
0000
0001
0010
0100
0000
0010
0000
0000
0001
0000
0001
0100
0000
,
0010
0000
1000
0000
0100
1000
0001
0000
0100
0000
0000
0010
0000
0010
2000
0000
,
0002
0M00
00M0
0M00
,
00M0
0M00
00M0
3003
,
1001
0101
0000
1100
,
0000
1001
0000
0011
,
0000
1010
0000
1001
,
0001
0000
0001
0000
1000
0000
1000
0000
0001
0100
0010
1000
0100
0010
0001
0000
,
1000
0000
0010
0000
0100
0000
0001
0000
0010
0100
0000
0010
0000
0001
0010
0000
,
0100
0000
1000
0000
0001
0000
0100
0000
0010
1000
0000
0010
0000
0100
0010
0000
,
1000
0000
0100
0000
0010
0000
0001
0000
0010
0100
0000
0010
0000
0001
0010
0000
,
0001
0000
0100
0000
0010
0000
1000
0000
0100
0010
0000
0100
0000
1000
0100
0000
,
1100
0000
1000
0000
0010
0000
0001
0000
0010
0100
0000
0010
0000
1000
0010
0000
,
0100
0000
0001
0000
0010
0000
1000
0000
0010
0100
0000
0010
0000
0001
0010
0000
,
0001
0000
0100
0000
1000
0000
0100
0000
0010
1000
0000
0100
0000
1000
0010
0000
,
1000
0000
0100
0000
0001
0000
0100
0000
0010
0001
0000
1000
0000
0001
0100
0000
,
1001
0000
0001
0000
0100
0010
0000
0000
1000
0000
0000
0001
0000
0000
0010
0000
,
0000
0000
0001
0000
0010
0100
0000
0000
1000
0000
0000
0100
0000
0000
0010
0000
,
0000
0000
0001
0000
0100
0001
0000
0000
1000
0000
0000
0010
0000
0000
0100
0000
,
0000
0000
0010
0000
1000
0001
1000
0000
0001
0000
0100
0000
0001
0000
0010
0000
,
1001
0000
1000
0000
0100
1000
0000
0000
0100
0000
0000
0010
0000
0000
0001
0000
,
0000
0000
1000
0000
0010
0100
0000
0000
0010
0000
0000
1000
0000
0000
0001
0000
,
0000
0000
0100
0000
0010
0100
0000
0000
0001
0000
0000
1000
0000
0000
0100
0000
,
0010
0001
0010
0000
0100
1000
0100
0000
1000
0010
0100
0001
0100
0010
1000
0000
,
1010
0000
0001
0000
0100
0001
0000
0000
1000
0000
0000
0001
0000
0001
0100
0000
,
0010
0000
0001
0000
0010
1000
0000
0000
0001
0000
0000
1000
0000
1000
0100
0000
,
0010
0000
1000
0000
0010
0001
0000
0000
1000
0000
0000
0001
0000
0001
0100
0000
,
0010
0000
1000
0001
1000
0000
0100
0000
0010
0000
0001
0000
0100
0000
0010
0000
,
1010
0000
1000
0000
0001
0100
0010
0000
0100
0000
0000
0001
0000
0001
0010
0000
,
0100
0000
1000
0000
0010
1000
0001
0000
0010
0000
0000
0100
0000
0100
1000
0000
,
0010
0000
1000
0000
0001
0100
0010
0000
0100
0000
0000
0001
0000
0001
0010
0000
,
0100
0000
0100
0000
1000
0010
0100
0000
0001
1000
0001
0000
0100
0010
1000
0001
,
0200
0000
0000
0000
,
0000
0000
0000
0000
,
0300
0000
0000
0000
;

//---------------dance-double - K. Pearman----------------
#NOTES:
     dance-double:
     :
     Easy:
     2:
     0.134324,0.207303,0.037018,0.007404,0.000000,127.000000,122.000000,5.000000,1.000000,0.000000,0.000000,0.134324,0.207303,0.037018,0.007404,0.000000,127.000000,122.000000,5.000000,1.000000,0.000000,0.000000:
00000000
00000000
00000000
00000000
,
00000000
00000000
00000000
00000000
,
10000000
00000000
00000000
00000000
,
00010000
00000000
00000000
00000000
,
00001000
00000000
00000000
00000000
,
00000000
00000000
00000000
00000000
,
00000001
00000000
00000000
00000000
,
00001000
00000000
00000000
00000000
,
00010000
00000000
00000000
00000000
,
00011000
00000000
00000000
00000000
,
00001000
00000000
00010000
00000000
,
00100000
00000000
00000000
00000000
,
01000000
00000000
00010000
00000000
,
00001000
00000000
00000000
00000000
,
00010000
00000000
00001000
00000000
,
00000100
00000000
00000000
00000000
,
00000010
00000000
00001000
00000000
,
00010000
00000000
00000000
00000000
,
00010000
00010000
00010000
00000000
,
10000000
00000000
10000000
00000000
,
01000000
01000000
01000000
00000000
,
00100000
00000000
00100000
00000000
,
00011000
00000000
00000000
00000000
,
00000100
00000000
00000000
00000000
,
00000010
00000010
00000010
00000000
,
00000001
00000000
00000001
00000000
,
00000100
00000000
00000010
00000000
,
00001000
00000000
00001000
00000000
,
00000100
00000000
00010000
00000000
,
00001000
00000000
00001000
00000000
,
01000000
00000000
00010000
00000000
,
10000000
00000000
10000000
00000000
,
01000000
00000000
01000000
00000000
,
00100000
00000000
00000000
00000000
,
10010000
00000000
00000000
00000000
,
00010000
00000000
01000000
00000000
,
00100000
00000000
00000000
00000000
,
10000000
00000000
00100000
00000000
,
01000000
00000000
00000000
00000000
,
00001000
00000000
00010000
00000000
,
00000100
00000000
00000000
00000000
,
00001000
00000000
00000001
00000000
,
00000010
00000000
00000000
00000000
,
00000100
00000000
00001000
00000000
,
00000010
00000000
00000000
00000000
,
00010000
00000000
00001000
00000000
,
01000000
00000000
00000000
00000000
,
00100000
00000000
01000000
00000000
,
00010000
00000000
00000000
00000000
,
10000000
00000000
00000000
00000000
,
10010000
00000000
00000000
00000000
,
00000000
00000000
00000000
00000000
,
00000000
00000000
00000000
00000000
,
00000000
00000000
00000000
00000000
,
00001001
00000000
00000001
00000000
,
00000100
00000000
00001000
00000000
,
00010000
00000000
01000000
00000000
,
00100000
00000000
00010000
00000000
,
10000000
00000000
00010000
00000000
,
01000000
00000000
00001000
00000000
,
00010000
00000000
00000100
00000000
,
00000010
00000000
00000000
00000000
,
00000001
00000000
00000100
00000000
,
00000100
00000000
00000010
00000000
,
00010000
00000000
00001000
00000000
,
00000000
00100000
00100000
00000000
,
01000000
00000000
10000000
00000000
,
00010000
00000000
01000000
00000000
,
00001000
00000000
00010000
00000000
,
00000000
00000100
00000100
00000000
,
00000010
00000000
00000001
00000000
,
00000100
00000000
00000100
00000000
,
00000010
00000000
00001000
00000000
,
00000000
00000000
00000000
00000100
,
00000100
00000000
00010000
00000000
,
00001000
00000000
01000000
00000000
,
00010000
00000000
10000000
00000000
,
01000000
00000000
00100000
00000000
,
02000000
00000000
00000000
00000000
,
00000000
00000000
00000000
00000000
,
03000000
00000000
00000000
00000000
;

//---------------dance-double - K. Pearman----------------
#NOTES:
     dance-double:
     :
     Medium:
     4:
     0.241148,0.292445,0.022211,0.044422,0.000000,228.000000,225.000000,3.000000,6.000000,0.000000,0.000000,0.241148,0.292445,0.022211,0.044422,0.000000,228.000000,225.000000,3.000000,6.000000,0.000000,0.000000:
00000000
00000000
00000000
00000000
,
00000000
00000000
00000000
00000000
,
10000000
00000000
00000000
00000000
,
00010000
00000000
00000000
00000000
,
00001000
00000000
00000000
00000000
,
00000000
00000000
00000000
00000000
,
00000001
00000000
00000000
00000000
,
00001000
00000000
00000000
00000000
,
00010000
00000000
00000000
00000000
,
00022000
00000000
00033000
00000000
,
00001000
00010000
00010000
00000000
,
00100000
10000000
10000000
00000000
,
01000000
00010000
00010000
00000000
,
00001000
00010000
00001000
00000000
,
00001000
00000010
00000010
00000000
,
00000001
00000100
00000100
00000000
,
00001000
00010000
00010000
00000000
,
00001000
00010000
00001000
00000000
,
01000000
01000000
00010000
00010000
,
10000000
00010000
01000000
00000000
,
00001000
00000000
00010000
00000000
,
00000100
00000000
00000010
00000000
,
00000001
00001000
00000100
00000100
,
00001000
00000001
00000100
00000100
,
00000010
00000000
00010000
00000000
,
00001000
00000000
00100000
00000000
,
01000000
01000000
10000000
10000000
,
00000000
00010000
00010000
01000000
,
00000000
00001000
00001000
00010000
,
00000000
00000100
00000100
00001000
,
00000001
00000001
00001000
00001000
,
00000010
00000100
00000001
00001000
,
00000000
00000100
00010000
00001000
,
01000000
01000000
00010000
00000000
,
00000000
10000000
00000000
00000000
10000000
00000000
01000000
00000000
,
00000000
00010000
00000000
00000000
00010000
00000000
00001000
00000000
,
00000000
00000100
00000000
00000000
00000001
00000000
00000001
00000000
,
00000000
00000010
00000100
00001000
,
00000000
00000010
00000000
00000000
00000010
00000000
00010000
00000000
,
00000000
00001000
00000000
00000000
00001000
00000000
00100000
00000000
,
00000000
01000000
00000000
00000000
10000000
00000000
00010000
00000000
,
01000000
00000000
01000000
00000000
00100000
00000000
00100000
10000000
,
00000000
10000000
00000000
00000000
00010000
00000000
00000000
01000000
,
00000000
01000000
00000000
00000000
00001000
00000000
00000000
00010000
,
00000000
00010000
00000000
00000000
00000100
00000000
00000000
00000000
,
00000010
00000000
00000001
00000000
00001000
00000000
00000010
00010000
,
00000000
00010000
00000000
00000000
00001000
00000000
00000000
00100000
,
00000000
00100000
00000000
00000000
01000000
00000000
00000000
00000000
,
10010000
00000000
00000000
00000000
,
01000000
01000000
00100000
00100000
,
20000000
00000000
00000000
00000000
,
30000000
00000000
00000000
00000000
,
00000002
00000000
00000000
00000000
,
00000013
00000000
00000001
00000100
,
00000010
00000010
00001000
00001000
,
00000100
00010000
00001000
00000000
,
00100000
00100000
00010000
00010000
,
10000000
01000000
00100000
00000000
,
00011000
00001000
01000000
01000000
,
00010000
01000000
10000000
01000000
,
00010000
00010000
00100000
00100000
,
10000000
00100000
00001000
00010000
,
00010000
00001000
00000000
00000000
00001000
00000000
00000010
00000000
,
00000000
00000001
00000000
00000000
00001000
00000000
00000010
00000000
,
00000000
00010000
00000000
00000000
00001000
00000000
00100000
00000000
,
00000000
01000000
10000000
00100000
,
00000000
01000000
00000000
00000000
00010000
00000000
00100000
00000000
,
00000000
01000000
00000000
00000000
00010000
00000000
00001000
00000000
,
00000000
00000100
00000000
00000000
00000010
00000000
00001000
00000000
,
00000001
00000000
00000001
00000000
00001000
00000000
00000000
00000100
,
00000000
00000100
00010000
00000000
00001000
00000000
00000000
00100000
,
00000000
00100000
00010000
00000000
10000000
00000000
00000000
01000000
,
00000000
01000000
00100000
00000000
00001000
00000000
00010000
00000000
,
00000100
00000000
00001000
00000000
00000010
00000000
00000100
00000001
,
00000000
00001000
00000000
00001000
00000100
00000000
00000000
00010000
,
00000000
00001000
00000000
00001000
01000000
00000000
00000000
00100000
,
00000000
00100000
00000000
10000000
00010000
00000000
00100000
00010000
,
10000000
01000000
02000000
00000000
,
00200000
00000000
00000000
00000000
,
03300000
00000000
00000000
00000000
;

//---------------dance-double - K. Pearman----------------
#NOTES:
     dance-double:
     :
     Hard:
     9:
     0.446336,0.467912,0.044422,0.273936,0.000000,422.000000,416.000000,6.000000,37.000000,0.000000,0.000000,0.446336,0.467912,0.044422,0.273936,0.000000,422.000000,416.000000,6.000000,37.000000,0.000000,0.000000:
// measure 0
00000000
00000000
00000000
00000000
,  // measure 1
00000000
00000000
00000000
00000000
,  // measure 2
00020000
00000000
00000000
00030000
,  // measure 3
00002000
00000000
00000000
00003000
,  // measure 4
00000020
00000000
00000000
00000030
,  // measure 5
00000000
00000000
00000000
00000000
,  // measure 6
00002000
00000000
00000000
00003000
,  // measure 7
00020000
00000000
00000000
00030000
,  // measure 8
00200000
00000000
00000000
00300000
,  // measure 9
20020000
00000000
30030000
00000000
,  // measure 10
10000000
01000000
00010000
00000000
00001000
00000000
00000010
00000000
,  // measure 11
00000001
00000100
00001000
00000000
00010000
00000000
00100000
00000000
,  // measure 12
01000000
00001000
00100000
00000000
01000000
00000000
00010000
00000000
,  // measure 13
00000100
00010000
00000010
00000000
00000100
00000000
00001000
00000000
,  // measure 14
00010000
00100000
01000000
00000000
00001000
00000000
00000100
00000000
,  // measure 15
00000001
00000010
00000100
00000000
00010000
00000000
01000000
00000000
,  // measure 16
10000000
00100000
00010000
00000000
00001000
00000000
00100000
00000000
,  // measure 17
00001000
00000010
00000001
00000000
00001000
00000000
00000010
00000000
,  // measure 18
00001010
00000000
00000010
00001000
00010000
01000000
10000000
00000000
,  // measure 19
01000000
00000000
00010000
00100000
10000000
00000000
00100000
00000000
,  // measure 20
00100000
00001000
01000000
10000000
02000000
00000000
03002000
00000000
,  // measure 21
00013000
00000100
00000001
00000100
00000010
00000001
00001000
00000000
,  // measure 22
00001001
00000000
00010000
00000010
00002000
00000000
00103000
00000000
,  // measure 23
10010000
00000000
00001000
00100000
00020000
00000000
00030010
00000000
,  // measure 24
00000001
00000000
00000100
00000000
00010000
00001000
00000010
00000000
,  // measure 25
00010000
00001000
00000010
00001000
00010000
00000000
00000000
00200000
,  // measure 26
00000000
20300000
00000000
32000000
00000000
03010000
00001000
00000020
,  // measure 27
00000000
00000031
00000000
00001000
00000000
01000000
00100000
00010000
,  // measure 28
00000000
00000100
00000010
00001000
00000000
01000000
00100000
00010000
,  // measure 29
00000000
00001000
00000010
00000200
00000000
00001300
00000100
00000001
,  // measure 30
00000021
00000000
00000130
00010000
00002000
00000000
01003000
00001000
,  // measure 31
00020000
00000000
00130000
01000000
00100000
00010000
00000010
00000000
,  // measure 32
00000100
00000001
00000010
00001000
00100000
01000000
00010000
01000000
,  // measure 33
20000000
00000000
30020000
00000000
00031000
00000100
00000001
00000100
,  // measure 34
00001000
00000010
00000100
00010000
00000100
00000010
00010000
00000000
,  // measure 35
00001000
00100000
00010000
00001000
00010000
00100000
00001000
00000000
,  // measure 36
01000000
00100000
00010000
00100000
10000000
01000000
00010000
00000000
,  // measure 37
00000100
00001000
00000010
00000100
00001000
00010000
00100000
01000000
,  // measure 38
00010000
10000000
01000000
00010000
00001000
00000100
00000001
00000000
,  // measure 39
00001000
00000001
00000010
00001000
00010000
00100000
10000000
00000000
,  // measure 40
00010000
10000000
01000000
00100000
00001000
00000010
00000100
00010000
,  // measure 41
01000000
00100000
00001000
00010000
00000020
00000000
00000030
00002000
,  // measure 42
00000000
00013000
01000000
00001000
00010000
00000100
00000010
00002000
,  // measure 43
00000000
00013000
01000000
00100000
00010000
01000000
00100000
00020000
,  // measure 44
00000000
00031000
00000010
00000001
00000100
00010000
00000100
00000001
,  // measure 45
00000010
00000100
00001000
00010000
00100000
01000000
10000000
00020000
,  // measure 46
00000000
00031000
00000010
00000100
00000010
00000001
00000010
00020000
,  // measure 47
00000000
00031000
00100000
10000000
00100000
01000000
00100000
00010000
,  // measure 48
00001000
00000000
00000010
00000100
00000010
00001000
00100000
01000000
,  // measure 49
00010000
00000000
00010000
00100000
01000000
00010000
00000100
00000000
,  // measure 50
00001001
00000100
00000000
00010000
,  // measure 51
00000000
00001000
00000000
01000000
,  // measure 52
00000000
00001000
00000000
00010000
,  // measure 53
00000000
00000100
00000000
00000010
,  // measure 54
00000001
00000010
00001000
00000000
00010000
00000000
01000000
00000000
,  // measure 55
10000000
00100000
00010000
00000000
00001000
00000000
00000100
00000000
,  // measure 56
00000010
00010000
00000100
00000000
00000010
00000000
00001000
00000000
,  // measure 57
00100000
00001000
01000000
00000000
00100000
00000000
00010000
00000000
,  // measure 58
00001000
00000100
00000010
00000000
00010000
00000000
00100000
00000000
,  // measure 59
10000000
01000000
00100000
00000000
00001000
00000000
00000010
00000000
,  // measure 60
00000001
00000100
00001000
00000000
00010000
00000000
00000100
00000000
,  // measure 61
00010000
01000000
10000000
00000000
00010000
00000000
01000000
00000000
,  // measure 62
00010000
01000000
00100000
00010000
00100000
01000000
00001000
00000000
,  // measure 63
00010000
00000100
00001000
00010000
00001000
00000100
00010000
00000000
,  // measure 64
00000010
00000100
00001000
00000100
00000001
00000010
00010000
00000000
,  // measure 65
00100000
00010000
01000000
00100000
00010000
00001000
00000100
00000010
,  // measure 66
00001000
00000001
00000010
00001000
00010000
00100000
10000000
00000000
,  // measure 67
00010000
10000000
01000000
00010000
00001000
00000100
00000001
00000000
,  // measure 68
00001000
00000001
00000010
00000100
00010000
01000000
00100000
00001000
,  // measure 69
00000010
00000100
00010000
00001000
02000000
00000000
03000000
00020000
,  // measure 70
00000000
00031000
00000010
00010000
00001000
00100000
01000000
00020000
,  // measure 71
00000000
00031000
00000010
00000100
00001000
00000010
00000100
00002000
,  // measure 72
00000000
00013000
01000000
10000000
00100000
00001000
00100000
10000000
,  // measure 73
01000000
00100000
00010000
00001000
00000100
00000010
00000001
00002000
,  // measure 74
00000000
00013000
01000000
00100000
01000000
10000000
01000000
00002000
,  // measure 75
00000000
00013000
00000100
00000001
00000100
00000010
00000100
00002000
,  // measure 76
00000000
00003010
00010000
00001000
00100000
00001000
00010000
00000010
,  // measure 77
00010000
00000000
00001000
00010000
00100000
00000000
00100000
02000000
,  // measure 78
00002000
00000000
00000000
00000000
,  // measure 79
03003000
00000000
00000000
00000000
;
