#TITLE:Ride On Time;
#SUBTITLE:;
#ARTIST:Black Box;
#TITLETRANSLIT:;
#SUBTITLETRANSLIT:;
#ARTISTTRANSLIT:;
#GENRE:;
#CREDIT:;
#BANNER:Ride On Time-Banner.png;
#BACKGROUND:Ride On Time-Background.png;
#LYRICSPATH:;
#CDTITLE:;
#MUSIC:Ride On Time - Black Box.ogg;
#OFFSET:0.004000;
#SAMPLESTART:43.485001;
#SAMPLELENGTH:16.500000;
#SELECTABLE:YES;
#BPMS:0.000000=120.000000
;
#STOPS:
;
#BGCHANGES:;
#KEYSOUNDS:;
#ATTACKS:;

//---------------dance-single - K. Pearman----------------
#NOTES:
     dance-single:
     K. Pearman:
     Beginner:
     2:
     0.116004,0.186466,0.075188,0.105263,0.000000,108.000000,98.000000,10.000000,14.000000,0.000000,0.000000,0.116004,0.186466,0.075188,0.105263,0.000000,108.000000,98.000000,10.000000,14.000000,0.000000,0.000000:
0000
0000
0000
0000
,
0000
0000
0000
0000
,
0000
0000
0000
0000
,
0000
0000
0000
0000
,
1000
0000
0100
0000
,
0010
0000
0001
0000
,
2000
0000
3000
0000
,
0002
0000
0003
0000
,
2002
0000
0000
0000
,
3003
0000
0000
0000
,
0001
0000
0001
0000
,
0000
0000
0100
0100
,
0100
0000
0100
0000
,
0000
0000
1000
1000
,
2000
0000
3000
0000
,
0002
0000
0003
0000
,
0200
0000
0300
0000
,
0200
0000
0300
0000
,
0001
0000
0010
0000
,
1000
0000
0000
0000
,
1000
0000
0010
0000
,
0001
0000
0000
0000
,
1001
0000
0000
0000
,
0010
0000
0010
0000
,
1001
0000
0000
0000
,
0100
0000
0100
0000
,
1001
0000
0000
0000
,
0010
0000
0100
0000
,
1001
0000
0000
0000
,
0100
0000
0010
0000
,
1001
0000
0000
0000
,
0001
0000
0000
0000
,
1000
0000
0010
0000
,
0100
0000
0001
0000
,
0000
1000
1000
0000
,
0000
0001
0001
0000
,
0100
0100
0100
0000
,
0100
0100
0100
0000
,
0010
0000
0010
0000
,
0010
0000
0000
0000
,
1000
0000
0001
0000
,
1000
0000
0000
0000
,
0010
0000
0010
0000
,
0010
0000
0000
0000
,
0001
0000
1000
0000
,
0001
0000
0000
0000
,
2002
0000
3003
0000
,
1001
0000
0000
0000
,
0010
0000
1000
0000
,
0100
0100
0100
0000
,
0010
0000
0001
0000
,
0100
0100
0100
0000
,
0010
0000
1000
0000
,
0001
0001
0001
0000
,
0010
0000
0001
0000
,
1000
1000
1000
0000
,
0100
0100
0100
0000
,
0010
0010
0010
0000
,
0001
0001
0001
0000
,
2002
0000
0000
0000
,
0000
0000
3003
0000
,
2002
0000
0000
0000
,
3003
0000
0000
0000
;

//---------------dance-single - K. Pearman----------------
#NOTES:
     dance-single:
     K. Pearman:
     Easy:
     3:
     0.182599,0.209774,0.045113,0.120301,0.000000,170.000000,164.000000,6.000000,16.000000,0.000000,0.000000,0.182599,0.209774,0.045113,0.120301,0.000000,170.000000,164.000000,6.000000,16.000000,0.000000,0.000000:
0000
0000
0000
0000
,
0000
0000
0000
0000
,
0000
0000
0000
0000
,
0000
0000
0000
0000
,
0001
0010
1000
0010
,
0001
0010
1000
0010
,
0002
0000
0003
0000
,
2000
0000
3000
0000
,
0220
0000
0000
0000
,
0000
0000
0330
0000
,
1001
0001
0100
0100
,
0010
1000
0001
0000
,
1000
1000
0100
0100
,
0010
0001
1000
0000
,
0002
0010
0103
0000
,
2000
0010
3100
0000
,
0002
0100
0013
0000
,
2000
0100
3010
0000
,
1000
0100
0010
0100
,
1000
0000
0000
0000
,
0001
0100
0010
0100
,
0001
0000
0000
0010
,
1001
0001
1000
0000
,
0100
0100
1000
1000
,
0010
0100
0001
0000
,
0100
0100
0001
0001
,
0010
0100
1000
0000
,
0010
0100
0001
0000
,
1000
1000
0001
0000
,
0001
0001
1000
0010
,
0100
0000
0100
0000
,
0010
0000
0010
0000
,
1000
0000
0001
0000
,
1000
0000
0001
0000
,
0200
0000
0300
0000
,
0020
0000
0030
0000
,
1000
0001
1000
0100
,
1000
0001
1000
0100
,
0010
0010
0001
0001
,
1000
0000
0010
0000
,
0010
0010
1000
1000
,
0001
0000
0010
0000
,
0100
0100
1000
1000
,
0001
0000
0100
0000
,
0100
0100
0001
0001
,
1000
0000
0100
0000
,
2002
0000
3003
0000
,
1001
0010
1000
0001
,
0100
0100
0010
0000
,
0100
0010
1000
0001
,
0010
0100
1000
0000
,
0001
0100
0001
0001
,
1000
0010
1000
1000
,
0001
0100
0010
0000
,
0100
0010
1000
0001
,
0010
0100
1000
0001
,
1000
0100
0010
0001
,
1000
1000
0010
0010
,
0100
0001
2000
0000
,
0002
0000
0000
0000
,
0000
0000
3003
0000
,
2002
0000
0000
0000
,
3003
0000
0000
0000
;

//---------------dance-single - K. Pearman----------------
#NOTES:
     dance-single:
     K. Pearman:
     Medium:
     4:
     0.255639,0.372932,0.135338,0.090226,0.000000,238.000000,220.000000,18.000000,12.000000,0.000000,0.000000,0.255639,0.372932,0.135338,0.090226,0.000000,238.000000,220.000000,18.000000,12.000000,0.000000,0.000000:
0000
0000
0000
0000
,
0000
0000
0000
0000
,
0000
0000
0000
0000
,
0000
0000
0000
0000
,
0001
0100
1000
0100
,
0001
0100
1000
0100
,
0002
0013
2000
3010
,
2000
0000
3010
0000
0002
0000
0013
0002
,
2000
0000
0000
0000
,
3003
0000
0000
0000
,
1001
0001
0100
0010
,
1000
0000
0001
0000
1000
1000
1000
0000
,
0001
0010
0100
1000
,
0010
0000
0100
0000
0001
0001
0001
0000
,
1000
0100
1100
0000
,
0001
0100
0101
0000
,
1000
0010
1010
0000
,
0001
0010
0011
0000
,
0010
0100
1000
0001
,
0100
0000
0010
0000
0010
0100
0010
0000
,
0100
0001
1000
0100
,
0010
0000
0010
0100
0010
0000
0100
0000
,
1000
0010
0100
0100
,
0001
1000
0001
0000
,
0001
0010
0100
0100
,
1000
0001
1000
0000
,
0010
0100
0001
1000
,
0001
0100
0010
0010
,
0100
0010
1000
0001
,
1000
0010
0100
0100
,
0001
0000
0010
0000
0001
0100
0001
0000
,
1000
0001
1000
0000
,
1000
0000
0010
0000
1000
0100
1000
0000
,
0001
1000
0001
0100
,
0000
0000
0010
0000
0100
0001
1000
0000
,
0000
0010
0100
0010
,
0110
1001
1100
0101
,
0110
1001
0101
0000
,
0100
0010
1000
0001
,
1000
0000
0100
0000
0010
0010
0010
0000
,
0001
1000
0001
0100
,
0010
0000
1000
0000
0100
0100
0100
0000
,
1000
0001
0100
0001
,
1000
0000
0010
0000
0100
0100
0100
0000
,
0010
1000
0001
0010
,
0100
0000
1000
0000
0001
1000
0100
2000
,
0002
0000
0000
3003
,
1001
0011
0100
0001
,
1000
0100
1000
0001
,
1000
1010
1000
0001
,
0010
0000
0100
0000
1000
1000
0001
0000
,
0100
0010
1000
0001
,
0100
0000
0010
0000
0100
0000
0001
0001
,
0010
0100
1000
0010
,
0100
0000
0010
0000
1000
0000
0001
1000
,
0001
0100
0100
0001
,
0010
0000
0100
0000
1100
0000
1000
0001
,
1000
0010
0100
0001
,
0010
0000
0001
0000
0011
0000
0010
0200
,
2000
0000
0000
0000
,
0000
0000
3300
0000
,
0022
0000
0000
0000
,
0033
0000
0000
0000
;

//---------------dance-single - K. Pearman----------------
#NOTES:
     dance-single:
     K. Pearman:
     Hard:
     7:
     0.382385,0.419549,0.105263,0.165414,0.180451,356.000000,342.000000,14.000000,22.000000,0.000000,0.000000,0.382385,0.419549,0.105263,0.165414,0.180451,356.000000,342.000000,14.000000,22.000000,0.000000,0.000000:
0000
0000
0000
0000
,
0000
0000
0000
0000
,
0000
0000
0000
0000
,
0000
0000
0000
0000
0000
0000
0001
0100
,
0020
0000
1030
0100
0020
0000
0031
0100
,
0020
0000
1030
0100
0020
0000
0031
0100
,
0020
0001
0100
2030
,
3200
0000
0001
0000
0010
0000
1300
0001
,
0200
0000
0000
0000
,
0000
0300
0000
0000
,
0001
0000
0010
0000
0001
0000
0000
0000
0100
0000
0000
0100
0000
0000
0100
0000
,
0000
0000
0010
0000
1000
0000
0001
0000
1000
0000
0100
0000
0000
0100
0000
0000
,
1000
0000
0100
0000
1000
0000
0000
0000
0010
0000
0000
0010
0000
0000
0010
0000
,
0000
0000
0100
0000
0001
0000
1000
0000
0001
0000
0010
0000
0000
0010
0000
0000
,
0100
1000
0000
0000
0001
0000
1000
0000
0100
0000
0000
0000
0110
0000
0000
0000
,
0010
0001
0000
0000
1000
0000
0001
0000
0010
0000
0100
0000
1000
0000
0001
0000
,
1000
0010
0000
0000
0100
0000
0010
0000
1000
0000
1100
0000
0000
0101
0000
0000
,
0001
1000
0000
0000
0100
0000
0010
0000
0001
0000
0000
0000
0001
0100
0000
0000
,
0001
0100
0010
1000
0100
0010
0001
0100
,
0010
0000
1000
0000
0000
1000
0000
0000
1000
0000
0100
0010
0000
0000
0100
0000
,
1000
0010
0100
0010
1000
0001
0100
0010
,
0200
0000
0302
0000
2003
0000
3001
1000
,
0100
0000
0000
0100
0000
0000
0100
0000
0010
0000
0001
0000
1000
0000
0001
0000
,
0000
0000
0100
0000
0010
0000
0100
0000
0001
0000
1000
0000
0010
0100
0000
0000
,
0010
0000
0000
0010
0000
0000
0010
0000
1000
0000
0001
0000
1000
0000
0100
0000
,
0000
0000
1000
0000
0100
0000
0010
0000
0001
0000
1000
0000
0001
0100
0000
0000
,
0001
0000
0000
0001
0000
0000
0001
0000
0000
0000
0010
0000
0001
0000
1000
0000
,
0000
0000
0001
0000
1000
0000
0100
0000
1000
0000
0001
0000
0010
0100
0000
0000
,
1000
0000
0000
1000
0000
0000
1000
0000
0000
0000
0010
0000
0100
0000
0001
0000
,
0000
0000
0100
0000
0010
0000
1000
0000
0001
0000
0100
0000
0010
0100
0000
0000
,
0001
0010
0001
1000
0100
1000
1100
0000
,
1000
0010
1000
0001
0100
0001
0101
0000
,
0100
0010
1000
0000
0100
0010
0001
0000
,
0010
0100
1000
0000
0010
0100
0001
1000
,
0000
0000
0002
0000
0000
0023
0000
0000
0230
0000
0000
2300
0000
0000
3001
0000
,
0000
1000
0100
1000
0001
1000
0100
0000
,
0010
0001
0000
0000
0001
1000
0000
0000
1000
0010
0100
0000
0000
0100
0000
0000
,
0100
0001
0000
0000
0001
1000
0000
0000
1000
0100
0000
0000
0010
0000
0000
0000
,
0001
0100
0010
1000
0100
0010
0001
0100
,
0010
0000
1000
0000
0000
1000
0000
0000
1000
0000
0010
0100
0000
0000
0010
0000
,
1000
0100
0010
0100
1000
0001
0010
0100
,
0010
0000
0001
0000
1000
0000
0000
0000
0001
0000
0000
0100
0000
0000
0100
0000
,
0010
1000
0001
1000
0010
0100
0001
1000
,
0001
0000
0100
0000
0000
0100
0000
0000
0100
0000
0001
1000
0000
0000
0001
0000
,
0010
0001
1000
0100
1000
0001
0010
0001
,
1000
2000
0000
3200
0000
0320
0000
0031
,
0200
0000
0000
0300
,
1001
0000
0000
0000
0011
0000
0000
0000
0001
0000
0000
0010
0000
0000
0100
0000
,
0000
0000
0010
0000
0001
0000
1000
0000
0100
0000
0010
0000
0100
1000
0000
0000
,
1010
0000
0000
0000
1001
0000
0000
0000
1000
0000
0000
0010
0000
0000
0100
0000
,
0000
0000
0010
0000
1000
0000
0001
0000
0100
0000
0010
0000
0100
0001
0000
0000
,
0011
0000
0000
0000
1001
0000
0000
0000
1000
0000
0000
0100
0000
0000
0010
0000
,
0000
0000
0100
0000
1000
0000
0001
0000
0010
0000
0100
0000
0010
0001
0000
0000
,
1010
0000
0000
0000
1001
0000
0000
0000
0001
0000
0000
0100
0000
0000
0001
0000
,
0000
0000
0100
0000
0010
0000
1000
0000
0001
0000
1000
0000
0010
1000
0000
0000
,
0001
0000
0000
0100
0000
0000
0010
0000
0000
0000
0100
0000
0000
0001
0000
0000
,
1000
0000
0000
0001
0000
0000
0010
0000
0100
0000
1000
0000
0001
0000
1000
0000
,
0100
0000
0000
0010
0000
0000
0001
0000
0000
0000
1000
0000
0000
0010
0000
0000
,
0100
0000
0000
0010
0000
0000
1000
0000
0000
0000
0001
0000
0100
0000
0010
0000
,
0200
0000
0000
0000
,
0000
0000
0000
0300
,
2002
0000
0000
0000
,
3003
0000
0000
0000
;

//---------------dance-single - ----------------
#NOTES:
     dance-single:
     :
     Challenge:
     9:
     0.490870,0.504511,0.105263,0.082707,0.496241,457.000000,443.000000,14.000000,11.000000,0.000000,0.000000,0.490870,0.504511,0.105263,0.082707,0.496241,457.000000,443.000000,14.000000,11.000000,0.000000,0.000000:
// measure 0
0000
0000
0000
0000
,  // measure 1
0000
0000
0000
0000
,  // measure 2
0000
0000
0000
0000
,  // measure 3
0000
0000
0000
0000
0000
0000
0000
0001
,  // measure 4
1000
0100
1000
1000
0001
0100
0001
0001
,  // measure 5
1000
0010
1000
1000
0001
0010
0001
0001
,  // measure 6
0100
0010
0100
0001
0100
0010
0100
0001
,  // measure 7
1000
0100
0010
1000
0010
0100
0010
1000
,  // measure 8
0010
0001
0200
0000
0000
0000
0000
0000
,  // measure 9
0000
0000
0300
0000
,  // measure 10
1001
0000
0000
0000
0001
0010
0000
0001
0100
0000
0000
0100
0000
0000
0100
0000
,  // measure 11
0010
0000
1000
0000
0001
0000
1000
0000
0100
0000
0010
0000
0001
0100
0010
0000
,  // measure 12
1001
0000
0000
0000
1000
0100
0000
1000
0010
0000
0000
0010
0000
0000
0010
0000
,  // measure 13
0100
0000
0001
0000
1000
0000
0001
0000
0100
0000
0010
1000
0100
0000
0010
0001
,  // measure 14
0100
0001
0000
0010
0000
0010
0000
0001
0100
0000
0010
0000
1000
0000
0001
0000
,  // measure 15
1000
0010
0000
0100
0000
0100
0000
0010
1000
0000
0001
0000
0010
0000
0100
0000
,  // measure 16
1000
0100
0000
0010
0000
0100
0000
1000
0001
0000
0010
0000
0100
0000
0010
0000
,  // measure 17
0001
0100
0000
0010
0000
1000
0000
0010
0100
0000
0001
0000
1000
0000
0001
0000
,  // measure 18
1000
0100
1000
0100
0000
0000
0010
0001
0010
0001
0000
0000
1000
0010
1000
0010
,  // measure 19
0000
0000
0110
0000
0000
1001
0000
0000
1100
0000
0010
0001
0000
0000
1000
0000
,  // measure 20
0001
0100
0001
0100
0000
0000
0010
1000
0010
1000
0000
0000
0001
0010
0001
0010
,  // measure 21
0400
0000
0000
0000
4300
0000
0000
0000
3004
0000
0000
0000
0103
0010
0000
1000
,  // measure 22
0001
0000
0000
0001
0010
0000
0000
0000
0100
0000
0000
1000
0001
0000
0100
0000
,  // measure 23
0000
0000
0010
0000
1000
0000
0001
0000
0100
0000
0010
0000
1000
0100
0010
0000
,  // measure 24
0001
0000
0000
1000
0010
0000
0000
0000
0100
0000
0000
0001
1000
0000
0100
0000
,  // measure 25
0000
0000
1000
0000
0100
0000
0010
0000
0001
0000
0100
0000
0010
0100
0001
0000
,  // measure 26
1000
0000
0000
0010
0100
0000
0000
0000
0010
0000
0000
1000
0001
0000
0010
0000
,  // measure 27
0000
0000
1000
0000
0010
0000
0100
0000
0010
0000
0001
0000
0100
0010
1000
0000
,  // measure 28
0001
0000
0000
0010
1000
0000
0000
0000
0010
0000
0000
0001
0000
0000
0100
0000
,  // measure 29
0000
0000
0010
0000
0001
0000
0010
0000
0100
0000
0001
0000
1000
0100
0010
0000
,  // measure 30
0001
0010
0000
0100
0000
0100
0000
0010
0001
0000
1000
0000
0010
0000
0100
0000
,  // measure 31
0001
0100
0000
0010
0000
0010
0000
0100
0001
0000
1000
0000
0100
0000
0010
0000
,  // measure 32
0001
0010
0000
0100
0000
0100
0000
1000
0010
0000
0100
0000
1000
0000
0100
0000
,  // measure 33
0001
1000
0000
0001
0000
0100
0000
0010
1000
0000
0001
0000
0010
0000
0100
0000
,  // measure 34
0000
0000
1100
0000
0000
0101
0000
0000
1001
0000
0000
0010
0000
0000
0100
0000
,  // measure 35
0000
0000
0001
0000
1000
0000
0001
0000
0100
0000
0010
0000
1000
0100
1000
0000
,  // measure 36
0001
0000
0001
0000
0010
0000
0010
0000
0100
0000
0200
0000
0000
2300
0000
0000
,  // measure 37
3001
0000
0000
0000
0110
0000
0000
0000
1001
0000
0000
0000
0001
0010
0100
1000
,  // measure 38
0001
0100
0001
0100
0000
0000
0010
1000
0010
1000
0000
0000
0001
0010
0100
1000
,  // measure 39
0000
0000
0100
0000
0000
1000
0000
0000
0010
0000
0100
0001
0000
1000
0010
0000
,  // measure 40
0100
0010
0100
0010
0000
0000
1000
0001
1000
0001
0000
0000
0010
0001
1000
0010
,  // measure 41
1000
0010
0100
0001
1000
0100
0010
0001
,  // measure 42
1000
0100
1000
0001
0000
0000
0001
0100
0001
1000
0000
0000
0010
0100
0001
1000
,  // measure 43
0000
0000
0001
0000
0000
0010
0000
0000
0100
0000
1000
0001
0000
0001
0100
0000
,  // measure 44
0010
1000
0010
1000
0000
0000
0100
0010
0001
0010
0000
0000
0001
0100
0010
1000
,  // measure 45
0001
0000
0004
0000
0000
0000
0043
0000
0000
0000
0430
0000
0000
0000
1300
0001
,  // measure 46
0020
0000
0000
0000
0000
0000
0000
0000
0000
0000
0000
0000
0130
1000
0001
1000
,  // measure 47
0001
0000
0000
0001
0010
0000
0000
0000
0100
0000
0000
1000
0001
0000
0100
0000
,  // measure 48
0000
0000
0010
0000
0100
0000
0001
0000
0100
0000
0010
0000
1000
0100
0010
0000
,  // measure 49
0001
0000
0000
1000
0100
0000
0000
0000
0010
0000
0000
0100
1000
0000
0010
0000
,  // measure 50
0000
0000
0100
0000
1000
0000
0100
0000
0001
0000
1000
0000
0010
0100
0001
0000
,  // measure 51
1000
0000
0000
0001
0010
0000
0000
0000
0100
0000
0000
0010
0001
0000
1000
0000
,  // measure 52
0000
0000
0010
0000
0100
0000
0001
0000
0100
0000
0010
0000
1000
0100
0010
0000
,  // measure 53
0001
0000
0000
1000
0100
0000
0000
0000
0001
0000
0000
0100
1000
0000
0010
0000
,  // measure 54
0000
0000
0100
0000
0001
0000
1000
0000
0001
0000
0100
0000
0010
1000
0001
0000
,  // measure 55
0010
0001
0000
0000
1000
0000
0000
0000
0001
0000
0020
0000
0000
0230
0000
0000
,  // measure 56
2300
0000
0000
3002
0000
0000
0103
0000
0010
0000
0100
0000
0100
0000
0001
0000
,  // measure 57
2000
0000
0000
3002
0000
0000
1003
0000
0000
0000
0011
0000
0000
1001
0000
0000
,  // measure 58
1100
0000
0000
1001
0000
0000
0001
0000
0010
0000
0100
0000
1000
0010
0100
0001
,  // measure 59
0200
0000
0000
0000
,  // measure 60
0010
0000
0000
0000
0010
0000
0000
0000
0310
1000
0001
0010
0100
1000
0001
0100
,  // measure 61
0010
0000
0000
0000
;

//---------------dance-double - ----------------
#NOTES:
     dance-double:
     :
     Easy:
     3:
     0.177229,0.209774,0.007519,0.142857,0.000000,165.000000,164.000000,1.000000,19.000000,0.000000,0.000000,0.177229,0.209774,0.007519,0.142857,0.000000,165.000000,164.000000,1.000000,19.000000,0.000000,0.000000:
00000000
00000000
00000000
00000000
,
00000000
00000000
00000000
00000000
,
00000000
00000000
00000000
00000000
,
00000000
00000000
00000000
00000000
,
00000001
00000000
00001000
00000000
,
00010000
00000000
10000000
00000000
,
02000000
00000000
00000000
03000000
,
00200000
00000000
00300000
00000000
,
00000020
00000000
00000000
00000030
,
00000200
00000000
00000000
00000300
,
00001001
00000000
00000100
00000000
,
00010000
00010000
00010000
00000000
,
00001000
00000000
01000000
00000000
,
00010000
00010000
00010000
00000000
,
00200000
00300000
00100000
00000000
,
02000000
03000000
01000000
00000000
,
10000000
00010000
10000000
00010000
,
02000000
03000000
01000000
00000000
,
00001000
00000000
00010000
00000000
,
00001000
00000100
00000001
00000010
,
00001000
00000000
00010000
00000000
,
01000000
10000000
00100000
00010000
,
00001000
00010000
00001000
00000000
,
00000100
00000100
00000001
00001000
,
00000100
00000100
00000010
00000000
,
00000010
00000001
00001000
00000100
,
00010000
00010000
00001000
00000000
,
00001000
00001000
01000000
00000000
,
00100000
10000000
00010000
00000000
,
00100000
00010000
10000000
01000000
,
00100000
00100000
00010000
10000000
,
00010000
01000000
00001000
00000000
,
00010000
00010000
00000100
00001000
,
00000010
00000100
00000001
00000000
,
00000010
00000100
00001000
00000001
,
00001000
00000100
00000010
00000001
,
00000200
00002300
00023000
01030000
,
00100000
00010000
10000000
00000000
,
20000000
30000000
00020000
00030000
,
01000000
01000000
00001000
00010000
,
00000200
00000300
00000020
00000030
,
00000001
00000010
00001000
00010000
,
00001000
00000100
00000001
00001000
,
00000001
00001000
00000100
00000100
,
00010000
00001000
00010000
00001000
,
02000000
03000000
00200000
00300000
,
20000000
00010000
00010000
30010000
,
00010000
10000000
01000000
00000000
,
10000000
00010000
01000000
00000000
,
00001000
00010000
00000100
00000000
,
00000010
00000001
00001000
00000000
,
00000001
00001000
00000010
00000000
,
00010000
00001000
00100000
00000000
,
00010000
01000000
00010000
00100000
,
00000000
00001000
00010000
00000000
,
00000100
00001000
00000100
00000010
,
00000000
00000001
00001000
00000000
,
00000010
00001000
00010000
00000000
,
00100000
00010000
00001000
00000000
,
00000002
00000000
00000000
00000000
,
00000000
00000000
00000000
00000003
,
00002000
00000000
00000000
00000000
,
00003000
00000000
00000000
00000000
;

//---------------dance-double - ----------------
#NOTES:
     dance-double:
     :
     Medium:
     6:
     0.308271,0.372932,0.218045,0.240602,0.000000,287.000000,258.000000,29.000000,32.000000,0.000000,0.000000,0.308271,0.372932,0.218045,0.240602,0.000000,287.000000,258.000000,29.000000,32.000000,0.000000,0.000000:
00000000
00000000
00000000
00000000
,
00000000
00000000
00000000
00000000
,
00000000
00000000
00000000
00000000
,
00000000
00000000
00000000
00000000
,
00200000
10300000
00020000
01030000
,
00002000
00013000
00000200
00001300
,
00000002
00000010
00001000
00000100
,
00002003
00000000
00000010
00000000
00000001
00000000
00003100
00010000
,
00002000
00000000
00000000
00000000
,
00000000
00000000
00000000
00003000
,
00011000
01001000
01000000
01000000
,
00100000
00000000
00100000
00000000
10000000
00010000
10000000
00000000
,
10010000
01002000
00013000
00010000
,
00000100
00000000
00000100
00000000
00001000
00000010
00001000
00000000
,
00000001
00000000
00000010
00000100
00010000
00000000
00001000
00000000
,
00001000
00000000
01000000
00100000
10000000
00000000
00010000
01000000
,
00020000
00100000
01000000
00100000
,
00032000
00000010
00000100
00003010
,
00001000
00000100
00000000
00000100
00010000
00000000
00010000
00001000
,
00000000
00001000
01000000
00000000
01000000
00000000
00100000
10000000
,
00010000
00100000
00000000
00100000
00001000
00000000
00001000
00000010
,
00000002
00002003
00003200
00000300
,
00001100
00011000
00110000
00012000
,
01003000
00100000
01000000
00001000
00010000
00000000
00001000
00000000
,
00110000
00011000
00010100
00021000
,
00030010
00000100
00000010
00010000
00001000
00000000
00010000
00000000
,
00102000
01003000
00021000
00000010
,
00030100
00000000
00010000
00000100
00001000
00000100
00010000
00000000
,
00020100
00030010
00012000
01000000
,
00103000
00000000
00001000
00100000
00010000
00100000
00001000
00000000
,
01000000
00000000
01000000
00000000
,
00001000
00010000
00001000
00010000
,
00000100
00000000
00000100
00000000
,
00000010
00000000
00000001
00000000
00001000
00000001
00000100
00000001
,
00001000
00000100
00000000
00001000
00000100
00000000
00010000
00000000
,
00001000
00000000
01000000
00000000
00100000
10000000
00010000
00000000
,
20000000
30020000
00032000
00003001
,
00000002
00002003
00023000
10030000
,
10000000
01000000
00000000
01000000
00010000
00000000
00010000
00001000
,
00000000
00000000
00000100
00000000
00000100
00000001
00001000
00000000
,
00000001
00000100
00000000
00000100
00001000
00000000
00001000
00010000
,
00000000
00000000
01000000
00000000
00100000
00010000
10000000
00000000
,
10000000
00100000
00000000
00100000
00010000
00000000
00010000
00001000
,
00000000
00000000
00000010
00000000
00000010
00000001
00001000
00000000
,
00000001
00000010
00000000
00000010
00001000
00000000
00001000
00010000
,
00000000
00200000
00000000
02300000
00000000
03020000
00000000
10030000
,
00020000
00000000
00000000
00000000
,
00130000
01100000
00010000
00011000
,
00000100
00000000
00000110
00000000
00000010
00010000
00001000
00000000
,
00100000
01100000
00001000
00011000
,
00000010
00000000
00000110
00000000
00010000
00001000
00010000
00000000
,
00000100
00000011
00000100
00001001
,
00000100
00000000
00001010
00000000
00000010
00001000
00000100
00010000
,
00011000
00010000
00110000
00100000
,
10100000
00000000
00100000
00000000
00010000
10000000
01000000
00000000
,
10000000
00000000
00010000
01000000
00000000
00001000
00010000
00001000
,
00010000
00000000
00000100
00001000
00000000
00000100
00001000
00000100
,
00000010
00000000
00000100
00000010
00000000
00000001
00000010
00000001
,
00000010
00000000
00001000
00000010
00000000
00000100
00001000
00000001
,
00000200
00000010
00000010
00000010
,
00000001
00000010
00001000
00000310
,
00002002
00000000
00000000
00000000
,
00003003
00000000
00000000
00000000
;

//---------------dance-double - ----------------
#NOTES:
     dance-double:
     :
     Hard:
     8:
     0.448980,0.442857,0.255639,0.067669,0.281955,418.000000,384.000000,34.000000,9.000000,0.000000,0.000000,0.448980,0.442857,0.255639,0.067669,0.281955,418.000000,384.000000,34.000000,9.000000,0.000000,0.000000:
00000000
00000000
00000000
00000000
,
00000000
00000000
00000000
00000000
,
00000000
00000000
00000000
00000000
,
00000000
00000000
00000000
00000000
,
00010000
00010010
00001000
00101000
,
00010000
00010100
00001000
01001000
,
00011000
00002000
00100000
00000000
00010000
00000000
01003000
00000000
,
00021000
00000000
00000010
00000000
00001000
00000000
00030100
00010000
,
00001000
00000100
00000001
00000010
,
00001000
00010000
00100000
10000000
01000000
00010000
00001000
00010000
,
00011000
00000000
00000000
00001000
01000000
00000000
00000000
01000000
00100000
00000000
00000000
00100000
00000000
00000000
10000000
00000000
,
00010000
00000000
10000000
00000000
01000000
00000000
00010000
00000000
00001000
00000000
00010000
00000000
00001000
00010000
00000000
00000000
,
00011000
00000000
00000000
00010000
00000100
00000000
00000000
00000100
00000010
00000000
00000000
00000001
00000000
00000000
00001000
00000000
,
00000001
00000000
00000010
00000000
00000100
00000000
00001000
00000000
00000001
00000000
00001000
00000000
00000010
00000100
00000000
00000100
,
00000001
00000010
00000000
00000000
00000100
00000000
00000010
00000000
00000001
00000000
00000100
00000000
00001000
00000000
00010000
00000000
,
00100000
01000000
00000000
00000000
00010000
00000000
00100000
00000000
10000000
00000000
00100000
00000000
00010000
00000000
10000000
00000000
,
01000000
00010000
00000000
00000000
00001000
00000000
00000100
00000000
00000010
00000000
00001000
00000000
00000000
00000001
00000000
00000000
,
00000010
00000100
00000000
00000000
00000010
00000000
00000001
00000000
00001000
00000000
00000100
00000000
00001000
00000000
00000001
00000000
,
00000010
00000000
00000001
00001000
00000000
00000000
00000100
00000000
00001000
00000001
00000000
00000000
00000010
00000000
00000001
00001000
,
00000000
00000000
00000010
00000000
00000000
00010000
00000000
00000000
00001000
00000000
00000000
00100000
00000000
00000000
01000000
00000000
,
00100000
00000000
00010000
10000000
00000000
00000000
00100000
00000000
10000000
00010000
00000000
00000000
01000000
00000000
00010000
10000000
,
02000000
00000000
00000000
00000000
03020000
00000000
00000000
00000000
00030200
00000000
00000000
00000000
00000310
00000001
00000000
00000001
,
00001000
00000000
00000000
00001000
00000010
00000000
00000000
00000000
00000100
00000000
00000000
00000001
00001000
00000000
00000100
00000000
,
00000000
00000000
00000010
00000000
00000100
00000000
00001000
00000000
00000100
00000000
00000010
00000000
00000001
00001000
00000000
00000000
,
00000010
00000000
00000000
00000010
00010000
00000000
00000000
00000000
00001000
00000000
00000000
00100000
00010000
00000000
01000000
00000000
,
00000000
00000000
10000000
00000000
01000000
00000000
00010000
00000000
00100000
00000000
01000000
00000000
10000000
00010000
10000000
00000000
,
00100000
00000000
00000000
10000000
01000000
00000000
00100000
00000000
00010000
00000000
01000000
00000000
10000000
00000000
01000000
00000000
,
00000000
00000000
00010000
00000000
00100000
00000000
00001000
00000000
00010000
00000000
00000010
00000000
00001000
00000100
00000000
00000000
,
00000010
00000000
00000000
00000001
00001000
00000000
00000000
00000000
00000100
00000000
00000000
00001000
00000001
00000000
00000100
00000000
,
00000000
00000000
00000010
00000000
00001000
00000000
00000100
00000000
00000001
00000000
00000100
00000000
00001000
00000010
00000000
00000000
,
00011000
00000000
00001000
01000000
10000000
01000000
00001000
00000000
,
00011000
00000000
00010000
00000100
00000001
00000100
00010000
00000000
,
00011000
00000000
00001000
00100000
01000000
00100000
00001000
00010000
,
00000010
00000100
00000010
00010000
00001000
01000000
00100000
10010000
,
00000000
00000000
10000000
00000000
00000000
01000000
00000000
00000000
00010000
00000000
00000000
00001000
00000000
00000000
00000100
00000000
,
00000000
00000001
00001000
00000000
00000001
00000100
00001000
00000000
,
00011000
00000000
00000000
00000000
10010000
00000000
00000000
00000000
00011000
00000000
00001000
00000000
00000000
00010000
00000000
00000000
,
00011000
00000000
00001001
00000000
00011000
00000000
00001000
00010000
,
00100000
00000000
01000000
00100000
00000000
00000000
10000000
00000000
00010000
10000000
00000000
00000000
00010000
00000000
00100000
01000000
,
00000000
00000000
00010000
00000000
00000000
00001000
00000000
00000000
00000100
00000000
00000001
00001000
00000000
00000001
00000100
00000000
,
00000010
00000000
00001000
00000100
00000000
00000000
00000010
00000000
00000001
00000100
00000000
00000000
00000010
00000000
00001000
00000001
,
00001000
00000011
00001100
00011000
,
00001000
00000000
00010000
00001000
00000000
00000000
00100000
00000000
01000000
00100000
00000000
00000000
00010000
00000000
10000000
00010000
,
00000000
00000000
10000000
00000000
00000000
00100000
00000000
00000000
00010000
00000000
00100000
10000000
00000000
00000000
01000000
00000000
,
00010000
00000000
00001000
00010000
00000000
00000000
00001000
00000000
00000100
00000010
00000000
00000000
00001000
00000000
00000001
00000010
,
00000000
00000011
00000000
00001100
00000000
02010000
00000000
03200000
,
20000000
00000000
00000000
30300000
,
10000000
00000000
00000000
10000000
01000000
00000000
00000000
00000000
00100000
00000000
00000000
00010000
01000000
00000000
00100000
00000000
,
00000000
00000000
00010000
00000000
00001000
00000000
00000010
00000000
00000100
00000000
00001000
00000000
00000001
00001000
00000000
00000000
,
00000001
00000000
00000000
00000100
00000010
00000000
00000000
00000000
00000100
00000000
00000000
00000001
00001000
00000000
00000100
00000000
,
00000000
00000000
00000010
00000000
00001000
00000000
00010000
00000000
01000000
00000000
00100000
00000000
00010000
10000000
00000000
00000000
,
00100000
00000000
00000000
10000000
01000000
00000000
00010000
00000000
00001000
00000000
00000000
00010000
00001000
00000000
00000100
00000000
,
00000000
00000000
00000001
00000000
00000010
00000000
00000100
00000000
00000010
00000000
00000001
00000000
00000100
00001000
00000000
00000000
,
00010000
00000000
00000000
00001000
00010000
00000000
00100000
00000000
01000000
00000000
00000000
00010000
10000000
00000000
01000000
00000000
,
00000000
00000000
00100000
00000000
01000000
00000000
10000000
00000000
01000000
00000000
00010000
00000000
00001000
00010000
00000000
00000000
,
00001000
00000000
00000000
00010000
00001000
00000000
00000100
00000000
00000000
00000000
00000110
00000000
00000000
00001001
00000000
00000000
,
00000011
00000000
00000000
00001100
00000000
00000000
00001001
00000000
00000000
00000000
00000001
00000000
00000010
00000000
00001000
00000000
,
00010000
00000000
00000000
00100000
00000000
00000000
01000000
00000000
00000000
00000000
01100000
00000000
00000000
10010000
00000000
00000000
,
11000000
00000000
00000000
00110000
00000000
00000000
10010000
00000000
00000000
00000000
00010000
00000000
10000000
00000000
01000000
00000000
,
00010000
00001000
00000100
00001000
00010000
01000000
00010000
00001000
,
00000010
00000000
00001000
00000000
00010000
00000000
00100000
00000000
00010000
00000000
00001000
00000000
00010000
00001000
00010000
00001000
,
00020000
00000000
00000000
00000000
,
00030000
00000000
00000000
00000000
;

//---------------dance-double - ----------------
#NOTES:
     dance-double:
     :
     Challenge:
     9:
     0.454350,0.512782,0.052632,0.210526,0.424812,423.000000,416.000000,7.000000,28.000000,0.000000,0.000000,0.454350,0.512782,0.052632,0.210526,0.424812,423.000000,416.000000,7.000000,28.000000,0.000000,0.000000:
00000000
00000000
00000000
00000000
,
00000000
00000000
00000000
00000000
,
00000000
00000000
00000000
00000000
,
00000000
00000000
00000000
00000000
00000000
00000000
00000000
00001000
,
00200000
00302000
00000010
00023000
,
00100000
00032000
00000100
00023000
,
01000000
00001000
00100000
00001000
,
00030200
00000000
00000001
00000000
00001000
00000000
00001300
00000001
,
00000200
00000000
00000000
00000000
,
00000000
00000000
00000300
00000000
,
00000011
00000000
00000000
00000000
00001001
00000000
00000000
00000000
00001100
00000000
00000000
00000100
00001000
00000000
00000001
00000000
,
00001000
00000000
00000100
00000000
00010000
00000000
00001000
00000000
01000000
00000000
00010000
00000000
10000000
01000000
00010000
00000000
,
01000000
00000000
00000000
00000000
10010000
00000000
00000000
00000000
10000000
00000000
00000000
00100000
01000000
00000000
00100000
00000000
,
10000000
00000000
00100000
00000000
00010000
00000000
00001000
00000000
00000010
00000000
00000001
00000000
00001000
00000010
00000001
00000000
,
00000010
00000100
00000000
00000001
00000000
00000001
00000000
00000100
00000010
00000000
00001000
00000000
00000001
00000000
00000010
00000000
,
00001000
00010000
00000000
00000010
00000000
00010000
00000000
00001000
00100000
00000000
00001000
00000000
00010000
00000000
00100000
00000000
,
10000000
00010000
00000000
00100000
00000000
00010000
00000000
10000000
00010000
00000000
00100000
00000000
00000000
00001000
00000000
00000000
,
00010000
00001000
00000000
00000010
00000000
00000001
00000000
00000100
00001000
00000000
00000100
00000000
00000001
00000000
00000010
00000000
,
00000100
00001000
00000100
00010000
00000000
00000000
00001000
01000000
00001000
00100000
00000000
00000000
00010000
00100000
00010000
10000000
,
00000000
00000000
00100000
00000000
00000000
00010000
00000000
00000000
00001000
00000000
00000000
00000010
00000000
00000000
00000001
00000000
,
00000100
00000010
00000100
00000001
00000000
00000000
00010000
00000100
00010000
00001000
00000000
00000000
00100000
00010000
10000000
00010000
,
20000000
00000000
30020000
00000000
00032000
00000000
00003010
00001000
,
00000001
00000000
00000000
00000001
00000010
00000000
00000000
00000000
00000100
00000000
00000000
00000100
00000010
00000000
00000001
00000000
,
00000100
00000000
00001000
00000000
00010000
00000000
01000000
00000000
10000000
00000000
00100000
00000000
00010000
00001000
00010000
00000000
,
00001000
00000000
00000000
00010000
00100000
00000000
00000000
00000000
10000000
00000000
00000000
01000000
00010000
00000000
00001000
00000000
,
00000100
00000000
00000001
00000000
00000010
00000000
00001000
00000000
00010000
00000000
00000100
00000000
00010000
00001000
00010000
00000000
,
00001000
00000000
00000000
00001000
00000010
00000000
00000000
00000000
00000001
00000000
00000000
00000100
00000000
00000000
00010000
00000000
,
01000000
00000000
00100000
00000000
01000000
00000000
00010000
00000000
10000000
00000000
01000000
00000000
00100000
00010000
00000000
00000000
,
10000000
00000000
00000000
01000000
00100000
00000000
00000000
00000000
10000000
00000000
00000000
00100000
00000000
00000000
00010000
00000000
,
00000000
00000000
00001000
00000000
00000010
00000000
00001000
00000000
00010000
00000000
01000000
00000000
00100000
00000000
00010000
00001000
,
00010000
00000000
00000000
00000000
00001000
00000000
00010000
00000000
00100000
00000000
10000000
00000000
01000000
00000000
00010000
00001000
,
00010000
00000000
00001000
00000000
00000100
00000000
00000001
00000000
00000010
00000000
00001000
00000000
00010000
00000000
00001000
00010000
,
00001000
00000000
00000100
00000000
00000001
00000000
00001000
00000001
00001000
00000000
00000001
00000000
00000010
00000000
00000000
00000000
,
00000100
00001000
00000001
00001000
00000100
00001000
00000001
00001000
00000100
00000000
00000010
00000000
00000001
00000000
00000100
00000000
,
00000000
00000000
00002000
00000000
00000000
00023000
00000000
00000000
00230000
00000000
00000000
00320000
00000000
00000000
00032000
00000000
,
00000000
00003010
00000100
00001000
00000001
00001000
00000010
00000100
,
00000002
00000000
00000000
00000000
00002003
00000000
00000000
00000000
00023000
00000000
20030000
00000000
00000000
30020000
00000000
00000000
,
00032000
00000000
00003002
00000000
00002003
00000000
00003010
00001000
,
00000100
00010000
00000100
00010000
00000000
00000000
00001000
01000000
00001000
01000000
00000000
00000000
00100000
01000000
00100000
01000000
,
00000000
00000000
00010000
00000000
00000000
10000000
00000000
00000000
01000000
00000000
00000000
00010000
00000000
00000000
00001000
00000000
,
00010000
00001000
00010000
00001000
00000000
00000000
00000100
00000010
00000100
00000010
00000000
00000000
00001000
00000001
00001000
00000001
,
00000000
00000000
00000000
00000000
00000011
00000000
00000000
00000000
00001001
00000000
00000000
00001100
00000000
00000000
00001000
00000000
,
00000001
00001000
00000001
00001000
00000000
00000000
00000100
00010000
00000100
00010000
00000000
00000000
00001000
01000000
00001000
01000000
,
00000000
00000000
00100000
00000000
00000000
10000000
00000000
00000000
00010000
00000000
10000000
01000000
00000000
00000000
00100000
00000000
,
00010000
01000000
00010000
01000000
00000000
00000000
00100000
10000000
00100000
10000000
00000000
00000000
00010000
00100000
00010000
00100000
,
00000000
00000000
02000000
00000000
00000000
00000000
23000000
00000000
00000000
00000000
30020000
00000000
00100000
00000000
00130000
00010000
,
10000000
00000000
00000000
00000000
10000000
00000000
00000000
00000000
10000000
00000000
00000000
00000000
10000000
00010000
10000000
00010000
,
10000000
00000000
00000000
10000000
01000000
00000000
00000000
00000000
00100000
00000000
00000000
00100000
01000000
00000000
10000000
00000000
,
00100000
00000000
00010000
00000000
00001000
00000000
00000010
00000000
00000001
00000000
00000100
00000000
00001000
00010000
00001000
00000000
,
00010000
00000000
00000000
00001000
00000100
00000000
00000000
00000000
00000001
00000000
00000000
00000010
00001000
00000000
00010000
00000000
,
00100000
00000000
10000000
00000000
01000000
00000000
00010000
00000000
00001000
00000000
00100000
00000000
00001000
00010000
00001000
00000000
,
00010000
00000000
00000000
00010000
01000000
00000000
00000000
00000000
10000000
00000000
00000000
00100000
00000000
00000000
00001000
00000000
,
00000010
00000000
00000100
00000000
00000010
00000000
00001000
00000000
00000001
00000000
00000010
00000000
00000100
00001000
00000000
00000000
,
00000001
00000000
00000000
00000010
00000100
00000000
00000000
00000000
00000001
00000000
00000000
00000100
00000000
00000000
00001000
00000000
,
00000000
00000000
00010000
00000000
01000000
00000000
00010000
00000000
00001000
00000000
00000010
00000000
00000100
00000000
00001000
00010000
,
00001000
00000000
00000000
00010000
00000000
00000000
00100000
00000000
00000000
00000000
01000000
00000000
00000000
00010000
00000000
00000000
,
10000000
00000000
00000000
00010000
00000000
00000000
01000000
00000000
00100000
00000000
00010000
00000000
00001000
00000000
00000010
00000000
,
00000100
00000000
00000000
00001000
00000000
00000000
00000001
00000000
00000000
00000000
00001000
00000000
00000000
00000001
00000000
00000000
,
00000010
00000000
00000000
00000100
00000000
00000000
00010000
00000000
00001000
00000000
00000100
00000000
00000001
00000000
00001000
00000001
,
00002000
00000001
00000001
00000001
,
00003001
00000000
00001000
00000000
00000001
00000000
00000100
00000001
00001000
00000001
00001000
00000100
00001000
00000100
00001000
00000001
,
00002000
00000000
00000000
00000000
,
00003000
00000000
00000000
00000000
;
