#VERSION:0.83;
#TITLE:More and More;
#SUBTITLE:;
#ARTIST:Captain Hollywood Project;
#TITLETRANSLIT:;
#SUBTITLETRANSLIT:;
#ARTISTTRANSLIT:;
#GENRE:;
#ORIGIN:;
#CREDIT:;
#BANNER:More and More-Banner.png;
#BACKGROUND:More and More-Background.png;
#PREVIEWVID:;
#JACKET:;
#CDIMAGE:;
#DISCIMAGE:;
#LYRICSPATH:;
#CDTITLE:;
#MUSIC:Captain Hollywood Project - More and More.ogg;
#OFFSET:-0.000000;
#SAMPLESTART:46.194382;
#SAMPLELENGTH:12.000000;
#SELECTABLE:YES;
#BPMS:0.000=130.000;
#STOPS:;
#DELAYS:;
#WARPS:;
#TIMESIGNATURES:0.000=4=4;
#TICKCOUNTS:0.000=4;
#COMBOS:0.000=1;
#SPEEDS:0.000=1.000=0.000=0;
#SCROLLS:0.000=1.000;
#FAKES:;
#LABELS:0.000=Song Start;
#BGCHANGES:;
#KEYSOUNDS:;
#ATTACKS:
;

//---------------dance-single - K. Pearman----------------
#NOTEDATA:;
#CHARTNAME:K. Pearman;
#STEPSTYPE:dance-single;
#DESCRIPTION:K. Pearman;
#CHARTSTYLE:;
#DIFFICULTY:Beginner;
#METER:1;
#RADARVALUES:0.100766,0.132256,0.008202,0.073817,0.000000,86.000000,85.000000,1.000000,9.000000,0.000000,0.000000,0.000000,0.000000,0.000000,0.100766,0.132256,0.008202,0.073817,0.000000,86.000000,85.000000,1.000000,9.000000,0.000000,0.000000,0.000000,0.000000,0.000000;
#CREDIT:K. Pearman;
#NOTES:
0000
0000
0000
0000
,
0000
0000
0000
0000
,
0000
0000
0000
0000
,
0000
0000
0000
0000
,
1000
0000
0000
0000
,
0001
0000
0000
0000
,
0100
0100
0000
0000
,
0000
0000
0000
0000
,
0001
0000
1000
0000
,
0100
0000
0100
0000
,
0100
0000
0000
0000
,
0000
0000
0000
0000
,
1001
0000
0000
0000
,
0010
0000
0000
0000
,
1000
0000
0000
0000
,
0001
0000
0000
0000
,
0200
0300
0000
0000
,
0200
0300
0000
0000
,
0020
0030
0000
0000
,
0020
0030
0000
0000
,
2000
3000
0000
0000
,
2000
3000
0000
0000
,
0002
0003
0000
0000
,
0002
0003
0000
0000
,
1000
0000
0001
0000
,
1000
0000
0000
0000
,
0010
0000
0100
0000
,
0010
0000
0000
0000
,
0001
0000
1000
0000
,
0001
0000
0000
0000
,
0100
0000
0010
0000
,
0100
0000
0000
0000
,
0001
0000
0100
0000
,
0001
0000
0000
0000
,
1000
1000
0000
0000
,
1000
1000
0000
0000
,
0001
0000
0010
0000
,
0001
0000
0000
0000
,
1000
1000
0000
0000
,
1000
1000
0000
0000
,
1000
0000
0010
0000
,
0100
0000
0100
0000
,
0001
0000
0000
0000
,
1000
0000
0000
0000
,
0001
0000
0010
0000
,
0100
0000
0000
0000
,
1000
1000
0000
0000
,
0001
0001
0000
0000
,
0100
0000
0100
0000
,
0100
0000
0000
0000
,
0010
0010
0000
0000
,
1000
0000
0001
0000
,
0100
0000
0100
0000
,
0100
0000
0000
0000
,
0010
0010
0000
0000
,
1000
0000
0001
0000
,
0100
0000
0000
0000
,
0010
0000
0000
0000
,
1000
0000
0000
0000
,
0001
0000
0000
0000
,
1000
0000
0100
0000
,
0010
0000
0000
0000
,
0001
0000
0100
0000
,
0010
0000
0000
0000
,
0200
0000
0300
0000
;

//---------------dance-single - K. Pearman----------------
#NOTEDATA:;
#CHARTNAME:K. Pearman;
#STEPSTYPE:dance-single;
#DESCRIPTION:K. Pearman;
#CHARTSTYLE:;
#DIFFICULTY:Easy;
#METER:2;
#RADARVALUES:0.152321,0.209969,0.008202,0.114827,0.000000,130.000000,129.000000,1.000000,14.000000,0.000000,0.000000,0.000000,0.000000,0.000000,0.152321,0.209969,0.008202,0.114827,0.000000,130.000000,129.000000,1.000000,14.000000,0.000000,0.000000,0.000000,0.000000,0.000000;
#CREDIT:K. Pearman;
#NOTES:
0000
0000
0000
0000
,
0000
0000
0000
0000
,
0000
0000
0000
0000
,
0000
0000
0000
0000
,
2000
0000
3002
0000
,
0203
0000
0300
0000
,
0010
0010
0000
0000
,
0000
0000
0000
0000
,
0010
1000
0001
0000
,
0100
0000
0001
0000
,
1000
0100
0000
0000
,
0000
0000
0000
0000
,
0020
0001
0031
0000
,
0200
0001
0301
0000
,
2000
0001
3001
0000
,
1000
0000
0001
0000
,
1001
0000
0010
0100
,
0010
0000
2000
0100
,
3100
0000
0010
0100
,
0010
0000
0002
0100
,
0103
0000
0010
0000
,
1000
0001
1000
0000
,
0100
0000
0010
0000
,
0001
1000
0001
0000
,
0100
0000
0010
0000
,
1000
0000
0100
0000
,
0001
0100
1000
0000
,
0001
0000
1000
0000
,
0001
0010
1000
0000
,
0010
0000
0001
0000
,
1000
0000
0001
0000
,
0100
0010
1000
0000
,
0001
0100
0001
0000
,
1000
0000
0001
0000
,
1000
0020
0030
0000
,
0100
0000
0010
0000
,
1000
0100
1000
0000
,
0001
0000
1000
0000
,
0001
0020
0030
0000
,
0001
0000
0100
0000
,
0010
0100
0001
0000
,
1000
0100
0010
0000
,
0001
1000
0000
0000
,
0010
0000
0000
0000
,
1000
0010
0100
0000
,
0001
0010
0100
0000
,
2000
3001
0000
0000
,
0100
0000
0000
0000
,
0010
0000
0010
0000
,
1000
0000
0001
0000
,
0200
0310
0000
0000
,
0010
0000
0000
0000
,
0100
0000
0001
0000
,
1000
0000
0010
0000
,
0200
0301
0000
0000
,
1000
0000
0100
0000
,
0010
0000
0100
0000
,
1000
0001
1000
0000
,
0001
0000
0000
0000
,
0100
0000
0000
0000
,
0010
0000
0100
0000
,
0001
0000
0000
0000
,
0010
0000
0100
0000
,
2000
0000
0000
0000
,
3001
0000
0000
0000
;

//---------------dance-single - K. Pearman----------------
#NOTEDATA:;
#CHARTNAME:K. Pearman;
#STEPSTYPE:dance-single;
#DESCRIPTION:K. Pearman;
#CHARTSTYLE:;
#DIFFICULTY:Medium;
#METER:4;
#RADARVALUES:0.239027,0.314953,0.057413,0.098423,0.000000,204.000000,197.000000,7.000000,12.000000,0.000000,0.000000,0.000000,0.000000,0.000000,0.239027,0.314953,0.057413,0.098423,0.000000,204.000000,197.000000,7.000000,12.000000,0.000000,0.000000,0.000000,0.000000,0.000000;
#CREDIT:K. Pearman;
#NOTES:
0000
0000
0000
0000
,
0000
0000
0000
0000
,
0000
0000
0000
0000
,
0000
0000
0000
0000
,
0002
0000
0000
2003
0000
0000
0000
3001
,
0000
0000
1000
0010
,
0100
0001
0000
0000
,
0000
0000
0000
0000
,
1000
0001
0010
0100
,
1000
1000
0001
0001
,
0100
0100
0100
0000
0000
0000
0000
0000
,
0010
0000
0100
0000
,
0001
0010
0001
0100
,
0001
1000
0100
1100
,
1000
0010
1000
0100
,
1000
0001
0100
0101
,
0010
0010
0100
0100
,
0000
0001
1000
0100
,
0000
1000
0001
0010
,
0000
0001
0100
0010
,
1000
1000
1000
0000
0010
0000
0100
0000
,
0001
0001
0001
0000
1000
0000
0100
0000
,
0010
0010
0100
0100
,
1000
0001
1000
0001
,
1001
0001
0100
0010
,
1000
1000
1000
0000
0001
0001
0001
0000
,
1000
0100
0010
0100
,
1000
0001
0100
0010
,
0100
0100
0100
0000
0010
0010
0010
0000
,
1000
0001
0100
0001
,
1000
0001
0010
0100
,
1000
0000
0001
0000
,
2000
0000
0000
3002
0000
0000
0000
0203
,
0000
0310
0100
0001
,
1000
0001
1000
0000
0000
0000
0001
0000
,
0000
0010
0000
0100
,
2000
0000
0000
3020
0000
0000
0000
0230
,
0000
0000
0310
1000
,
0001
1000
0001
0000
1000
0000
0100
0000
,
0001
0100
0010
0001
,
1000
1010
0001
0011
,
1000
0100
0010
0001
,
0100
0100
0100
0000
0000
0000
0100
0000
,
0000
0100
0000
0100
,
0001
0101
1000
1100
,
0001
0100
0010
1000
,
0010
0010
0010
0000
0000
0000
0010
0000
,
0000
0010
0000
0010
,
1000
0100
1000
0001
,
0020
0030
0100
0100
,
0010
0010
0000
0000
,
0000
0000
0000
0000
,
0001
0100
0010
1000
,
0002
0003
0100
0100
,
0010
0010
0000
0000
,
1000
0000
0001
1000
,
0200
0300
0010
0000
,
0100
1000
0100
0001
,
0100
0100
0100
0000
0000
0000
0000
0000
,
0010
0000
0000
0000
,
0010
0001
1000
0010
,
0100
0000
0000
0000
,
0010
1000
0001
0010
,
0200
0000
0000
0000
,
0310
0000
0000
0000
;

//---------------dance-single - K. Pearman----------------
#NOTEDATA:;
#CHARTNAME:K. Pearman;
#STEPSTYPE:dance-single;
#DESCRIPTION:K. Pearman;
#CHARTSTYLE:;
#DIFFICULTY:Hard;
#METER:7;
#RADARVALUES:0.340965,0.393691,0.098423,0.049211,0.000000,291.000000,279.000000,12.000000,6.000000,0.000000,0.000000,0.000000,0.000000,0.000000,0.340965,0.393691,0.098423,0.049211,0.000000,291.000000,279.000000,12.000000,6.000000,0.000000,0.000000,0.000000,0.000000,0.000000;
#CREDIT:K. Pearman;
#NOTES:
0000
0000
0000
0000
,
0000
0000
0000
0000
,
0000
0000
0000
0000
,
0000
0000
0000
0000
,
0001
0000
0010
0001
0000
0000
1000
0001
,
0000
0000
0100
0010
,
1000
0001
1000
0000
0000
0000
0000
0000
,
0000
0000
0000
0000
,
0100
1000
0000
0000
0010
0000
0100
0010
,
1000
0001
0010
0100
,
1000
0001
0100
0000
0000
0000
0000
0000
,
0010
0000
0100
0000
,
0001
0010
0100
0100
,
1000
0010
0100
0100
,
0001
0000
1000
0000
0010
0100
0001
0000
,
1000
0000
0001
0000
0010
0100
1000
0000
,
1100
0000
0000
0000
1000
0100
0010
0000
,
0011
0000
0001
0100
0010
1000
0001
0000
,
0101
0100
1100
0100
,
1000
0001
0100
0000
0001
1000
0100
0000
,
1000
1000
0010
0000
0100
0100
0001
1000
,
0100
0100
0010
0000
0001
0001
0010
0000
,
0100
0100
1000
0000
0001
0001
0100
0010
,
1000
1000
0001
0000
1000
0100
0010
0000
,
0001
0100
0001
0100
0010
0100
0001
0000
,
1000
0100
1000
0100
0010
0100
1000
0000
,
0001
0010
0100
0000
1000
0000
0001
0000
,
1000
0010
0100
0000
0010
0000
0100
0000
,
0101
0000
0010
0000
1000
0100
0010
0001
,
1000
0000
0001
0000
0100
0010
0100
0000
,
0101
0000
1000
0000
0100
1000
0001
0000
,
1000
0100
0010
0100
1000
0100
0001
0100
,
1000
0000
1000
0010
0100
0000
0100
0001
,
1000
0000
1000
0000
0001
0000
0100
0001
,
0010
0001
0100
0000
0010
0000
1001
0000
,
0010
1001
0100
1001
,
0001
0000
0010
0100
1000
0000
1000
0010
,
0100
0000
0010
0000
1000
0010
1000
0100
,
1000
0010
1000
0000
0010
0000
1001
0000
,
0100
1001
0100
0011
,
0001
0001
0100
0000
1000
1000
0100
0000
,
0001
0010
0100
0000
0010
0100
1000
0100
,
0001
0100
0010
0000
0001
0000
1000
0000
,
0010
0100
0001
0000
1000
0000
0001
0000
,
0100
0010
1000
0000
0001
0000
0010
0001
,
1000
0000
0100
0000
1000
0100
0010
0100
,
0001
0100
1000
0000
0001
0100
0010
0000
,
0100
1000
0100
0000
0001
1000
0001
0000
,
2000
0000
3010
0200
0000
0000
0310
1000
,
0000
0000
0001
0000
1000
0100
0001
0100
,
1000
0010
1000
0000
0001
0000
1000
0000
,
0010
0100
0001
1000
,
0002
0000
0013
0002
0000
0000
0103
0002
,
0000
0000
1003
0000
0001
0100
1000
0100
,
0001
0010
0001
0000
0000
0000
1000
0000
,
0000
0010
0000
0100
,
0001
0000
1000
0000
,
0010
0100
0001
1000
,
0001
1000
0001
0000
0000
0000
0000
0000
,
0000
0000
0000
0000
,
0010
0000
0100
0010
0000
0000
0001
1000
,
0000
0000
0000
0000
,
0010
0000
0100
0010
0000
0000
1000
0002
,
0000
0000
0000
0000
,
1003
0000
0000
0000
;

//---------------dance-single - K. Pearman----------------
#NOTEDATA:;
#CHARTNAME:K. Pearman;
#STEPSTYPE:dance-single;
#DESCRIPTION:K. Pearman;
#CHARTSTYLE:;
#DIFFICULTY:Challenge;
#METER:9;
#RADARVALUES:0.530780,0.603660,0.123028,0.221451,0.500316,453.000000,438.000000,15.000000,27.000000,18.000000,0.000000,0.000000,0.000000,0.000000,0.530780,0.603660,0.123028,0.221451,0.500316,453.000000,438.000000,15.000000,27.000000,18.000000,0.000000,0.000000,0.000000,0.000000;
#CREDIT:K. Pearman;
#NOTES:
0000
0000
0000
0000
,
0000
0000
0000
0000
,
0000
0000
0000
0000
,
0000
0000
0000
0000
,
2000
0000
3010
0200
0000
0300
0010
2000
,
0000
3000
0000
0001
0010
0001
0100
1000
,
0100
0001
0020
0000
0130
0000
2000
0000
,
3001
0020
0130
2000
,
3001
0010
0001
0000
0100
0000
0100
0000
0010
0000
0000
0000
0100
0000
0001
0000
,
2000
0000
3100
0010
0001
0000
1000
0010
,
0100
0100
1000
0100
0001
1000
0100
0000
,
1000
0100
0010
0001
1000
1000
0010
0000
,
0100
0001
0100
0000
0010
0000
1000
0001
0000
0001
0000
1000
0000
0100
0010
0000
,
0100
1000
0100
0000
0010
0000
0001
0100
0000
0100
0000
0010
0000
0100
0001
0000
,
0100
0010
1000
0000
0010
0000
1000
0001
0000
1000
0000
0100
0000
1000
0100
0000
,
0010
0001
1000
0000
0001
0000
0100
0001
0000
1000
0000
0001
0000
0100
0010
1000
,
0001
0000
0000
0000
0011
0000
0000
0000
0010
0001
0000
1000
0100
0000
0000
0000
,
0100
0000
1000
0000
0001
0000
1000
0010
0000
0100
0000
0000
0010
0000
0010
1000
,
0000
1000
0000
1000
0100
0000
0100
0001
0000
0001
0000
0001
0100
0000
0010
0000
,
0001
0000
0100
0000
0010
0000
1000
0010
0000
0010
0000
0000
0100
0000
0000
0001
,
1000
0000
0100
0000
1100
0000
0000
0001
0000
0010
0000
0100
0000
1000
0001
0000
,
0001
0000
0010
0000
0011
0000
0000
1000
0000
0010
0000
0100
0000
0001
1000
0000
,
1000
0000
0010
0000
1010
0000
0000
0001
0000
0100
0000
0010
0000
1000
0001
0000
,
0100
0000
0100
0000
0102
0000
0000
1003
0000
0100
0000
1000
0001
1000
0100
0010
,
0001
0000
0100
0000
0101
0000
0000
0001
0000
1000
0000
0100
0000
0010
0100
0000
,
1000
0010
1000
0100
1000
0000
0001
0000
0001
0000
0010
0000
0001
0000
0100
0000
,
0010
0000
0100
0000
1001
0000
0000
0001
0000
0010
0000
0001
1000
0000
0100
0000
,
0000
0000
1000
0000
0010
0000
0100
0000
0010
1000
0001
0000
0200
0000
0000
0000
,
0301
0000
1000
0000
1100
0000
0000
0000
1000
0100
0000
0010
0001
0000
1000
0000
,
0010
0000
0100
0000
0001
0000
1000
0000
0001
0100
0000
0010
1000
0000
1000
0000
,
0001
0000
0010
0000
0011
0000
0000
0010
0000
0001
0000
1000
0100
0000
0010
0000
,
0100
1000
0000
0100
0000
0001
0000
0100
0000
2000
0000
0000
3010
0100
0001
1000
,
0010
0100
0010
0000
1000
0000
0100
0010
0100
0000
1000
0000
0010
0100
0010
0000
,
1000
0001
0011
0000
0001
1000
1100
0100
,
0010
0001
0100
0000
0100
0010
1000
0000
,
1000
0000
0001
0000
0010
0000
0001
1000
0000
0100
0000
0100
0000
1000
0001
0000
,
0010
0001
0010
0000
0100
0000
1000
0010
1000
0000
0100
0000
0010
0001
0010
0000
,
0100
1000
1001
0001
0100
0010
1010
1000
,
0100
0000
0001
0000
0100
0000
0000
1000
0000
0010
0000
1000
0001
0000
0100
0000
,
0010
0000
0100
0000
0001
0000
0000
1000
0000
0001
0000
0010
0001
1000
0100
0001
,
0100
1000
0100
0000
0010
0000
0001
0000
1000
0001
1000
0000
0010
0000
0100
0000
,
0101
0000
0000
0001
0010
0000
0000
0010
0100
0000
0100
0000
1000
0000
0001
0000
,
1000
0001
1000
0010
1000
0000
0000
0001
0000
0100
0000
0010
0000
0100
0001
0000
,
1000
0000
0100
0000
0010
0000
0100
1000
0000
0010
0000
1000
0000
0100
0010
0000
,
0010
0001
0010
0000
0100
0000
1000
0000
0001
1000
0001
0000
0100
0000
0010
0000
,
1010
0000
0000
1000
0100
0000
0000
0100
0010
0000
0010
0000
0001
0000
1000
0000
,
0001
1000
0001
0100
0001
0000
0000
1000
0000
0010
0000
0100
0000
0010
1000
0000
,
0001
0000
0010
0000
0100
0000
0010
0001
0000
0100
0000
0001
0000
0010
0000
0000
,
0100
0000
1000
0002
0000
0003
1000
0020
,
0000
0030
0000
0100
0010
1000
1000
0010
,
0100
0001
2000
0000
3001
0010
0100
0000
,
0010
0100
1000
0000
0001
0100
0010
1000
,
0002
0000
0103
0020
0000
0030
0100
2000
,
0000
3000
0100
0001
1000
1000
0001
0010
,
0100
1000
0001
0000
1000
0010
0100
0000
,
0010
0100
0001
0000
1000
0100
0010
0001
,
0200
0001
0320
0000
1030
0000
0001
0010
,
0200
0000
0310
0000
0001
0001
1000
0010
,
0100
0001
2000
0000
30M0
0000
000M
00M0
,
0M00
0000
M0M0
000M
0000
0M00
0000
0000
,
2000
0000
3001
0200
0000
0000
0310
2000
,
0000
000M
30M0
0M00
000M
M000
0M00
00M0
,
0002
0000
1003
0200
0000
0000
0310
0002
,
0000
M000
0000
0M00
0000
00M0
0000
0000
,
1003
0000
0000
0000
;

//---------------dance-double - ----------------
#NOTEDATA:;
#CHARTNAME:;
#STEPSTYPE:dance-double;
#DESCRIPTION:;
#CHARTSTYLE:;
#DIFFICULTY:Easy;
#METER:2;
#RADARVALUES:0.152321,0.209969,0.008202,0.008202,0.000000,130.000000,129.000000,1.000000,1.000000,0.000000,0.000000,0.000000,0.000000,0.000000,0.152321,0.209969,0.008202,0.008202,0.000000,130.000000,129.000000,1.000000,1.000000,0.000000,0.000000,0.000000,0.000000,0.000000;
#CREDIT:K. Pearman;
#NOTES:
// measure 0
00000000
00000000
00000000
00000000
,  // measure 1
00000000
00000000
00000000
00000000
,  // measure 2
00000000
00000000
00000000
00000000
,  // measure 3
00000000
00000000
00000000
00000000
,  // measure 4
10000000
00000000
01000000
00000000
,  // measure 5
00010000
00000000
00000000
00000000
,  // measure 6
00001000
00010000
00000000
00000000
,  // measure 7
00000000
00000000
00000000
00000000
,  // measure 8
00001000
00000100
00000001
00000000
,  // measure 9
00000010
00000010
00000010
00000000
,  // measure 10
00000001
00001000
00000000
00000000
,  // measure 11
00000100
00000000
00000000
00000000
,  // measure 12
00010000
00000000
00001000
00000000
,  // measure 13
01000000
00000000
00010000
00000000
,  // measure 14
10000000
00000000
01000000
00000000
,  // measure 15
00100000
00000000
00010000
00000000
,  // measure 16
10010000
00000000
10000000
00100000
,  // measure 17
00000000
00010000
00001000
00000100
,  // measure 18
00000000
00000001
00000010
00001000
,  // measure 19
00000000
00010000
01000000
10000000
,  // measure 20
00010000
01000000
00000000
00001000
,  // measure 21
00010000
00000100
00000000
00000010
,  // measure 22
00000001
00001000
00000000
00000010
,  // measure 23
00000100
00000001
00000000
00001000
,  // measure 24
00000001
00000010
00000100
00000000
,  // measure 25
00001000
00000100
00010000
00000000
,  // measure 26
00001000
01000000
00010000
00000000
,  // measure 27
00100000
01000000
10000000
00000000
,  // measure 28
00010000
10000000
00000000
00100000
,  // measure 29
01000000
00010000
00000000
00100000
,  // measure 30
00001000
00010000
00000000
00000010
,  // measure 31
00001000
00000100
00000000
00000010
,  // measure 32
00000001
00000000
00001000
00000000
,  // measure 33
00000010
00000000
00000100
00000010
,  // measure 34
00001000
00000001
00000000
00000000
,  // measure 35
00000010
00000000
00001000
00000000
,  // measure 36
00010000
00000000
00100000
00000000
,  // measure 37
01000000
00000000
00010000
10000000
,  // measure 38
01000000
00100000
00000000
00000000
,  // measure 39
00010000
00000000
01000000
00000000
,  // measure 40
00001000
00000000
00010000
00000000
,  // measure 41
00000100
00000100
00000010
00000010
,  // measure 42
00000001
00001000
00000000
00000000
,  // measure 43
00000010
00000000
00000100
00000000
,  // measure 44
00001000
00000000
00010000
00000000
,  // measure 45
01000000
01000000
00100000
00100000
,  // measure 46
00010000
10000000
00000000
00000000
,  // measure 47
00100000
00000000
01000000
00000000
,  // measure 48
00010000
00000000
00000000
00000000
,  // measure 49
00100000
00000000
00000000
00000000
,  // measure 50
00001000
00000000
00000000
00000000
,  // measure 51
00000010
00000000
00000000
00000000
,  // measure 52
00010000
00000000
00000000
00000000
,  // measure 53
01000000
00000000
00000000
00000000
,  // measure 54
00001000
00000000
00000000
00000000
,  // measure 55
00000100
00000000
00000000
00000000
,  // measure 56
00010000
00100000
00000000
00000000
,  // measure 57
00001000
00000010
00000000
00000000
,  // measure 58
00010000
01000000
00000000
00000000
,  // measure 59
00001000
00000100
00000000
00000000
,  // measure 60
00010000
00000000
00000000
00000000
,  // measure 61
00001000
00000000
00000000
00000000
,  // measure 62
00010000
00000000
00000000
00000000
,  // measure 63
00002000
00000000
00000000
00000000
,  // measure 64
00013000
00000000
00000000
00000000
;

//---------------dance-double - ----------------
#NOTEDATA:;
#CHARTNAME:;
#STEPSTYPE:dance-double;
#DESCRIPTION:;
#CHARTSTYLE:;
#DIFFICULTY:Medium;
#METER:4;
#RADARVALUES:0.227310,0.287579,0.065615,0.008202,0.000000,194.000000,186.000000,8.000000,1.000000,0.000000,0.000000,0.000000,0.000000,0.000000,0.227310,0.287579,0.065615,0.008202,0.000000,194.000000,186.000000,8.000000,1.000000,0.000000,0.000000,0.000000,0.000000,0.000000;
#CREDIT:K. Pearman;
#NOTES:
// measure 0
00000000
00000000
00000000
00000000
,  // measure 1
00000000
00000000
00000000
00000000
,  // measure 2
00000000
00000000
00000000
00000000
,  // measure 3
00000000
00000000
00000000
00000000
,  // measure 4
10000000
00010000
01000000
00010000
,  // measure 5
00100000
00000000
00001000
00010000
,  // measure 6
00000100
00001000
00000000
00000000
,  // measure 7
00000001
00000000
00000010
00000000
,  // measure 8
00000001
00000100
00000001
00000100
,  // measure 9
00001000
00010000
00001000
00010000
,  // measure 10
01000000
10000000
00000000
00000000
,  // measure 11
00100000
00000000
01000000
00000000
,  // measure 12
00010000
00010000
00100000
00100000
,  // measure 13
00010000
01000000
00010000
00000000
,  // measure 14
00100000
00001000
00010000
00000000
,  // measure 15
00000010
00010000
00001000
00000100
,  // measure 16
00001001
00000000
00000001
00000010
,  // measure 17
00000001
00000000
00001000
00000100
,  // measure 18
00001000
00000010
00000001
00000010
,  // measure 19
00001000
00000001
00000010
00001000
,  // measure 20
00011000
00000000
00010000
00100000
,  // measure 21
10000000
10010000
00010000
00100000
,  // measure 22
01000000
10010000
10000000
00100000
,  // measure 23
01000000
01000000
00100000
10000000
,  // measure 24
01000000
00000000
00010000
00001000
,  // measure 25
00000100
00000000
00000001
00000010
,  // measure 26
00001000
00000000
00000010
00000001
,  // measure 27
00000100
00000100
00000010
00000010
,  // measure 28
00001000
00000001
00001000
00000001
,  // measure 29
00000010
00001000
00010000
00001000
,  // measure 30
00010000
00100000
10000000
00010000
,  // measure 31
10000000
00010000
00100000
01000000
,  // measure 32
10000000
00010000
01000000
00010000
,  // measure 33
10000000
00000000
10000000
01000000
,  // measure 34
00010000
00001000
00000000
00010000
,  // measure 35
00000000
00001000
00000000
00000100
,  // measure 36
00000001
00000010
00000100
00001000
,  // measure 37
00000001
00000000
00001000
00000001
,  // measure 38
00000010
00001000
00000000
00010000
,  // measure 39
00000000
00000000
00100000
10000000
,  // measure 40
00010000
10000000
01000000
01000000
,  // measure 41
00100000
00100000
00010000
00010000
,  // measure 42
01000000
00100000
00000000
10010000
,  // measure 43
00000000
01000000
00000000
10010000
,  // measure 44
00010000
00100000
01000000
10000000
,  // measure 45
01000000
00010000
00001000
00000100
,  // measure 46
00000001
00000010
00000000
00001001
,  // measure 47
00000000
00000100
00000000
00001001
,  // measure 48
00000001
00000000
00000010
00000000
,  // measure 49
00000100
00000000
00010000
00001000
,  // measure 50
00010000
00001000
00000000
00000000
,  // measure 51
01000000
00000000
00100000
00000000
,  // measure 52
10000000
00000000
01000000
00000000
,  // measure 53
00010000
00000000
00001000
00010000
,  // measure 54
00001000
00010000
00000000
00000000
,  // measure 55
00001000
00000000
00000100
00000000
,  // measure 56
00000001
00000010
00000001
00000100
,  // measure 57
00000001
00000100
00001000
00010000
,  // measure 58
01000000
00100000
00000000
00000000
,  // measure 59
00010000
10000000
00000000
00000000
,  // measure 60
10000000
00100000
10000000
01000000
,  // measure 61
10000000
00000000
00000000
00000000
,  // measure 62
00001000
00010000
00000100
00010000
,  // measure 63
00002000
00000000
00000000
00103000
;

//---------------dance-double - ----------------
#NOTEDATA:;
#CHARTNAME:;
#STEPSTYPE:dance-double;
#DESCRIPTION:;
#CHARTSTYLE:;
#DIFFICULTY:Hard;
#METER:6;
#RADARVALUES:0.310500,0.393691,0.073817,0.213249,0.000000,265.000000,256.000000,9.000000,26.000000,0.000000,0.000000,0.000000,0.000000,0.000000,0.310500,0.393691,0.073817,0.213249,0.000000,265.000000,256.000000,9.000000,26.000000,0.000000,0.000000,0.000000,0.000000,0.000000;
#CREDIT:K. Pearman;
#NOTES:
// measure 0
00000000
00000000
00000000
00000000
,  // measure 1
00000000
00000000
00000000
00000000
,  // measure 2
00000000
00000000
00000000
00000000
,  // measure 3
00000000
00000000
00000000
00000000
,  // measure 4
10000000
00000000
00100000
02000000
00000000
03000000
00100000
20000000
,  // measure 5
00000000
30000000
00000000
00000000
10000000
00000000
01000000
00000000
,  // measure 6
00010000
00001000
00010000
00000000
00000000
00000000
00000000
00000000
,  // measure 7
00001000
00000000
00000100
00000000
,  // measure 8
00000001
00000010
00000001
00000000
00001000
00000100
00001000
00000000
,  // measure 9
00000001
00000100
00001000
00010000
,  // measure 10
00001000
00010000
00002000
00000000
00003000
00000000
00010000
00000000
,  // measure 11
00000000
00100000
00000000
01000000
,  // measure 12
00010000
00100000
00010000
00000000
10000000
00000000
01000000
00000000
,  // measure 13
00010000
00001000
00000100
00000001
,  // measure 14
00001000
00000010
00001000
00000000
00000001
00000000
00000100
00000000
,  // measure 15
00001000
00010000
01000000
10000000
,  // measure 16
20020000
00000000
30030000
00000000
00010000
00100000
01000000
00000000
,  // measure 17
02000000
00000000
03000000
00000000
01000000
10000000
00010000
10000000
,  // measure 18
00100000
00000000
00100000
01000000
00010000
00000000
00010000
00100000
,  // measure 19
01000000
10000000
00010000
01000000
,  // measure 20
02020000
00000000
03030000
00000000
01000000
00001000
00010000
00000000
,  // measure 21
00022000
00000000
00033000
00000000
00010000
00000100
00001000
00000000
,  // measure 22
00002200
00000000
00003300
00000000
00001000
00000100
00000010
00000000
,  // measure 23
00000001
00000010
00000100
00000010
00000001
00000010
00000100
00000000
,  // measure 24
00000010
00000001
00001000
00000001
,  // measure 25
00000100
00000100
00000010
00000010
,  // measure 26
00001000
00000100
00010000
00001000
,  // measure 27
01000000
01000000
00100000
00100000
,  // measure 28
10000000
01000000
00010000
00000000
01000000
00000000
10000000
00000000
,  // measure 29
00010000
00100000
10000000
00000000
00100000
00000000
00010000
00000000
,  // measure 30
01000000
00001000
00010000
00000000
00001000
00010000
00000100
00000000
,  // measure 31
00000010
00000100
00001000
00000100
00000010
00000100
00001000
00000001
,  // measure 32
00000100
00000000
00000100
00000001
00001000
00000000
00001000
00000001
,  // measure 33
00000010
00000000
00000010
00000000
00000001
00000010
00000100
00000000
,  // measure 34
00000100
00010000
00001000
00000000
00010000
00000000
00100000
00000000
,  // measure 35
01000000
00010000
10000000
01000000
,  // measure 36
00100000
00000000
00100000
00010000
10000000
00000000
10000000
00010000
,  // measure 37
01000000
00000000
01000000
00000000
00100000
00010000
00001000
00010000
,  // measure 38
01000000
00010000
00001000
00000000
00010000
00000000
00001000
00000000
,  // measure 39
00000100
00000010
00001000
00000001
,  // measure 40
00000010
00000001
00000010
00000000
00000001
00000000
00001000
00000100
,  // measure 41
00000010
00000011
00000001
00001001
,  // measure 42
00001000
00000100
00000010
00000000
00000100
00000000
00001000
00000000
,  // measure 43
00000010
00010000
00001000
00100000
,  // measure 44
00010000
00100000
01000000
00000000
00100000
00000000
00010000
10000000
,  // measure 45
00100000
10100000
01100000
01010000
,  // measure 46
01000000
00010000
10000000
00000000
00010000
00000000
01000000
00000000
,  // measure 47
00100000
00010000
00001000
00000010
,  // measure 48
00000100
00001000
00000001
00000000
00001000
00000000
00000001
00000100
,  // measure 49
00000020
00000000
00000030
00000000
00000100
00000010
00001000
00000000
,  // measure 50
00000001
00000010
00000200
00000000
00000000
00000000
00020300
00000000
,  // measure 51
00000000
00032000
00000000
01003000
,  // measure 52
00100000
10000000
00010000
00000000
00100000
01000000
10000000
00000000
,  // measure 53
00010000
01000000
00100000
00000000
01000000
00000000
00010000
10000000
,  // measure 54
01000000
00100000
00020000
00000000
00000000
00000000
00230000
00000000
,  // measure 55
00000000
00302000
00000000
00023000
,  // measure 56
00030100
00000010
00000100
00000000
00010000
00000000
00001000
00000000
,  // measure 57
01000000
00100000
10000000
01000000
,  // measure 58
00100000
00010000
20000000
00000000
30000000
00000000
00000000
00000000
,  // measure 59
00000000
00000000
00000000
00000000
,  // measure 60
20000000
00000000
00000000
30200000
00000000
00000000
00000000
00000000
,  // measure 61
00000000
00310000
00000000
00000000
00000000
00000000
00000000
00000000
,  // measure 62
00002000
00000000
00000000
00003020
00000000
00000000
00000000
00000032
,  // measure 63
00000000
00000000
00000000
00000000
,  // measure 64
00001003
00000000
00000000
00000000
;
