#TITLE:Loretta;
#SUBTITLE:;
#ARTIST:Ginger Root;
#TITLETRANSLIT:;
#SUBTITLETRANSLIT:;
#ARTISTTRANSLIT:;
#GENRE:;
#CREDIT:;
#BANNER:Loretta-Banner.png;
#BACKGROUND:Loretta-BG.png;
#LYRICSPATH:;
#CDTITLE:;
#MUSIC:Loretta - Ginger Root.ogg;
#OFFSET:-0.256641;
#SAMPLESTART:33.492001;
#SAMPLELENGTH:14.769000;
#SELECTABLE:YES;
#BPMS:0.000000=130.000000
;
#STOPS:
;
#BGCHANGES:6.000=Loretta.mp4=1.000=1=0=0=StretchNoLoop==CrossFade==,
99999=-nosongbg-=1.000=0=0=0 // don't automatically add -songbackground-
;
#KEYSOUNDS:;
#ATTACKS:;

//---------------dance-single - ----------------
#NOTES:
     dance-single:
     :
     Beginner:
     1:
     0.106956,0.159097,0.070190,0.077989,0.000000,96.000000,87.000000,9.000000,10.000000,0.000000,0.000000,0.106956,0.159097,0.070190,0.077989,0.000000,96.000000,87.000000,9.000000,10.000000,0.000000,0.000000:
0000
0000
0000
0000
,
0000
0000
0000
0000
,
1000
0000
0000
0000
,
0001
0000
0000
0000
,
0100
0000
0000
0000
,
0100
0000
0000
0000
,
0001
0000
0000
0000
,
1000
0000
0000
0000
,
0100
0000
0000
0000
,
0100
0100
0000
0000
,
2000
0000
0000
3000
,
0000
0000
0000
0000
,
0100
0000
0000
0000
,
0100
0000
0000
0000
,
0002
0000
0000
0003
,
0000
0000
0000
0000
,
0100
0000
0000
0000
,
0100
0000
0000
0000
,
1000
0000
0010
0000
,
0000
0100
0100
0000
,
0000
0001
0000
0010
,
0000
0000
0100
0100
,
0100
0000
0010
0000
,
0100
0000
0010
0000
,
0110
0000
0000
0000
,
1001
0000
0000
0000
,
0001
0000
0000
0000
,
1000
0000
0000
0000
,
0000
0000
0010
0010
,
0000
0010
0010
0000
,
1000
0000
0000
0000
,
0001
0000
0000
0000
,
0100
0000
0100
0000
,
0010
0000
0010
0000
,
1000
0000
0000
0000
,
0001
0000
0000
0000
,
0010
0000
0010
0000
,
0100
0100
0000
0000
,
1000
0000
0000
0000
,
0010
0000
0000
0000
,
0001
0000
0000
0000
,
0100
0000
0000
0000
,
0010
0000
0010
0000
,
0100
0000
0100
0000
,
0001
0000
0000
0000
,
1000
0000
0000
0000
,
0200
0000
0300
0000
,
0020
0000
0030
0000
,
0002
0000
0003
0000
,
2000
0000
3000
0000
,
0010
0000
0100
0000
,
0001
0000
1000
0000
,
0001
0000
0000
0000
,
1000
0000
0000
0000
,
0020
0000
0030
0000
,
0000
0000
0010
0010
,
0020
0000
0030
0000
,
0000
0000
0100
0100
,
0200
0000
0300
0000
,
0000
0100
0100
0100
,
0200
0000
0300
0000
,
0000
0000
0000
0000
,
1001
0000
0000
0110
,
0000
0000
1001
0000
,
0000
0110
0000
0000
,
1001
0000
0000
0110
,
0000
0000
0000
0010
,
0010
0000
0000
0000
,
1001
0000
0000
0000
;

//---------------dance-single - K. Pearman----------------
#NOTES:
     dance-single:
     :
     Easy:
     3:
     0.196085,0.265161,0.054592,0.210569,0.000000,176.000000,169.000000,7.000000,27.000000,0.000000,0.000000,0.196085,0.265161,0.054592,0.210569,0.000000,176.000000,169.000000,7.000000,27.000000,0.000000,0.000000:
0000
0000
0000
0000
,
0000
0000
0000
0000
,
1000
0000
0001
0000
,
0000
0100
0010
0100
,
0001
0000
1000
0000
,
0000
0100
0010
0100
,
1000
0000
0010
0000
,
0000
0100
1000
0100
,
0001
0000
0010
0000
,
0100
2002
0000
3003
,
0000
0001
0000
0010
,
0000
0001
0100
0001
,
0000
1000
0100
1000
,
0000
0001
0000
1000
,
0000
0010
0000
1000
,
0000
0001
0100
0001
,
0000
1000
0100
1000
,
0001
0001
1000
1000
,
0020
0000
0130
0000
,
0200
0000
0310
0000
,
1000
0000
0001
0000
,
0001
0000
1000
0000
,
0001
0001
0100
0100
,
0010
0010
1000
1000
,
2002
0000
3003
0000
,
0010
0220
0330
0000
,
1001
0000
0000
0000
,
0000
0000
0000
0000
,
0010
0000
0100
0000
,
0000
0001
1000
0000
,
0001
0000
0010
0000
,
0000
0001
0100
0001
,
1000
0000
0010
0000
,
1000
0100
1000
0000
,
0010
0000
0100
0000
,
0000
0001
1000
0001
,
0010
0000
0100
0000
,
1000
2002
0000
3003
,
0002
0000
0013
0000
,
0100
0000
1000
0000
,
0020
0000
0130
0000
,
0001
1000
0001
0000
,
1000
0000
0100
0000
,
0010
0000
0001
0000
,
1000
0100
1000
0100
,
0001
0100
0001
0100
,
2000
0000
3000
0010
,
0200
0000
0300
0001
,
2000
0000
3000
0100
,
0020
0000
0030
0001
,
1000
1000
0001
0001
,
1000
0001
1000
0001
,
2000
3100
0002
0103
,
1000
2002
3003
0000
,
0001
0010
0200
0000
,
0000
1300
0001
1000
,
1000
0010
0200
0000
,
0000
0301
1000
0001
,
0001
0010
0200
0000
,
0000
1300
0001
1000
,
1000
0100
0020
0000
,
0000
0031
0100
0010
,
0100
0100
0010
0200
,
0300
0000
0001
1000
,
0001
0002
0003
0000
,
0010
0100
0010
0020
,
0030
0100
1000
0001
,
0100
0010
0000
0000
,
1001
0000
0000
0000
;

//---------------dance-single - ----------------
#NOTES:
     dance-single:
     :
     Medium:
     5:
     0.320867,0.424258,0.319753,0.327552,0.003899,288.000000,247.000000,41.000000,42.000000,0.000000,0.000000,0.320867,0.424258,0.319753,0.327552,0.003899,288.000000,247.000000,41.000000,42.000000,0.000000,0.000000:
0000
0000
0000
0000
,
0000
0000
0000
0000
,
1000
0001
1000
1000
,
0010
0100
0001
1000
,
0001
0010
0001
0001
,
1000
0100
0010
0001
,
1000
0001
1000
1000
,
0001
0100
0010
0010
,
0100
0001
1000
0100
,
0010
2002
0000
3003
,
0002
0103
0001
0100
,
2000
3100
1000
0100
,
0002
0013
0001
0010
,
2000
3010
1000
0010
,
0001
1000
0002
0103
,
0001
1000
0001
1000
,
1000
0001
2000
3100
,
1000
0100
0010
0001
,
2100
0100
0001
3100
,
0102
0100
1000
0103
,
2010
0010
0001
3010
,
0012
0010
1000
0013
,
2200
3300
0202
0303
,
2020
3030
0022
0033
,
2002
0000
0000
3003
,
0110
2002
0000
3003
,
0200
0000
0000
0000
,
0300
0000
0000
0000
,
0020
0001
0100
0031
,
0000
1000
0100
0000
,
1100
0001
0100
0010
,
1000
0001
1000
0001
,
0011
1000
0010
0100
,
0001
1000
0001
1000
,
0110
0000
1001
0000
0010
0100
0010
0000
,
1000
1000
0001
0001
,
1001
0000
0110
0000
0001
1000
0001
0000
,
0200
0320
0000
0130
,
0001
0000
0010
0000
0001
0010
0100
0000
,
1000
0000
0100
0000
1000
0100
0010
0000
,
0001
0100
0010
1000
,
0001
1000
0001
1000
0001
0000
0000
0000
,
1000
1100
0001
0101
,
1000
1010
0001
0011
,
1000
0000
0010
0000
0100
0000
0001
0010
,
0200
0300
0100
1000
,
1001
0000
1001
0000
0010
0100
0010
0000
,
0110
0000
0110
0000
1000
0001
1000
0000
,
1100
0000
1100
0000
0001
0010
0001
0000
,
0101
0000
0101
0000
1000
0010
1000
0000
,
0010
0000
0100
0000
0001
1000
0001
0010
,
0100
0000
0010
0000
0010
0100
0010
0001
,
1000
1000
0001
0100
,
0110
2002
0000
3003
,
0002
0010
1000
0010
,
1003
0011
0110
1100
,
2000
0010
0001
0010
,
3001
1100
0110
0011
,
0002
0010
1000
0010
,
1003
0011
0110
1100
,
2000
0010
0001
0010
,
3001
0100
0010
1000
,
0002
0000
0103
0020
,
0000
0000
2030
0000
,
3100
0020
0000
0031
,
2000
0000
3001
0200
,
0000
0000
0310
1000
,
0001
0000
0000
0000
0100
0000
0000
0000
0000
0000
0002
0000
0000
0100
0000
0000
,
1003
0000
0000
0000
;

//---------------dance-single - K. Pearman----------------
#NOTES:
     dance-single:
     :
     Hard:
     7:
     0.469045,0.503806,0.350948,0.319753,0.202770,421.000000,376.000000,45.000000,41.000000,0.000000,0.000000,0.469045,0.503806,0.350948,0.319753,0.202770,421.000000,376.000000,45.000000,41.000000,0.000000,0.000000:
0000
0000
0000
0000
,
0000
0000
0000
0000
,
1000
0000
0000
1000
0000
0000
1000
0000
0100
0000
0000
1000
0001
0000
0000
0000
,
0001
0010
0001
0000
1000
0100
1000
0000
,
0001
0000
0000
0001
0000
0000
0001
0000
0100
0000
0000
0001
1000
0000
0010
0000
,
0100
0001
0010
0000
0100
1000
0010
0000
,
0100
0000
0000
0100
0000
0000
0100
0000
0010
0000
0000
0100
0001
0000
0000
0000
,
1000
0100
1000
0000
0001
0010
0001
0000
,
0010
0000
0000
0001
0000
0000
1000
0000
0010
0000
0000
0100
0000
0000
0010
0000
,
1000
0100
0000
0000
0022
0000
0000
0000
0033
0000
0000
0000
0000
0000
0000
0000
,
0001
0000
0000
0001
0100
0000
0010
0000
1000
0000
0000
1000
0100
0000
0010
0000
,
0001
0000
0000
1000
0001
0000
0100
0000
0010
0000
0100
0000
0001
0000
1000
0000
,
0200
0000
0001
0000
1300
0000
1000
0001
,
0200
0000
1000
0000
0301
0000
0010
0100
,
1001
0000
0000
0001
0010
0000
0100
0000
1000
0000
0000
1000
0010
0000
0100
0000
,
0001
0000
1000
0001
0100
1000
0100
0001
,
2000
0000
3010
0100
0002
0000
0013
0100
,
1100
0000
0110
0000
0011
0000
1001
0100
,
1001
0000
0010
0010
0001
0001
0100
0100
,
1000
1000
0010
0010
0001
1000
1001
0000
,
0110
0000
0010
0010
1000
1000
0100
0100
,
0001
0000
0001
0000
0010
0000
0010
0000
1001
0000
0000
0000
0100
0010
0000
0000
,
1002
0000
0103
0010
2001
0000
3100
0010
,
1002
0000
0103
0010
2001
0000
3100
0010
,
0001
0100
0010
0100
0001
1000
0100
0010
,
0001
0100
0000
0000
2020
0000
0000
0000
3030
0000
0000
0000
0000
0000
0000
0000
,
1000
0000
0000
0010
0000
0000
0200
0000
0000
0000
0300
0000
0000
0000
0000
0000
,
0000
0010
1000
0000
0001
0100
0000
0000
,
0000
0002
2003
3100
,
0000
0000
0000
0000
0200
0000
0000
0000
0310
0000
0000
0001
1000
0000
0000
0000
,
0001
0000
0000
0001
0000
0000
0001
0000
0100
0000
0000
0001
1000
0000
0000
0000
,
1000
0010
1000
0000
0001
0100
0001
0000
,
1000
0000
0000
1000
0000
0000
1000
0000
0100
0000
0000
1000
0001
0000
0010
0000
,
0100
1000
0010
0000
0100
0001
0010
0000
,
0100
0000
0000
0100
0000
0000
0100
0000
0010
0000
0000
0100
1000
0000
0000
0000
,
0001
0010
0001
0000
1000
0100
1000
0000
,
0010
0000
0000
0100
0000
0000
0001
0000
1000
0000
0000
0100
0000
0000
0010
0000
,
0001
1000
0000
0000
2002
0000
0000
0000
3003
0000
0000
0000
0000
0000
0000
0000
,
0001
0000
0000
0001
0010
0000
0100
0000
1000
0000
0000
0000
1001
0000
0000
0000
,
0110
0000
0000
1000
0010
0000
0100
0000
0001
0000
0000
0001
0000
0000
0010
0000
,
1000
0000
0000
1000
0000
0000
0010
0000
0001
0000
0100
0000
0010
0000
0100
0000
,
0001
0000
1000
0000
0001
0010
0000
0100
2000
0000
0000
0000
3001
0000
0000
0000
,
0110
2000
3010
0200
,
0301
0000
0010
0001
0010
0100
0000
1000
,
0100
0000
0000
1000
0001
0000
0000
0000
0100
0000
0000
0000
1001
0000
0000
0000
,
0001
0010
0001
0000
1000
0100
0010
0100
,
2100
0000
0000
0000
3001
0000
0000
0000
0010
0000
0000
0010
0000
0000
0001
0000
,
1000
0000
0000
0000
0001
0000
0000
0000
0100
0000
0000
0100
0000
0000
0001
0000
,
1000
0000
0000
1000
0000
0000
0010
0000
0100
0000
0000
0100
0001
0000
0010
0000
,
0100
0000
0000
1000
0000
0000
0001
0000
0100
0000
0000
0000
0001
0000
0000
0000
,
0012
0000
0000
1003
0000
0000
2010
0000
0000
3001
0000
0000
0001
0000
0000
1000
,
0000
0000
0010
0000
0000
0100
0000
0000
0001
0000
0010
0000
0001
0000
1000
0000
,
0100
1000
0010
0100
0010
1000
0001
1000
,
0100
0010
0000
0000
2002
0000
0000
0000
3003
0000
0000
0000
0000
0000
0000
0001
,
2000
0000
0000
3200
0000
0000
0301
0000
0000
0000
0100
0000
1000
0000
1000
0000
,
0001
0000
0000
0000
0011
0000
0000
0000
0110
0000
0000
0000
1100
0000
0000
1000
,
0002
0000
0000
0203
0000
0000
1300
0000
0000
0000
0100
0000
0001
0000
0001
0000
,
1000
0011
0110
1100
,
2010
0000
0000
3020
0000
0000
0031
0000
0000
0000
0010
0000
1000
0000
1000
0000
,
0100
0011
0110
1100
,
0002
0000
0000
0023
0000
0000
1030
0000
0000
0000
0010
0000
0001
0000
0001
0000
,
1000
0000
0000
0000
0110
0000
0000
0000
0001
0000
0000
0000
0010
0100
0000
0000
,
1001
0000
1000
0010
0100
0001
2020
0000
,
3030
0000
0000
0000
1001
0000
0001
0010
,
0100
1000
0202
0000
0303
0000
0000
0000
,
0110
0000
0001
1000
0010
0100
2002
0000
,
3003
0000
1000
0012
0000
0000
1003
0010
,
0100
0000
0001
0000
1000
0000
0100
0000
0010
0000
0110
0000
0000
1001
0000
0000
,
0110
0000
0000
0000
;

//---------------dance-double - ----------------
#NOTES:
     dance-double:
     :
     Easy:
     2:
     0.130352,0.185613,0.054592,0.070190,0.000000,117.000000,110.000000,7.000000,9.000000,0.000000,0.000000,0.130352,0.185613,0.054592,0.070190,0.000000,117.000000,110.000000,7.000000,9.000000,0.000000,0.000000:
00000000
00000000
00000000
00000000
,
00000000
00000000
00000000
00000000
,
00010000
00000000
01000000
00000000
,
00000000
00000000
00001000
00010000
,
00000100
00000000
00001000
00000000
,
00000000
00000000
00000001
00001000
,
00000001
00000000
00000010
00000000
,
00000000
00000000
00001000
00010000
,
00001000
00000000
00010000
00000000
,
00100000
00100000
00000000
00000000
,
01000000
00010000
00000000
00010000
,
00000000
00100000
00000000
00100000
,
00000000
00001000
00000000
00010000
,
00000000
00000100
00000000
00000100
,
00000000
00001000
00000000
00001000
,
00000000
00000010
00000000
00000010
,
00000000
00000100
00000000
00000001
,
00000001
00000010
00000100
00000000
,
00011000
00000000
00000000
00000000
,
00100000
00000000
00000000
00000000
,
00011000
00000000
00000000
00000000
,
00000010
00000000
00000000
00000000
,
00011000
00000000
00010000
00000000
,
00100000
00000000
10000000
00000000
,
00010000
00000000
00000000
00000000
,
10000000
01000000
00000000
00000000
,
00100000
00000000
00000000
00000000
,
00000000
00000000
00000000
00000000
,
00000010
00000000
00000000
00000000
,
00000000
00010000
00001000
00000000
,
00011000
00000000
00001000
00000000
,
00000000
00000000
00000100
00000001
,
00001000
00000000
00000001
00000000
,
00000010
00000000
00000100
00000000
,
00010000
00000000
00001000
00000000
,
00000000
00000000
01000000
00100000
,
01000000
00000000
00010000
00000000
,
10000000
00010000
00000000
00000000
,
10010000
00000000
00000000
00000000
,
00001000
00000000
00000000
00000000
,
00000001
00000000
00000000
00000000
,
00000100
00000000
00000100
00000000
,
00000010
00000000
00000010
00000000
,
00010000
00000000
00001000
00000000
,
00100000
00000000
00000000
00000000
,
01000000
00000000
00000000
00000000
,
20000000
00000000
30000000
00000000
,
00020000
00000000
00030000
00000000
,
02000000
00000000
03000000
00000000
,
00200000
00000000
00300000
00000000
,
00001000
00000000
00010000
00000000
,
00000100
00000000
00001000
00000000
,
00000001
00000000
00000000
00000000
,
00001000
00000002
00000000
00000003
,
00000200
00000000
00000300
00000000
,
00000000
00000010
00000010
00000010
,
00020000
00000000
00030000
00000000
,
00000000
00001000
00001000
00001000
,
00200000
00000000
00300000
00000000
,
00000000
00010000
00010000
00010000
,
20000000
00000000
30000000
00000000
,
00000000
01000000
00000000
00100000
,
00010000
00000000
00000000
10000000
,
00000000
00000000
00001000
00000000
,
00000000
00010000
00000000
00000000
,
00000001
00000000
00000000
00001000
,
00000000
00000000
00000110
00000000
,
00000000
00000000
00000000
00000000
,
10010000
00000000
00000000
00000000
;

//---------------dance-double - ----------------
#NOTES:
     dance-double:
     :
     Medium:
     4:
     0.260704,0.318193,0.140379,0.413339,0.000000,234.000000,216.000000,18.000000,53.000000,0.000000,0.000000,0.260704,0.318193,0.140379,0.413339,0.000000,234.000000,216.000000,18.000000,53.000000,0.000000,0.000000:
00000000
00000000
00000000
00000000
,
00000000
00000000
00000000
00000000
,
10000000
00010000
10000000
10000000
,
00000000
00010000
01000000
00001000
,
00010000
00000100
00001000
00001000
,
00000001
00000010
00000100
00001000
,
00000001
00001000
00000001
00000001
,
00000000
00000100
00001000
00010000
,
00001000
00010000
01000000
10000000
,
00020000
00130000
00000000
00000000
,
00100000
00010000
02000000
03000000
,
00100000
00000000
01000000
00010000
,
20000000
30000000
00020000
00030000
,
00002000
00003000
00000002
00000003
,
00000010
00000001
00000200
00000300
,
00000010
00000100
00000010
00000100
,
00000002
00000003
00002000
00003000
,
00020000
00030000
20000000
30000000
,
01000000
00100000
00010000
10000000
,
00000000
10010000
10010000
00000000
,
00000000
00001000
00010000
00000000
,
00000100
00000010
00001001
00001001
,
00000002
00000003
00000020
00000030
,
00000200
00000300
00002000
00003000
,
00000002
00001000
00000100
00001003
,
00002000
00000001
00000100
00003001
,
00002002
00000000
00000000
00000000
,
00003003
00000000
00000000
00000000
,
00010000
00001000
00010000
00100000
,
00000000
01000000
01000000
00000000
,
00020000
00100000
20030000
00100000
,
30010000
00010000
10000000
10000000
,
01000000
00010000
01000000
00010000
,
00001000
00010000
00001000
00010000
,
00001000
00000100
00000001
00001000
,
00000001
00001000
00000100
00000100
,
00000010
00000001
00000100
00000001
,
00001001
00000220
00000000
00000330
,
00000002
00000010
00002003
00000010
,
00003001
00000100
00000001
00000100
,
00001000
00010000
00001000
00010000
,
01000000
10000000
00020000
00030000
,
10000000
01000000
10000000
00010000
,
00200000
00300000
00010000
01000000
,
00002000
00003000
00020000
00030000
,
00000100
00001000
00000001
00000001
,
00000020
00000001
00000100
00000001
,
00000230
00001000
00000010
00002300
,
00003020
00020030
00032000
00203000
,
02300000
23000000
30020000
02030000
,
13000000
01000000
00010000
10000000
,
01000000
00100000
00010000
10000000
,
10010000
01000000
10010000
01000000
,
10010000
00200000
00000000
00300000
,
20000000
32000000
03200000
00300000
,
00010000
01000000
00010000
01000000
,
00002000
00023000
00030200
00000300
,
00000010
00000001
00000010
00000001
,
00002000
00003020
00000230
00000300
,
00000001
00000100
00000001
00000100
,
00002000
00023000
02030000
03000000
,
00100000
00010000
10000000
00010000
,
10010000
00010000
01000000
01010000
,
00000000
00001000
00011000
00010000
,
00000100
00001100
00000000
00000100
,
00001001
00000001
00000010
00000011
,
00000000
00000001
00000110
00000100
,
00001000
00000001
00000000
00000000
,
00011000
00000000
00000000
00000000
;

//---------------dance-double - ----------------
#NOTES:
     dance-double:
     :
     Hard:
     8:
     0.473502,0.477290,0.194971,0.062391,0.183273,425.000000,400.000000,25.000000,8.000000,0.000000,0.000000,0.473502,0.477290,0.194971,0.062391,0.183273,425.000000,400.000000,25.000000,8.000000,0.000000,0.000000:
00000000
00000000
00000000
00000000
,
00000000
00000000
00000000
00000000
,
10000000
00000000
00000000
01000000
00000000
00000000
10000000
00000000
00010000
00000000
00000000
00100000
00000000
00000000
00010000
00000000
,
01000000
00000000
00001000
00000000
00010000
00000100
00000010
00000000
,
00000001
00000000
00000000
00000100
00000000
00000000
00000001
00000000
00001000
00000000
00000000
00000010
00000000
00000000
00001000
00000000
,
00000100
00000000
00000000
00000100
00000000
00000000
00000010
00000000
00000000
00000010
00000000
00000000
00000001
00000000
00000100
00000000
,
00001000
00000000
00000000
00010000
00000000
00000000
00000100
00000000
00010000
00000000
00000000
00001000
00000000
00000000
00000000
00000000
,
00010000
00000000
00100000
00000000
10000000
01000000
10000000
00000000
,
00010000
00000000
00000000
00100000
00000000
00000000
01000000
00000000
10000000
00000000
00000000
00010000
00000000
00000000
01000000
00000000
,
01010000
00001100
00000000
00000000
,
00011000
00000000
00000000
00001000
00000100
00000000
00000001
00000000
00000010
00000000
00000000
00000000
00000001
00000000
00000010
00000000
,
00001000
00000000
00001000
00010000
00100000
00000000
00010000
00100000
,
20000000
01000000
31000000
00100000
,
00020000
01000000
01030000
00100000
,
10000000
00000000
00000000
01000000
00010000
00000000
00001000
00000000
00000100
00000000
00000000
00000000
00000001
00000000
00000000
00000000
,
00001000
00000001
00000010
00000000
00000100
00001000
00000001
00000010
,
00000200
00001000
00000001
00001000
,
00000320
00000000
00002030
00000000
00023000
00000000
00130000
01000000
,
00010000
00000000
10010000
00000000
01000000
10000000
01000000
00100000
,
00010000
00000000
00100000
00010000
01000000
00100000
00010000
00001000
,
00010000
00000000
00001000
00010000
00000100
00000010
00000100
00001000
,
00000100
00000001
00000100
00001000
00000010
00000001
00000010
00001000
,
00000001
00000000
00000001
00000010
00000100
00000000
00000100
00000001
,
00001000
00000000
00001000
00000010
00000100
00000000
00000100
00001000
,
00000010
00000001
00000010
00000100
00001000
00010000
00100000
01000000
,
00010000
10000000
00000000
00000000
10010000
00000000
00000000
00000000
00000000
00000000
00000000
00000000
01100000
00000000
00000000
00000000
,
01000000
00000000
00000000
01000000
00000000
00000000
01000000
00000000
00000000
00000000
00000000
00000000
00000000
00000000
00000000
00000000
,
00000000
00000000
00000000
00000000
,
00000000
00010000
00001000
00011000
,
00000000
00000000
00000000
00000000
01000000
00000000
00000000
00000000
10100000
00000000
00000000
10000000
01000000
00000000
00000000
00000000
,
00100000
00000000
00000000
00010000
00000000
00000000
01000000
00000000
00001000
00000000
00000000
00010000
00000000
00000000
00000100
00000000
,
00000010
00000000
00000001
00000000
00001000
00000000
00000001
00000000
00000100
00000001
00000000
00000000
00001000
00000000
00000001
00000000
,
00000010
00000000
00000000
00000100
00010000
00000000
00000100
00000000
00001000
00000000
00000000
00000010
00000100
00000000
00000010
00000000
,
00001000
00000000
00000000
00000001
00000000
00000000
00000010
00000000
00000000
00001000
00000000
00000000
00010000
00000000
00100000
00000000
,
01000000
00000000
00000000
00010000
00000000
00000000
10000000
00000000
01000000
00000000
00000000
00100000
00000000
00000000
00010000
00000000
,
00000000
00000000
10000000
00000000
00100000
00000000
01000000
00000000
00010000
10000000
00000000
00000000
01000000
00000000
00010000
00000000
,
00001000
00000000
00000000
00010000
00000000
00000000
00001000
00000000
00000100
00000000
00000000
00000001
00000000
00000000
00001000
00000000
,
00000001
00000110
00000010
00000010
,
00000100
00000001
00000010
00000001
00000100
00000001
00000010
00001000
,
00010000
00100000
01000000
00010000
01000000
00100000
01000000
00010000
,
10000000
00000000
01000000
00100000
00010000
00000000
00100000
01000000
,
10000000
01000000
00010000
00001000
00000100
00000000
00000010
00000000
,
00001000
00000100
00000011
00000000
00001100
00000000
00000101
00000000
,
00001010
00000000
00011000
00000000
00110000
00000000
01000000
10000000
,
00100000
00010000
00001000
00000010
00001000
00010000
01000000
00010000
,
00001000
00000100
00001000
00010000
00100000
01000000
00010000
10000000
,
01000000
00000000
01000000
00100000
00010000
10000000
00100000
01000000
,
00010000
00000000
00010000
01000000
00100000
00010000
00001000
00000100
,
00000010
00000000
00000010
00000100
00000001
00001000
00000001
00000010
,
00001000
00000000
00001000
00000010
00001000
00000010
00000001
00000010
,
00000001
00000000
00000000
00000100
00000000
00000000
00001000
00000000
00000000
00010000
00000000
00000000
01000000
00000000
00000000
10000000
,
00000000
00000000
00010000
00000000
00000000
01000000
00000000
00000000
00100000
00000000
00010000
00000000
00001000
00000000
00000100
00000000
,
00000010
00001000
00000001
00000010
00001000
00010000
00100000
01000000
,
00010000
10000000
00000000
00000000
20020000
00000000
00000000
00000000
30030000
00000000
00000000
00000000
00000000
00000000
00000000
00000000
,
10000000
00000000
00000000
01000000
00000000
00000000
00010000
00000000
00001000
00000000
00010000
00000000
00001000
00000100
00000000
00000000
,
00000001
00000000
00001000
00000000
00000001
00000010
00000000
00000000
00000100
00000000
00001000
00000000
00000010
00001000
00000000
00000000
,
00000001
00000000
00000000
00000010
00000000
00000000
00001000
00000000
00010000
00000000
00100000
00000000
10000000
01000000
00000000
00000000
,
00100000
00000000
00010000
00000000
01000000
00100000
00000000
00000000
10000000
00000000
00010000
00000000
00100000
01000000
00000000
00000000
,
10000000
00000000
00000000
00100000
00000000
00000000
00010000
00000000
00001000
00000000
00000010
00000000
00000001
00001000
00000000
00000000
,
00000001
00000000
00000100
00000000
00000010
00001000
00000000
00000000
00000001
00000000
00000010
00000000
00000100
00001000
00000000
00000000
,
00000001
00000000
00000000
00000100
00000000
00000000
00001000
00000000
00010000
00000000
01000000
00000000
10000000
00010000
00000000
00000000
,
01000000
00100000
10000000
01000000
00010000
01000000
10000000
00000000
,
00110000
00000000
00010000
01000000
00001000
00010000
00001100
00000000
,
00000100
00001000
00000010
00010000
00011000
00000000
00001000
00100000
,
01000000
10000000
11000000
00000000
10000000
01000000
00010000
00001000
,
00000110
00000000
00000100
00000010
00001000
00010000
01100000
00000000
,
00010000
00001000
00000100
00000001
00000000
00000001
00000010
00000000
,
00000100
00000000
00001000
00000000
00000001
00000000
00000100
00000000
00000000
00000000
00000110
00000000
00000000
00011000
00000000
00000000
,
01100000
00000000
00000000
00000000
;
