#VERSION:0.83;
#TITLE:Long Train Runnin';
#SUBTITLE:(Ventura Mix);
#ARTIST:Bus Stop;
#TITLETRANSLIT:;
#SUBTITLETRANSLIT:;
#ARTISTTRANSLIT:;
#GENRE:;
#ORIGIN:;
#CREDIT:;
#BANNER:Long Train Runnin'-Banner.png;
#BACKGROUND:Long Train Runnin'-BG.png;
#PREVIEWVID:;
#JACKET:;
#CDIMAGE:;
#DISCIMAGE:;
#LYRICSPATH:;
#CDTITLE:;
#MUSIC:Long Train Runnin' (Ventura Mix) - Bus Stop.ogg;
#OFFSET:0.009000;
#SAMPLESTART:11.023000;
#SAMPLELENGTH:12.000000;
#SELECTABLE:YES;
#BPMS:0.000=172.000;
#STOPS:;
#DELAYS:;
#WARPS:;
#TIMESIGNATURES:0.000=4=4;
#TICKCOUNTS:0.000=4;
#COMBOS:0.000=1;
#SPEEDS:0.000=1.000=0.000=0;
#SCROLLS:0.000=1.000;
#FAKES:;
#LABELS:0.000=Song Start;
#BGCHANGES:;
#KEYSOUNDS:;
#ATTACKS:
;

//---------------dance-single - K. Pearman----------------
#NOTEDATA:;
#CHARTNAME:;
#STEPSTYPE:dance-single;
#DESCRIPTION:K. Pearman;
#CHARTSTYLE:;
#DIFFICULTY:Beginner;
#METER:3;
#RADARVALUES:0.158734,0.417355,0.162606,0.081303,0.000000,123.000000,105.000000,18.000000,9.000000,0.000000,0.000000,0.000000,0.000000,0.000000,0.158734,0.417355,0.162606,0.081303,0.000000,123.000000,105.000000,18.000000,9.000000,0.000000,0.000000,0.000000,0.000000,0.000000;
#CREDIT:;
#NOTES:
0000
0000
0000
0000
,
0000
0000
0000
0000
,
0000
0000
0000
0000
,
0000
0000
0000
0000
,
0010
0010
0000
0000
,
0010
0010
0000
0000
,
0100
0100
0000
0000
,
0200
0000
0000
0300
,
0100
0000
0000
0000
,
1000
0000
0000
0000
,
0001
0000
0000
0000
,
0100
0000
0000
0000
,
1001
0000
0000
0000
,
0010
0000
0010
0000
,
0010
0000
0000
0000
,
0010
0000
0000
0000
,
2002
0000
0000
0000
,
0000
0000
0000
3003
,
1001
0000
0000
0000
,
0010
0000
0000
0000
,
0100
0000
0000
0000
,
0100
0100
0000
0100
,
0100
0000
0000
0000
,
0001
0001
0000
0001
,
0001
0000
1000
0000
,
0001
0000
1000
0000
,
0100
0000
0000
0000
,
0000
0010
0010
0000
,
0010
0000
0000
0000
,
0001
0000
0000
0000
,
1000
0000
0000
0000
,
0010
0010
0010
0010
,
0010
0000
0000
0000
,
0100
0000
0000
0000
,
0001
0000
0000
0000
,
1000
0000
0000
0000
,
0100
0100
0000
0000
,
0100
0100
0000
0000
,
0010
0010
0000
0000
,
0010
0010
0000
0000
,
1001
0000
0000
0000
,
1001
0000
0000
0000
,
1001
0000
1001
0000
,
1001
1001
1001
0000
,
1001
0000
0000
0000
,
0010
0000
0000
0000
,
0100
0000
0000
0000
,
0001
0000
0000
0000
,
2002
0000
0000
0000
,
0000
0000
0000
3003
,
1001
0000
0000
0000
,
0001
0000
1000
0000
,
0100
0000
0000
0000
,
0100
0000
0000
0000
,
0010
0000
0010
0000
,
0001
0000
1000
0000
,
0001
0001
0000
0000
,
1000
1000
0000
0000
,
0010
0010
0000
0000
,
0100
0100
0000
0000
,
0220
0000
0000
0000
,
0000
0000
0000
0330
,
0110
0000
0000
0000
,
1000
0000
0001
0000
,
1001
0000
0000
0000
,
0010
0000
1000
0000
,
0001
0000
0000
0000
,
0010
0000
0001
0000
,
1001
0000
0000
0000
,
0100
0000
0000
0000
,
0010
0000
0000
0000
,
0001
0000
1000
0000
,
0010
0010
0000
0000
,
0010
0010
0000
0000
,
0100
0000
0000
0000
,
0100
0000
0100
0000
,
2002
0000
0000
0000
,
3003
0000
0000
0000
;

//---------------dance-single - K. Pearman----------------
#NOTEDATA:;
#CHARTNAME:;
#STEPSTYPE:dance-single;
#DESCRIPTION:K. Pearman;
#CHARTSTYLE:;
#DIFFICULTY:Easy;
#METER:5;
#RADARVALUES:0.295530,0.382576,0.162606,0.108404,0.000000,229.000000,211.000000,18.000000,12.000000,0.000000,0.000000,0.000000,0.000000,0.000000,0.295530,0.382576,0.162606,0.108404,0.000000,229.000000,211.000000,18.000000,12.000000,0.000000,0.000000,0.000000,0.000000,0.000000;
#CREDIT:;
#NOTES:
0000
0000
0000
0000
,
0000
0000
0000
0000
,
0000
0000
0000
0000
,
0000
0000
0000
0000
,
0010
1000
0010
0000
,
0100
0001
0100
0000
,
0001
0010
0001
0000
,
0200
0000
0000
0300
,
1001
0010
0100
0000
,
0010
1000
0001
0000
,
0010
0001
1000
0000
,
0100
0100
0100
0000
,
1000
0010
0100
0100
,
0001
0010
0100
0100
,
1000
0100
0010
0010
,
0001
0100
0010
0010
,
0200
0000
0000
0000
,
0000
0000
0320
0000
,
0230
0000
0300
0000
,
0001
0010
0100
1000
,
1001
0000
0000
0000
,
0010
0010
0100
0100
,
1001
0000
0000
0000
,
0100
0100
0010
0010
,
1000
0100
1000
0001
,
0010
0001
1000
0100
,
0010
0000
0001
0000
,
0100
0000
0010
1000
,
0100
0000
0100
0000
,
0010
0100
1000
0001
,
0100
0000
0010
0000
,
0100
0010
1000
0001
,
1001
0000
0000
0001
,
0010
0000
0000
0100
,
1000
0000
0000
0010
,
0100
0000
0000
0000
,
0010
1000
0001
0000
,
0100
0001
1000
0000
,
0001
1000
0100
0000
,
1000
0001
0010
0000
,
1001
0100
0100
0100
,
0010
0100
0100
0100
,
0010
0100
0010
0100
,
1000
0100
0001
0100
,
1000
0001
1000
0001
,
0100
0001
0100
0001
,
1000
0001
1000
0001
,
1000
0100
1000
0100
,
0020
0000
0000
0000
,
0000
0000
0230
0000
,
0320
0000
0130
0000
,
1000
0010
0100
0001
,
1001
0000
0000
0010
,
1001
0000
0000
0100
,
1001
0000
0110
0000
,
0010
0100
1001
0000
,
0010
0010
1000
1000
,
0001
0010
0100
1000
,
0001
0001
0100
0100
,
0001
0100
0010
1000
,
0002
0000
0000
0000
,
0000
0000
2003
0000
,
3002
0000
1003
0000
,
0010
0100
0001
1000
,
1001
0000
0001
0010
,
0100
0000
1000
0010
,
0100
0000
0001
0100
,
0010
0000
1000
0100
,
1001
0000
0001
0010
,
0100
0000
1000
0010
,
0110
0000
0100
0001
,
1000
0001
0010
0100
,
1001
0000
0010
0100
,
1001
0000
0110
0000
,
1001
1000
0100
0010
,
0001
0100
0010
1000
,
0220
0000
0000
0000
,
0330
0000
0000
0000
;

//---------------dance-single - K. Pearman----------------
#NOTEDATA:;
#CHARTNAME:;
#STEPSTYPE:dance-single;
#DESCRIPTION:K. Pearman;
#CHARTSTYLE:;
#DIFFICULTY:Medium;
#METER:6;
#RADARVALUES:0.400062,0.556474,0.189707,0.081303,0.000000,310.000000,289.000000,21.000000,9.000000,0.000000,0.000000,0.000000,0.000000,0.000000,0.400062,0.556474,0.189707,0.081303,0.000000,310.000000,289.000000,21.000000,9.000000,0.000000,0.000000,0.000000,0.000000,0.000000;
#CREDIT:K. Pearman;
#NOTES:
0000
0000
0000
0000
,
0000
0000
0000
0000
,
0000
0000
0000
0000
,
0000
0000
0000
0000
,
1000
0010
1000
0000
0001
0000
0001
0000
,
0010
0001
0010
0000
0100
0000
0100
0000
,
1000
0001
1000
0000
0010
0000
0010
0000
,
0200
0000
0000
0300
,
0001
0000
0010
0000
0001
0010
0100
0000
,
1000
0000
0100
0000
1000
0100
0010
0000
,
0001
0100
0110
0000
,
0010
1000
1001
0000
,
1000
0100
1000
1000
,
0001
0100
0001
0001
,
1000
0010
1000
1000
,
0001
0000
0010
0000
0001
0000
0001
0010
,
0200
0000
0000
0000
,
0000
0000
2300
0000
,
3001
0100
0001
1000
,
0001
0010
0100
1000
,
1100
0000
1000
0010
,
0100
0001
0000
0001
,
0100
0010
1000
0001
,
0010
0100
0010
0001
,
1001
0000
1001
0000
0010
0100
0010
0000
,
1001
0000
1001
0000
0100
0010
0100
0000
,
1001
0000
0001
0010
,
0001
0100
0100
0010
,
1000
0001
0100
0100
,
0001
1000
0100
0100
,
1001
0010
1000
0001
,
0100
0100
0010
0010
,
1001
0000
0001
0010
0001
0000
1000
0000
,
0100
0000
1000
0010
1000
0000
0001
0000
,
0100
0000
0001
0100
0010
0000
0100
0000
,
0001
0000
1000
0010
0100
0000
0010
0000
,
1000
0000
0001
0010
0100
0000
1000
0000
,
0100
0000
0010
0001
1000
0000
0010
0000
,
0100
0000
0010
1000
0001
0000
1000
0000
,
0010
0000
0100
0000
0010
0000
0100
0010
,
1000
1000
1000
1000
,
0001
0001
0001
0001
,
0100
0100
0010
0010
,
1000
0000
0001
0000
0100
0000
0010
1000
,
0001
0000
0001
0000
0010
0100
1000
0000
,
0001
0000
0001
0000
0010
0100
1000
0000
,
0001
0000
0001
0000
0100
0010
1000
0000
,
0001
0000
0001
0000
0100
0010
1000
0010
,
0200
0000
0000
0000
,
0000
0000
0302
0000
,
1003
1010
0001
0011
,
1000
1100
0001
0101
,
1001
0000
0000
0000
0000
0000
0000
0010
,
0100
0000
0000
0000
0000
0000
0000
0001
,
0010
0000
0000
0100
1000
0000
0000
0001
,
0100
0010
0100
0000
,
0001
0000
0010
0000
0100
1000
0001
0000
,
0100
0000
0010
0000
0100
0001
1000
0000
,
0010
0000
1000
0000
0001
0010
0100
0000
,
0010
0000
0001
0000
1000
0100
0010
0001
,
0200
0000
0000
0000
,
0000
0000
0320
0000
,
1030
0001
1000
0100
,
1000
0000
0001
0000
0010
0000
0100
0010
,
0001
0000
1000
0000
0010
1000
0001
0000
,
0100
0000
0000
0000
0001
1000
0010
0000
,
0100
0000
0000
0000
0010
1000
0001
0000
,
0010
0000
0000
0000
0001
0010
0100
0000
,
1100
0000
0000
0000
1000
0001
0100
0000
,
0001
0000
0000
0000
0001
0100
0010
0000
,
1010
0000
0000
0000
1000
0010
0100
0000
,
0001
0001
1000
1000
,
1001
0001
0010
0100
,
1100
0010
0101
0010
,
1001
0100
1000
0001
,
0010
0000
0100
0000
0010
0001
1000
0020
,
0200
0000
0000
0000
,
0330
0000
0000
0000
;

//---------------dance-single - K. Pearman----------------
#NOTEDATA:;
#CHARTNAME:;
#STEPSTYPE:dance-single;
#DESCRIPTION:K. Pearman;
#CHARTSTYLE:;
#DIFFICULTY:Hard;
#METER:9;
#RADARVALUES:0.593641,0.591254,0.243909,0.144539,0.112921,460.000000,433.000000,27.000000,16.000000,0.000000,0.000000,2.000000,0.000000,0.000000,0.593641,0.591254,0.243909,0.144539,0.112921,460.000000,433.000000,27.000000,16.000000,0.000000,0.000000,2.000000,0.000000,0.000000;
#CREDIT:;
#NOTES:
0000
0000
0000
0000
,
0000
0000
0000
0000
,
0000
0000
0000
0000
,
0000
0000
0000
0000
,
0011
0000
0000
0001
0000
0000
0100
0000
0000
0000
0001
0000
0010
0000
0100
0000
,
1000
0000
0000
0010
0000
0000
0100
0000
0000
0000
0010
0000
0000
0000
1000
0000
,
0011
0000
0000
0010
0000
0000
0001
0000
0000
0000
1000
0000
0010
0000
0100
0000
,
0004
4000
0000
0000
0000
0000
0000
0000
0000
0000
0000
0000
3003
0000
0000
0000
,
0001
0100
1000
0100
0001
0010
0001
0000
,
1000
0100
0001
0100
1000
0010
1000
0000
,
0010
0100
0010
0100
0001
1000
0001
1000
,
0100
0010
0100
0010
1000
0001
1000
0001
,
0010
1000
0001
0010
0100
0100
0100
0000
,
0010
0001
1000
0010
0100
0100
0100
0000
,
0010
1000
0001
0000
0010
0001
1000
0000
,
0001
0000
1000
0000
0100
0000
0010
0000
0001
0000
1000
0000
0010
1000
0001
0000
,
0200
1000
0010
0001
,
0010
1000
0302
0010
,
2003
0000
3100
0000
0010
0001
0100
0000
,
0001
0000
0100
0000
0010
1000
0100
0010
,
0001
0100
0001
0000
1000
0000
0000
0000
0001
0000
0010
0000
0100
0000
0000
0000
,
1100
0101
1100
0101
,
1000
0010
1000
0000
0001
0000
0000
0000
1000
0000
0100
0000
0010
0000
0000
0000
,
0011
1010
0011
1010
,
0001
0000
0000
0100
0000
0000
0001
0000
0100
0000
0001
0000
1000
0000
0000
0000
,
1000
0000
0000
0100
0000
0000
1000
0000
0001
0000
1000
0000
0100
0000
0010
0000
,
0001
0000
0100
0000
0100
0000
0100
0010
,
0100
0000
0000
0000
0001
0000
0010
0000
0001
0000
0000
0100
0000
0000
1000
0000
,
1200
0000
0000
0000
0301
0000
0000
0000
0010
0000
0100
0000
1000
0001
1000
0000
,
0100
0000
0000
0000
0010
0000
0001
0000
1000
0000
0001
0000
0100
0010
0100
0000
,
0001
0010
0010
0000
0100
1000
0001
1000
,
0010
0100
0001
0010
0100
1000
0001
1000
,
1010
0000
0000
1000
0000
0000
0100
0000
0000
0000
1000
0000
0010
0000
0100
0000
,
0001
0000
0000
0010
0000
0000
0100
0000
0000
0000
0010
0000
0000
0000
0001
0000
,
0011
0000
0000
0001
0000
0000
0100
0000
0000
0000
0001
0000
0010
0000
0100
0000
,
1000
0000
0000
0010
0000
0000
0100
0000
0000
0000
0010
0000
1000
0000
0001
0000
,
2001
0000
0000
0100
0000
0000
3001
0000
0000
0000
0010
0000
0001
0000
1000
0000
,
0002
0000
0000
0100
0000
0000
1003
0000
0000
0000
0110
0000
0000
0000
0001
0000
,
2100
0000
0000
0001
0000
0000
3010
0000
0000
0000
0001
0000
1000
0000
0010
0000
,
0102
0000
0000
1000
0000
0000
0013
0000
0000
0000
0100
0000
1000
0000
0001
0100
,
0010
0000
0010
0000
0010
0000
0010
0100
,
0001
0000
0001
0000
0001
0000
0001
1000
,
0100
0000
0100
0000
0100
0000
0100
0010
,
1000
0001
0010
0100
0001
1000
0100
0000
,
0010
0001
1000
0010
0100
0100
0100
0000
,
0010
1000
0001
0010
0100
0100
0100
0000
,
0010
0001
1000
0000
0010
1000
0001
0000
,
0010
0001
1000
0100
0010
0001
1000
0010
,
0200
1000
0010
0001
,
0010
1000
0302
0010
,
2003
0000
3100
0000
0010
0001
1000
0000
,
0010
0100
0001
1000
0100
0010
0001
1000
,
1001
0000
0000
0000
0000
0000
0000
0001
,
0011
0000
0000
0000
0000
0000
0000
1000
,
1010
0000
0101
0000
,
0010
0000
0100
0001
0000
1000
0000
0100
0010
0000
0000
0000
0000
0000
0000
0000
,
1000
0001
1000
0010
0100
0100
0100
0000
,
0001
1000
0001
0010
0100
0100
0100
0000
,
0010
0001
0100
0000
0010
1000
0100
0000
,
1000
0100
0001
0100
0010
0100
1000
0001
,
0020
1000
0001
0100
,
0001
1000
0032
1000
,
0203
1000
0010
0301
,
1000
0000
0100
0000
0010
0000
0001
0000
1000
0000
0010
0000
0100
0000
0001
1000
,
0001
0010
0001
0100
0001
1000
1000
0000
,
1000
0010
1000
0100
1000
0001
0001
0000
,
0100
0010
0100
0000
0001
0010
0100
0000
,
1000
0010
0100
0000
0001
0100
0010
1000
,
1100
0000
1000
0100
0001
0100
1000
0010
,
1000
0000
0001
0100
0001
0010
1000
0010
,
0011
0000
0001
0100
0010
0000
1000
0010
,
0100
0001
0100
1000
0100
0001
1000
0000
,
1001
0000
0100
1000
0010
1000
0100
0000
,
0011
0000
0100
0001
0011
0000
0100
1000
,
1010
0000
0010
0100
0001
0100
0010
0000
,
1000
0100
0001
0100
1000
0010
0001
0020
,
2000
0000
0000
0000
,
3030
0000
0000
0000
;

//---------------dance-single - K. Pearman----------------
#NOTEDATA:;
#CHARTNAME:;
#STEPSTYPE:dance-single;
#DESCRIPTION:K. Pearman;
#CHARTSTYLE:;
#DIFFICULTY:Challenge;
#METER:12;
#RADARVALUES:1.071135,1.166360,0.171640,0.009034,1.598959,830.000000,811.000000,19.000000,1.000000,77.000000,0.000000,0.000000,0.000000,0.000000,1.071135,1.166360,0.171640,0.009034,1.598959,830.000000,811.000000,19.000000,1.000000,77.000000,0.000000,0.000000,0.000000,0.000000;
#CREDIT:K. Pearman;
#NOTES:
0000
0000
0000
0000
,
0000
0000
0000
0000
,
0000
0000
0000
0000
,
0000
0000
0000
0000
,
0001
0100
0000
0001
1000
0000
0100
0000
0000
0000
1000
0000
0010
0000
0100
0000
,
0001
1000
0000
0001
0100
0000
0010
0000
0000
0000
1000
0000
0000
0000
0001
0000
,
1000
0100
0000
1000
0001
0000
0010
0000
0000
0000
0100
0000
1000
0000
0001
0000
,
1000
0001
1000
0001
1000
0001
1000
0001
1000
0001
1000
0001
1000
0001
1000
0001
,
1000
0000
0010
0100
0000
0001
1000
0100
0000
0010
0001
0000
1000
0010
0100
0001
,
1000
0000
0010
0100
0000
0010
1000
0001
0000
0100
0010
0000
1000
0100
0010
0001
,
0100
0000
1000
0000
0100
0000
0001
0000
0100
0010
0100
0000
0001
0010
0100
1000
,
0001
0100
0010
0100
0001
1000
0001
0010
0100
0010
0001
1000
0001
0100
0010
0100
,
0001
0010
0100
0000
1000
0010
0000
1000
0001
0000
1000
0100
1000
0010
0100
0001
,
0100
0010
1000
0000
0001
0010
0000
0001
1000
0000
0100
0010
0001
0100
0001
0010
,
0100
1000
0000
0001
0100
0000
0010
1000
0000
0001
0010
0100
1000
0001
0100
0010
,
1000
0010
0000
1000
0001
0000
0100
0010
0000
1000
0100
0000
0010
0001
0100
0010
,
1000
0100
0010
0001
1000
0100
0010
0001
1000
0100
0010
0001
1000
0100
0010
0001
,
1000
0100
0010
0001
1000
0100
0010
0001
1000
0010
0100
0001
1000
0010
0100
0001
,
1000
0001
0100
0000
1000
0100
0000
0100
0001
0000
1000
0010
0100
0001
0010
0000
,
0100
1000
0001
1000
0010
0100
0010
1000
0001
1000
0100
0010
0100
1000
0001
1000
,
0010
0000
0100
0001
0010
0000
0100
1000
0010
0000
0100
0000
0010
1000
0010
0000
,
0010
0100
0010
0000
0010
0001
0010
0000
0010
0100
0010
0000
0010
1000
0010
0100
,
0010
0000
0100
0001
0010
0000
0100
0000
1000
0000
0001
0000
0100
1000
0100
0000
,
0100
0010
0100
0000
0100
0001
0100
0000
0100
0010
0100
0000
0100
1000
0100
0010
,
0100
0000
0001
0010
0000
0001
0100
0000
0001
0000
0010
0000
1100
0000
1000
0000
,
0001
0000
1000
0100
0000
1000
0010
0000
1000
0000
0010
0000
0100
0000
0001
0000
,
0101
0000
0000
0000
0M0M
0000
0000
0000
1000
0000
0001
0100
0001
0010
0001
0000
,
1000
0000
0001
0000
1100
0000
0101
0000
1001
0000
0001
0100
0010
0100
0001
0000
,
0101
0000
0000
0000
1000
0010
0100
0010
1000
0001
0010
0100
0010
0001
1000
0000
,
0010
0100
0001
0000
1000
0000
0001
0000
0100
0000
0010
1000
0001
0000
1000
0000
,
0100
0010
0001
1000
0001
0100
0010
0100
0001
1000
0001
0010
0100
0010
0001
1000
,
0001
0100
0010
0100
0001
1000
0100
0010
0001
1000
0010
0100
0001
1000
0100
0010
,
0001
0100
0000
0100
1000
0000
1100
0000
0000
0000
0100
0000
0001
0000
0010
0000
,
0001
1000
0000
0001
0010
0000
0011
0000
0000
0000
0110
0000
0000
0000
1100
0000
,
0001
0100
0000
0001
1000
0000
0010
0000
0000
0000
0100
0000
0001
0000
1000
0000
,
0001
0010
0000
0010
1000
0000
1010
0000
0000
0000
0010
0000
0001
0000
0100
0000
,
0001
0100
0000
0010
0100
0000
0110
0000
0000
0000
1000
0000
0001
0000
0100
0000
,
0010
0100
0000
0010
1000
0000
0001
0000
0000
0000
1100
0000
0000
0000
0001
0000
,
0011
0000
0000
0100
1000
0000
0001
0000
0000
0000
0100
0000
0010
0000
0100
0000
,
0001
1000
0001
1000
0001
1000
0001
1000
0001
1000
0001
1000
0001
1000
0001
1000
,
0001
0000
0000
0000
0000
0000
M000
0000
0000
0000
0000
0000
0001
0000
0000
M000
0000
0000
0000
0000
M000
0000
0000
0000
0001
0000
0000
0000
M000
0000
0000
0000
M000
0000
0000
0000
0001
0000
0000
0000
0000
0000
1000
0000
0000
0000
0000
0000
,
0001
0000
0000
0000
M000
0000
0000
0000
0000
0000
0000
0000
0000
0000
0000
0000
M000
0000
0000
0000
0000
0000
0000
0000
0001
0000
0000
M000
0000
0000
0000
0000
0000
0000
0000
0000
0000
0000
0000
0000
0000
0000
0000
0000
0000
M000
0000
0000
0001
0000
0000
0000
0000
0000
0000
0000
0000
0000
0000
0000
M000
0000
0000
0000
0000
0000
0000
0000
0000
0000
0000
0000
0001
0000
0000
0000
0000
0000
0000
0000
M000
0000
0000
0000
0100
0000
0000
0000
0000
0000
0000
0000
M000
0000
0000
0000
,
0001
0000
M000
0000
0001
M000
0000
0000
M001
0000
M000
0000
M001
0000
0000
0000
,
M001
0000
0001
0000
M001
0000
0001
0000
1000
0100
0010
0001
1000
0010
0100
0001
,
1000
0100
0010
0000
0001
0100
0000
0001
1000
0000
0001
0010
0001
0100
0010
1000
,
0010
0100
0001
0000
1000
0100
0000
1000
0001
0000
0010
0100
1000
0010
1000
0100
,
0010
0001
0000
1000
0010
0000
0100
0001
0000
1000
0100
0010
0001
1000
0010
0100
,
0001
0100
0000
0001
1000
0000
0010
0100
0000
0001
0010
0000
0100
1000
0010
0100
,
0001
0010
0100
1000
0001
0010
0100
1000
0001
0010
0100
1000
0001
0010
0100
1000
,
0001
0010
0100
1000
0001
0010
0100
1000
0001
0100
0010
1000
0001
0100
0010
1000
,
0001
1000
0010
0000
0001
0010
0000
0010
1000
0000
0001
0100
0010
1000
0100
0000
,
0010
0001
1000
0100
1000
0001
0100
0001
1000
0010
1000
0001
0010
0001
0100
0010
,
0100
0000
M000
000M
MMM0
0000
000M
0000
M000
0000
000M
0000
00M0
0000
0100
0000
,
1001
0000
00M0
0M00
00M0
M00M
0M00
0000
00M0
0000
M000
0000
000M
0000
0010
0000
,
1001
0000
0000
M00M
0000
0000
0000
0000
0110
0000
0000
0MM0
0000
0000
0000
0000
,
1000
0000
0001
0100
0000
0010
0000
1000
0001
0000
0MM0
0000
M00M
0000
0000
0000
,
0001
0010
0100
0000
1000
0010
0000
1000
0001
0000
1000
0100
1000
0010
0100
0001
,
0100
0010
1000
0000
0001
0010
0000
0001
1000
0000
0100
0010
0001
0100
0001
0010
,
0100
1000
0000
0001
0100
0000
0010
1000
0000
0001
0010
0100
1000
0001
0100
0010
,
1000
0010
0000
1000
0001
0000
0100
0010
0000
1000
0100
0000
0010
0001
0100
0010
,
1000
0100
0010
0001
1000
0100
0010
0001
1000
0100
0010
0001
1000
0100
0010
0001
,
1000
0100
0010
0001
1000
0100
0010
0001
1000
0010
0100
0001
1000
0010
0100
0001
,
1000
0001
0100
0000
1000
0100
0000
0100
0001
0000
1000
0010
0100
0001
0010
0000
,
0100
1000
0010
1000
0001
0100
0010
0100
0001
0010
0100
1000
0001
0100
0010
0100
,
0001
0000
0000
0000
MMM0
0000
0001
0100
1000
0100
0001
0000
0010
0000
0100
0000
,
1000
0000
0MMM
0000
0000
0000
1000
0010
0001
0010
1000
0000
0001
0000
0100
0000
,
0010
0100
0001
1000
0100
0000
0100
0001
0000
0100
1000
0010
0100
0000
0100
0000
,
M0MM
0000
0100
0001
0010
0000
0010
0000
0100
1000
0001
1000
0001
0000
0100
0000
,
1001
0000
0010
0000
0000
0000
0010
0100
0001
0010
0100
1000
0001
0100
0010
0000
,
0010
0000
0100
0000
0000
MMM0
0000
0000
0001
0000
0010
0100
0000
1000
0001
0000
,
1001
0000
1000
0000
0001
0000
0100
0010
0100
0001
1000
0000
0000
M00M
0000
0000
,
0001
0010
0100
1000
0001
0100
0010
0100
0001
1000
0010
0100
0010
1000
0001
0010
,
0100
0010
0001
1000
0100
0010
0001
1000
0010
0100
0001
1000
0010
0100
1000
0100
,
0010
1000
0001
0010
0100
0001
0100
0010
0001
1000
0010
0100
0010
1000
0001
0100
,
0010
0100
0001
1000
0010
0100
0001
0010
0100
0001
0100
0010
0001
1000
0010
0100
,
1000
0100
0010
1000
0001
0010
0100
1000
0001
0100
0010
1000
0100
0010
0001
0100
,
2000
000M
00M0
0M00
,
000M
0000
00M0
0000
0M00
0000
0000
0000
000M
00M0
0M00
0000
000M
00M0
0M00
0000
,
300M
00M0
0M00
0000
M000
0000
0000
0000
0000
0000
0000
0000
0000
0000
0000
0000
;

//---------------dance-double - K. Pearman----------------
#NOTEDATA:;
#CHARTNAME:;
#STEPSTYPE:dance-double;
#DESCRIPTION:K. Pearman;
#CHARTSTYLE:;
#DIFFICULTY:Easy;
#METER:5;
#RADARVALUES:0.329084,0.347796,0.162606,0.009034,0.000000,255.000000,237.000000,18.000000,1.000000,0.000000,0.000000,1.000000,0.000000,0.000000,0.329084,0.347796,0.162606,0.009034,0.000000,255.000000,237.000000,18.000000,1.000000,0.000000,0.000000,1.000000,0.000000,0.000000;
#CREDIT:;
#NOTES:
00000000
00000000
00000000
00000000
,
00000000
00000000
00000000
00000000
,
00000000
00000000
00000000
00000000
,
00000000
00000000
00000000
00000000
,
00100000
00001000
00010000
00000000
,
00000010
00010000
00001000
00000000
,
01000000
00001000
00010000
00000000
,
00000400
00000000
00000000
00000300
,
00000010
00000001
00000100
00000000
,
00000010
00001000
00000100
00000000
,
00010000
00001000
00100000
01000000
,
10000000
00010000
01000000
00000000
,
10010000
00000000
00100000
01000000
,
00001000
00000000
00010000
00000100
,
00000010
00000000
00001000
00000010
,
00000001
00000000
00000001
00000100
,
00001000
00010000
00001000
00000100
,
00001000
00010000
01000000
00010000
,
00001000
00000000
00010000
00000000
,
00001000
00010000
00001000
00010000
,
00011000
00000000
00001000
00100000
,
01000000
01000000
01000000
01000000
,
00100000
00000000
00001000
00010000
,
00000100
00000100
00000100
00000100
,
00010000
00001000
00000100
00000010
,
00000100
00001000
00010000
01000000
,
00100000
00000000
00010000
10000000
,
10010000
00000000
00100000
00000000
,
01010000
00100000
10000000
00000000
,
10000000
01000000
00100000
00010000
,
11000000
00100000
00010000
00000000
,
01000000
00001000
00010000
00000100
,
00001000
00000100
00000010
00000000
,
00000100
00001000
00000001
00000100
,
00001000
00010000
01000000
00000000
,
00100000
00010000
10000000
00100000
,
00010000
00001000
00010000
00100000
,
10000000
00010000
01000000
00000000
,
01000000
00001000
00010000
00000100
,
00000001
00000100
00001000
00000001
,
00000100
00000100
00000100
00000100
,
00000010
00000010
00000010
00000010
,
00010000
00010000
00001000
00001000
,
00100000
01000000
10000000
00010000
,
10010000
00000000
00010000
01000000
,
00100000
00000000
10000000
01000000
,
00100000
00000000
01000000
10000000
,
00010000
01000000
00100000
10000000
,
00100000
00010000
00001000
00000010
,
00000001
00000010
00001000
00010000
,
01000000
00000000
00100000
00000000
,
00010000
01000000
00010000
01000000
,
10010000
00000000
00000000
00000000
,
01100000
00000000
00000000
00000000
,
00011000
00000000
00000110
00000000
,
00001001
00000000
00000000
00000000
,
00000001
00000100
00001000
00000100
,
00000001
00000010
00001000
00000010
,
00000001
00001000
00000100
00010000
,
00001000
01000000
00010000
10000000
,
01000000
10000000
01000000
00010000
,
00001000
00000100
00000001
00000100
,
00000010
00001000
00000100
00000000
,
00010000
00001000
00010000
00001000
,
01001000
00000000
00010000
01000000
,
01100000
00000000
00100000
10000000
,
01000000
00010000
00001000
00000100
,
00000001
00000010
00001000
00010000
,
00010010
00000000
00000010
00000100
,
00000001
00000000
00001000
00000100
,
00000110
00000000
00000100
00010000
,
00001000
01000000
00001000
00010000
,
00010100
00000000
00001000
00000000
,
01001000
00000000
00010000
00000000
,
00011000
00000000
00001000
00100000
,
01000000
00010000
00001000
00000100
,
00000020
00000000
00000000
00000000
,
00000030
00000000
00000000
00000000
;

//---------------dance-double - K. Pearman----------------
#NOTEDATA:;
#CHARTNAME:;
#STEPSTYPE:dance-double;
#DESCRIPTION:K. Pearman;
#CHARTSTYLE:;
#DIFFICULTY:Medium;
#METER:6;
#RADARVALUES:0.387157,0.452135,0.135505,0.018067,0.000000,300.000000,285.000000,15.000000,2.000000,0.000000,0.000000,0.000000,0.000000,0.000000,0.387157,0.452135,0.135505,0.018067,0.000000,300.000000,285.000000,15.000000,2.000000,0.000000,0.000000,0.000000,0.000000,0.000000;
#CREDIT:;
#NOTES:
00000000
00000000
00000000
00000000
,
00000000
00000000
00000000
00000000
,
00000000
00000000
00000000
00000000
,
00000000
00000000
00000000
00000000
,
00100000
01000000
00010000
00010000
,
00100000
00001000
00010000
00010000
,
00000100
00000000
00001000
00000000
00000010
00000000
00000010
00000100
,
00000002
00000000
00000000
00000000
,
00001003
00000001
00000100
00000100
,
00000001
00001000
00000100
00000000
,
00010000
00001000
01000000
01000000
,
00010000
00000000
10000000
00000000
01000000
10000000
00010000
00100000
,
01000000
01000000
01100000
00000000
,
00100000
00001000
00010000
00000000
,
00001000
00000100
00000110
00000000
,
00000010
00000000
00000100
00000000
,
00000001
00001000
00000100
00010000
,
00001000
01000000
00010000
10000000
,
10010000
00000000
00100000
00000000
10000000
01000000
00100000
00000000
,
00010000
00000000
10000000
00000000
00010000
01000000
00100000
10000000
,
00010000
00000000
00100000
00001000
,
00010000
00001000
01000000
00001000
,
00010000
00000000
00000100
00010000
,
00001000
00010000
00000010
00010000
,
00001000
00000000
00000100
00000000
00000001
00000010
00000001
00000000
,
00000100
00000000
00001000
00000000
00010000
00001000
00010000
00000000
,
01000000
00000000
10000000
00100000
,
10000000
00010000
00100000
00010000
,
01010000
00000000
00010000
00100000
,
00001000
00010000
00000100
00001000
,
00001010
00000000
00000010
00000100
,
00000001
00001000
00000100
00001000
,
00000001
00000000
00000001
00000010
00000000
00000000
00000100
00000000
,
00010000
00001000
01000000
00010000
,
10000000
00000000
10000000
00100000
00000000
00000000
00100000
00000000
,
10000000
01000000
00010000
00001000
,
00000100
00000000
00000001
00000010
00000000
00000000
00000001
00000000
,
00000100
00001000
00010000
01000000
,
10000000
00000000
00100000
10000000
00000000
00000000
00100000
00000000
,
01000000
00001000
00010000
00000100
,
00000010
00000000
00000010
00000000
00000010
00000000
00000010
00000001
,
00001000
00000000
00001000
00000000
00001000
00000000
00001000
00000010
,
00010000
00000000
00010000
00001000
00100000
00000000
00100000
00010000
,
10000000
01000000
00100000
00010000
,
10010000
00010000
01000000
00100000
,
10000000
01000000
00010000
00001000
,
00000100
00000000
00000001
00000000
00001000
00000001
00001000
00000000
,
00000100
00000000
00000100
00001000
,
00000001
00000100
00001000
00010000
,
01000000
10000000
01000000
00010000
,
00001000
00000000
00000100
00000001
00000010
00000000
00000100
00000000
,
00001000
00000010
00010000
00001000
,
00011000
00000000
00000000
00000000
00000000
00000000
00000000
00010000
,
10000000
00000000
00000000
00000000
00000000
00000000
00000000
00001000
,
00010000
00000000
00001001
00000000
,
00000001
00000000
00000010
00000100
00001000
00000000
00000000
00000000
,
00000001
00000000
00000100
00000000
00000001
00000100
00000010
00000000
,
00001000
00000100
00010000
00001000
,
01000000
00000000
00010000
00000000
10000000
01000000
00100000
00000000
,
00010000
00000000
10000000
00000000
00100000
00000000
00010000
00001000
,
00010000
00001000
01000000
10000000
,
01000000
00001000
00010000
00000100
,
00000001
00000100
00010000
00001000
,
00100000
00000010
00010000
00001000
,
00011000
00000000
00000000
00000000
00001000
00010000
00001000
00000000
,
01000000
00000000
00000000
00000000
00010000
10000000
00010000
00000000
,
00100000
00000000
00001000
00010000
,
00000010
00000000
00001000
00000001
,
00001100
00000000
00000001
00000100
,
00000010
00010000
00001000
00100000
,
00110000
00000000
01000000
10000000
,
00010000
10000000
00100000
00000000
01000000
00010000
10000000
00000000
,
10010000
01000000
00100000
00001000
,
00011000
00010000
00001100
00000100
,
00000011
00000001
00000100
00001000
,
00000100
00000001
00000010
00000000
00000100
00001000
00000010
00000000
,
00020000
00000000
00000000
00000000
,
00030000
00000000
00000000
00000000
;

//---------------dance-double - K. Pearman----------------
#NOTEDATA:;
#CHARTNAME:;
#STEPSTYPE:dance-double;
#DESCRIPTION:K. Pearman;
#CHARTSTYLE:;
#DIFFICULTY:Hard;
#METER:9;
#RADARVALUES:0.584607,0.626033,0.162606,0.081303,0.090337,453.000000,435.000000,18.000000,9.000000,0.000000,0.000000,0.000000,0.000000,0.000000,0.584607,0.626033,0.162606,0.081303,0.090337,453.000000,435.000000,18.000000,9.000000,0.000000,0.000000,0.000000,0.000000,0.000000;
#CREDIT:;
#NOTES:
// measure 0
00000000
00000000
00000000
00000000
,  // measure 1
00000000
00000000
00000000
00000000
,  // measure 2
00000000
00000000
00000000
00000000
,  // measure 3
00000000
00000000
00000000
00000000
,  // measure 4
00010000
00000000
00000000
01000000
00000000
00000000
00010000
00000000
00000000
00000000
00100000
00000000
00001000
00000000
00010000
00000000
,  // measure 5
00000010
00000000
00000000
00001000
00000000
00000000
00000010
00000000
00000000
00000000
00000100
00000000
00000000
00000000
00001000
00000000
,  // measure 6
00010000
00000000
00000000
01000000
00000000
00000000
00010000
00000000
00000000
00000000
00001000
00000000
00010000
00000000
00001000
00000000
,  // measure 7
00000200
00000000
00000000
00000300
,  // measure 8
00000001
00000010
00001000
00010000
00100000
10000000
00100000
00000000
,  // measure 9
10000000
00100000
00010000
00001000
00000010
00000001
00000010
00000000
,  // measure 10
00000001
00000100
00000010
00000100
00001000
00010000
00100000
01000000
,  // measure 11
00100000
10000000
01000000
00100000
01000000
00010000
00001000
00000010
,  // measure 12
00000100
00000000
00001000
00000000
00000001
00000000
00000000
00000010
00000000
00000000
00000001
00000000
00001000
00000000
00000000
00000000
,  // measure 13
00000100
00000000
00010000
00000000
00001000
00000000
00000000
00100000
00000000
00000000
00001000
00000000
01000000
00000000
00100000
00000000
,  // measure 14
10000000
00000000
00010000
00000000
00100000
00000000
00000000
01000000
00000000
00000000
10000000
00000000
00100000
00000000
10000000
00000000
,  // measure 15
00010000
00000000
01000000
00000000
00010000
00000000
00000000
10000000
00000000
00000000
01000000
00000000
00100000
00000000
00010000
00000000
,  // measure 16
01000000
10000000
01000000
00010000
00100000
00001000
00010000
00000010
,  // measure 17
00001000
00000100
00000001
00000100
00001000
00000010
00010000
00001000
,  // measure 18
00011000
00000000
00010000
00000000
01000000
10000000
00100000
00000000
,  // measure 19
00010000
00000000
00001000
00000000
00000100
00000001
00000010
00000000
,  // measure 20
00001001
00000000
00000001
00000010
00000001
00000100
00000001
00000000
,  // measure 21
00001000
00001100
00000001
00000101
,  // measure 22
00000100
00000000
00001000
00000000
00010000
01000000
10000000
00000000
,  // measure 23
00100000
10100000
01000000
02010000
,  // measure 24
03100000
00000000
00000000
00100000
00000000
00000000
10000000
00000000
00010000
00000000
10000000
00000000
00010000
00000000
00000000
00000000
,  // measure 25
00100000
00000000
00000000
00100000
00000000
00000000
00100000
00000000
00010000
00000000
10000000
00000000
00010000
00000000
10000000
00000000
,  // measure 26
01000000
00000000
00100000
00001000
00010000
00000010
00010000
00001000
,  // measure 27
01000000
00000000
00000000
00000000
00001000
00000000
00010000
00000000
00001000
00000000
00000000
00000100
00000000
00000000
00000010
00000000
,  // measure 28
00000110
00000000
00001001
00000000
00001000
00000100
00010000
01000000
,  // measure 29
00100000
00000000
00010000
01000000
10000000
01000000
00100000
10000000
,  // measure 30
01000000
00010000
00000100
00000000
00000010
00000001
00001000
00000000
,  // measure 31
00000010
00000010
00000100
00000100
00000001
00000001
00001000
00001000
,  // measure 32
00001000
00000000
00000000
00000010
00000000
00000000
00001000
00000000
00000000
00000000
00000100
00000000
00010000
00000000
00001000
00000000
,  // measure 33
01000000
00000000
00000000
00010000
00000000
00000000
01000000
00000000
00000000
00000000
00100000
00000000
00000000
00000000
00010000
00000000
,  // measure 34
00001000
00000000
00000000
00000010
00000000
00000000
00001000
00000000
00000000
00000000
00010000
00000000
00001000
00000000
00010000
00000000
,  // measure 35
01000000
00000000
00000000
10000000
00000000
00000000
00100000
00000000
00000000
00000000
01000000
00000000
00000000
00000000
00100000
00000000
,  // measure 36
10000000
00000000
00000000
01000000
00000000
00000000
00010000
00000000
00000000
00000000
00001000
00000000
00000100
00000000
00000001
00000000
,  // measure 37
00000010
00000000
00000000
00000100
00000000
00000000
00000010
00000000
00000000
00000000
00000001
00000000
00000000
00000000
00001000
00000000
,  // measure 38
00000100
00000000
00000000
00010000
00000000
00000000
00001000
00000000
00000000
00000000
01000000
00000000
00100000
00000000
01000000
00000000
,  // measure 39
00010000
00010000
10000000
10000000
01000000
01000000
00100000
00100000
,  // measure 40
01000000
01000000
01000000
01000000
,  // measure 41
00100000
00100000
00100000
00100000
,  // measure 42
00001000
00000100
00000001
00000010
,  // measure 43
00001000
00010000
01000000
10000000
,  // measure 44
10000000
01000000
00100000
00001000
00010000
00000010
00000100
00000000
,  // measure 45
00000010
00000100
00000001
00000010
00001000
00010000
01000000
00000000
,  // measure 46
00100000
00010000
10000000
00010000
01000000
00001000
00010000
00000100
,  // measure 47
00001000
00000001
00001000
00000010
00001000
00000100
00010000
00001000
,  // measure 48
00100000
00010000
01000000
10000000
01000000
00010000
00100000
00001000
,  // measure 49
00010000
00000010
00001000
00000100
00000001
00000100
00001000
00000010
,  // measure 50
00000100
00000000
00001001
00000000
00000001
00000010
00000100
00000000
,  // measure 51
00010000
00000000
00011000
00000000
00001000
01000000
00010000
00000000
,  // measure 52
01000000
00000000
00100000
00000000
00100000
00000000
00100000
01000000
,  // measure 53
00010000
00000000
00010000
00000000
00010000
00000000
00010000
00100000
,  // measure 54
10000000
00000000
10000000
00100000
00010000
00000000
00010000
01000000
,  // measure 55
00001000
00000000
00001000
00010000
00000000
00000100
00000000
00001000
00000010
00000000
00000000
00000000
00000100
00000000
00000000
00000000
,  // measure 56
00001001
00000000
00000001
00000000
00000010
00000100
00001000
00000100
,  // measure 57
00010000
00000000
00001000
00000000
00010000
00001000
01000000
00010000
,  // measure 58
01000000
00000000
00100000
00000000
10000000
01000000
00010000
00000000
,  // measure 59
01000000
00000000
10000000
00000000
00010000
00100000
10000000
00000000
,  // measure 60
00100000
00010000
01000000
10000000
01000000
00010000
00100000
00001000
,  // measure 61
00010000
00000100
00000001
00000100
00001000
00000010
00000001
00000010
,  // measure 62
00000100
00000001
00001000
00000000
00000100
00001000
00000010
00000000
,  // measure 63
00010000
00001000
00100000
00001000
00010000
00000010
00010000
00001000
,  // measure 64
00011000
00000000
00000000
00000000
00001000
00010000
00200000
00000000
,  // measure 65
01300000
00000000
00000000
00000000
01000000
00010000
20000000
00000000
,  // measure 66
30010000
00000000
00000000
00000000
10000000
01000000
00020000
00000000
,  // measure 67
00031000
00000000
00000000
00000000
00010000
00001000
00000100
00000000
,  // measure 68
00000201
00000000
00000310
00001000
00000100
00000010
00000002
00000000
,  // measure 69
00000013
00000010
00000001
00000000
00000010
00000100
00010000
00000000
,  // measure 70
00010010
00000000
00010000
00000010
00010000
00001000
00200000
00000000
,  // measure 71
00301000
00000000
00001000
00100000
00010000
10000000
01000000
00000000
,  // measure 72
11000000
00000000
10000000
01000000
00010000
00001000
00000100
00000000
,  // measure 73
00000110
00000000
00000100
00001000
00011000
00000000
00010000
01000000
,  // measure 74
01100000
00000000
00100000
00010000
01000000
00001000
00010000
00000100
,  // measure 75
00001000
00000010
00010000
00001000
00100000
01000000
00010000
00001000
,  // measure 76
00000200
00000000
00000000
00000000
,  // measure 77
00000300
00000000
00000000
00000000
;

//---------------dance-double - K. Pearman----------------
#NOTEDATA:;
#CHARTNAME:;
#STEPSTYPE:dance-double;
#DESCRIPTION:K. Pearman;
#CHARTSTYLE:;
#DIFFICULTY:Challenge;
#METER:11;
#RADARVALUES:0.903367,1.147728,0.090337,0.009034,0.803997,700.000000,690.000000,10.000000,1.000000,0.000000,0.000000,0.000000,0.000000,0.000000,0.903367,1.147728,0.090337,0.009034,0.803997,700.000000,690.000000,10.000000,1.000000,0.000000,0.000000,0.000000,0.000000,0.000000;
#CREDIT:;
#NOTES:
00000000
00000000
00000000
00000000
,
00000000
00000000
00000000
00000000
,
00000000
00000000
00000000
00000000
,
00000000
00000000
00000000
00000000
,
10000000
01000000
00000000
01000000
00100000
00000000
00010000
00000000
00000000
00000000
01000000
00000000
00100000
00000000
01000000
00000000
,
00010000
00100000
00000000
00100000
00001000
00000000
00010000
00000000
00000000
00000000
00001000
00000000
00010000
00000000
00000100
00000000
,
00000010
00000001
00000000
00000001
00000100
00000000
00000010
00000000
00000000
00000000
00000100
00000000
00000001
00000000
00001000
00000000
,
00000100
00000010
00000100
00000010
00000100
00000010
00000100
00000010
00000100
00000010
00000100
00000010
00000100
00000010
00000100
00000010
,
00000001
00000000
00000100
00000010
00000000
00000100
00000000
00000001
00000000
00000000
00001000
00000000
00000100
00000000
00010000
00000000
,
00001000
00000000
00100000
00010000
00000000
00100000
00000000
01000000
00000000
00000000
00100000
00000000
00010000
00000000
01000000
00000000
,
00100000
00000000
01000000
00000000
10000000
00000000
01000000
00000000
00010000
00000000
10000000
00000000
01000000
00000000
00100000
00010000
,
10000000
00000000
00100000
00000000
01000000
00010000
00000000
01000000
00100000
00000000
01000000
00000000
00010000
00000000
10000000
00000000
,
01000000
00100000
00010000
00001000
00000010
00000100
00000001
00000000
,
00000001
00000100
00000010
00001000
00010000
00100000
01000000
00000000
,
10000000
01000000
00100000
00010000
01000000
10000000
01000000
00000000
,
00001000
00000000
00010000
00000000
00000100
00000000
00000001
00000000
00000100
00000000
00001000
00000000
00000010
00000000
00000100
00000001
,
00001000
00000010
00000100
00000001
00001000
00000010
00000100
00000001
00001000
00000010
00000100
00000001
00001000
00000010
00000100
00000001
,
00001000
00000010
00000100
00000001
00001000
00000010
00000100
00000001
00001000
00000100
00000010
00000001
00001000
00000100
00000010
00000001
,
00001000
00000100
00010000
00001000
01000000
00010000
01000000
00001000
,
00010000
00001000
00010000
00001000
00010000
00001000
00010000
00001000
00010000
00001000
00010000
00001000
00010000
00001000
00010000
00001000
,
00100000
00000000
01000000
10000000
00100000
00000000
01000000
00000000
00100000
00000000
10000000
00000000
01000000
00100000
01000000
00000000
,
01000000
10000000
01000000
00000000
01000000
00100000
01000000
00000000
10000000
00000000
00010000
00000000
01000000
00100000
01000000
00000000
,
00010000
00000000
00100000
00001000
00010000
00000000
00001000
00000000
00010000
00000000
00000010
00000000
00001000
00000010
00001000
00000000
,
00000010
00000100
00000010
00000000
00000010
00000001
00000010
00000000
00000010
00000100
00000010
00001000
00000001
00000010
00000100
00001000
,
00000010
00000000
00001000
00000100
00000000
00001000
00000010
00000000
00010000
00000000
00001000
00000000
00011000
00000000
00001000
00000000
,
00010000
00000000
01000000
00100000
00000000
00010000
10000000
00000000
00100000
00000000
01000000
00000000
00010000
00000000
10000000
00000000
,
11000000
00000000
01000000
10000000
00100000
10000000
01000000
00100000
,
00010000
00000000
01000000
00000000
00100000
00000000
00010000
00000000
00001000
00000000
00000010
00000001
00000000
00000100
00000010
00000000
,
00000100
00000000
00000001
00000000
00000010
00000100
00000010
00000000
00000001
00000000
00001000
00000000
00000010
00000100
00000010
00000000
,
00001000
00000000
00000100
00000000
00010000
00001000
00010000
00000000
00001000
00000000
01000000
00000000
00001000
00010000
00001000
00000000
,
00011000
00001000
01000000
00010000
00100000
01000000
10000000
00010000
,
01000000
00100000
10000000
00010000
00100000
01000000
10000000
00010000
01000000
00100000
10000000
00010000
00100000
01000000
10000000
00010000
,
01000000
00100000
00000000
01000000
00010000
00000000
01000000
00000000
00100000
00000000
10000000
00000000
01000000
00000000
00100000
00000000
,
00010000
01000000
00000000
00010000
00100000
00000000
00010000
00000000
01000000
00000000
00001000
00000000
00010000
00000000
00000100
00000000
,
00000010
00000100
00000000
00001000
00000100
00000000
00000010
00000000
00000001
00000000
00000100
00000000
00000010
00000000
00001000
00000000
,
00000010
00000100
00000000
00000010
00000001
00000000
00000010
00000000
00000100
00000000
00000001
00000000
00000010
00000000
00000100
00000000
,
00001000
00000100
00000000
00010000
00000100
00000000
00001000
00000000
00000010
00000000
00000100
00000000
00001000
00000000
00010000
00000000
,
00001000
00100000
00000000
00001000
00010000
00000000
00001000
00000000
00010000
00000000
00100000
00000000
01000000
00000000
00010000
00000000
,
00100000
01000000
00000000
10000000
01000000
00000000
00100000
00000000
00010000
00000000
10000000
00000000
00100000
00000000
01000000
00000000
,
00010000
01000000
00010000
01000000
00010000
01000000
00010000
01000000
00010000
01000000
00010000
01000000
00010000
01000000
00010000
01000000
,
00100000
00000000
00100000
00000000
00100000
00000000
00100000
01000000
,
00001000
00000000
00001000
00000000
00001000
00000000
00001000
00010000
,
00000100
00000000
00000100
00000000
00000100
00000000
00000100
00000010
,
00000001
00000000
00001000
00000000
00000010
00000000
00000100
00000000
00000001
00000000
00001000
00000000
00000100
00000010
00000001
00001000
,
00000010
00000000
00000100
00000000
00000001
00001000
00000000
00000100
00001000
00000000
00000010
00000000
00010000
00000000
00000100
00000000
,
00010000
00000000
00001000
00000000
00100000
00010000
00000000
01000000
00010000
00000000
10000000
00000000
00010000
00000000
01000000
00000000
,
00100000
00000000
10000000
00000000
01000000
00100000
00000000
01000000
10000000
00000000
01000000
00000000
00100000
00000000
00010000
00000000
,
10000000
00000000
00100000
00000000
01000000
00010000
00000000
01000000
00100000
00000000
01000000
00000000
00010000
10000000
01000000
00100000
,
00010000
10000000
00100000
01000000
00010000
10000000
01000000
00100000
00010000
10000000
00100000
01000000
00010000
10000000
01000000
00100000
,
00010000
10000000
00100000
01000000
00010000
10000000
01000000
00100000
00010000
01000000
00100000
10000000
00100000
01000000
00010000
10000000
,
00010000
01000000
00100000
01000000
00010000
00000000
00100000
00000000
01000000
00000000
10000000
00000000
00010000
00000000
01000000
00000000
,
00001000
00010000
00000100
00010000
00001000
00000000
00010000
00000000
00000100
00000000
00000010
00000000
00000001
00000000
00000100
00000010
,
00000100
00000000
00000001
00000000
00000001
00000000
00000001
00000010
,
00000100
00000000
00000100
00000000
00000100
00000000
00000100
00010000
,
00001000
00000000
00001000
01000000
00100000
00000000
00100000
01000000
,
00010000
00000000
10000000
01000000
00000000
00100000
00000000
01000000
10000000
00010000
10000000
00010000
10000000
00010000
10000000
00010000
,
01000000
00000000
10000000
00000000
01000000
00010000
00000000
01000000
00100000
00000000
01000000
00000000
00010000
00000000
00100000
00000000
,
00001000
00000000
00010000
00000000
00000100
00000010
00000000
00000100
00001000
00000000
00000100
00000000
00000001
00000000
00000100
00000000
,
00001000
00000000
00000010
00000000
00010000
00001000
00000000
00100000
00001000
00000000
00010000
00000000
00000010
00000000
00010000
00000000
,
00001000
00000000
01000000
00000000
00010000
00100000
00000000
00010000
00100000
00000000
01000000
00000000
10000000
00010000
01000000
00100000
,
10000000
01000000
00100000
00010000
10000000
00100000
01000000
00010000
10000000
01000000
00100000
00010000
10000000
00100000
01000000
00010000
,
10000000
01000000
00100000
00010000
10000000
00100000
01000000
00010000
10000000
01000000
10000000
01000000
10000000
01000000
10000000
01000000
,
00100000
00010000
01000000
00000000
00010000
00000000
01000000
00000000
00001000
00000000
00010000
00000000
00000100
00000000
00001000
00000000
,
00000010
00001000
00000100
00000000
00000010
00000000
00000001
00000000
00001000
00000000
00000010
00000000
00010000
00000000
00001000
00000000
,
00101000
00000000
00000000
00000000
00100000
00000000
00001000
00100000
00001000
00000000
00100000
00000000
00010000
00000000
10000000
00000000
,
01000000
00000000
10000000
01000000
00100000
00010000
01000000
00001000
,
00010000
00000100
00000010
00000100
00010000
00001000
00000100
00000001
,
00000010
00001000
00010000
00100000
10000000
01000000
00010000
00001000
,
00011000
00000000
00001000
00010000
00100000
01000000
00010000
01000000
,
00100000
10000000
01000000
00010000
00001000
00000100
00000001
00000010
,
00000110
00000000
00000100
00000010
00000001
00000100
00001000
00000000
,
00010000
01000000
10000000
00100000
01000000
00010000
10000000
00000000
,
11000000
00000000
01000000
10000000
00100000
00010000
00001000
00000000
,
00001010
00000000
00000010
00000001
00000101
00000000
00000001
00000100
,
00001100
00000000
00001000
00010000
01000000
00100000
00010000
10000000
,
00100000
01000000
00010000
10000000
01000000
00100000
00010000
01000000
00100000
01000000
00010000
01000000
00100000
10000000
00010000
00100000
,
02000000
00000000
00000000
00000000
,
03000000
00000000
00000000
00000000
;
