#VERSION:0.83;
#TITLE:Kissy Kissy;
#SUBTITLE:;
#ARTIST:Smile.DK;
#TITLETRANSLIT:;
#SUBTITLETRANSLIT:;
#ARTISTTRANSLIT:;
#GENRE:;
#ORIGIN:;
#CREDIT:;
#BANNER:Kissy Kissy-Banner.png;
#BACKGROUND:Kissy Kissy-Background.png;
#PREVIEWVID:;
#JACKET:;
#CDIMAGE:;
#DISCIMAGE:;
#LYRICSPATH:;
#CDTITLE:;
#MUSIC:Kissy Kissy - Smile DK.ogg;
#OFFSET:0.009000;
#SAMPLESTART:39.980000;
#SAMPLELENGTH:13.913000;
#SELECTABLE:YES;
#BPMS:0.000=138.000;
#STOPS:;
#DELAYS:;
#WARPS:;
#TIMESIGNATURES:0.000=4=4;
#TICKCOUNTS:0.000=4;
#COMBOS:0.000=1;
#SPEEDS:0.000=1.000=0.000=0;
#SCROLLS:0.000=1.000;
#FAKES:;
#LABELS:0.000=Song Start;
#BGCHANGES:0.000=Kissy Kissy.mp4=1.000=0=0=0=StretchNoLoop====,
268.000=Kissy Kissy-Background.png=1.000=0=0=0=StretchNoLoop==CrossFade_Faster==,
99999=-nosongbg-=1.000=0=0=0 // don't automatically add -songbackground-
;
#KEYSOUNDS:;
#ATTACKS:
;

//---------------dance-single - K. Pearman----------------
#NOTEDATA:;
#CHARTNAME:K. Pearman;
#STEPSTYPE:dance-single;
#DESCRIPTION:K. Pearman;
#CHARTSTYLE:;
#DIFFICULTY:Beginner;
#METER:2;
#RADARVALUES:0.128171,0.196629,0.058695,0.033540,0.000000,107.000000,100.000000,7.000000,4.000000,0.000000,0.000000,0.000000,0.000000,0.000000,0.128171,0.196629,0.058695,0.033540,0.000000,107.000000,100.000000,7.000000,4.000000,0.000000,0.000000,0.000000,0.000000,0.000000;
#CREDIT:K. Pearman;
#NOTES:
0000
0000
0000
0000
,
0000
0000
0000
0000
,
0000
0000
0000
0000
,
0000
0000
0000
0000
,
0000
0000
0000
0000
,
0000
0000
0000
0000
,
0000
0000
0000
0000
,
0010
0000
0000
0000
,
0001
0000
0000
0000
,
1000
0000
0000
0000
,
0010
0000
0000
0000
,
0010
0000
0000
0000
,
1000
0000
0000
0000
,
0001
0000
0000
0000
,
0010
0000
0000
1001
,
1001
0000
0000
0000
,
0100
0100
0000
0000
,
0001
0000
0000
0000
,
0100
0100
0000
0000
,
1000
0000
0000
0000
,
0010
0010
0000
0000
,
0001
0000
0000
0000
,
0010
0010
0000
0000
,
1001
0000
0001
0000
,
0100
0000
1000
0000
,
1000
0000
0100
0000
,
0001
0000
0001
0000
,
0010
0000
1000
0000
,
1000
0000
0010
0000
,
0001
0000
0001
0000
,
0100
0100
0100
0000
,
0010
0000
0010
0000
,
1000
0000
0000
0000
,
0010
0000
0010
0000
,
0001
0000
0000
0000
,
0100
0000
0100
0000
,
1000
0000
0000
0000
,
0100
0000
0100
0000
,
0001
0000
2002
0000
,
0000
0000
0000
0000
,
0000
0000
0000
0000
,
0000
0000
0000
0000
,
3003
0000
0000
0000
,
1000
0000
0010
0000
,
0100
0000
0000
0000
,
0001
0000
0010
0000
,
0100
0000
0000
1001
,
0000
0000
0010
0000
,
0100
0000
0100
0000
,
0001
0000
0010
0000
,
0100
0000
1000
0000
,
1000
1000
0000
0010
,
0000
0001
0000
0010
,
0000
1000
0000
0100
,
0000
0001
0000
1001
,
0000
0001
0000
0100
,
0000
1000
0000
0010
,
0000
0001
0000
0010
,
0000
1000
1000
0000
,
0001
0000
0010
0000
,
0001
0000
0100
0000
,
0001
0000
1000
0000
,
0010
0000
1000
0000
,
0100
0000
1000
0000
,
0001
0001
0001
0000
,
1000
1000
1000
0000
,
0010
0000
2002
0000
,
3003
0000
0000
0000
;

//---------------dance-single - ----------------
#NOTEDATA:;
#CHARTNAME:;
#STEPSTYPE:dance-single;
#DESCRIPTION:;
#CHARTSTYLE:;
#DIFFICULTY:Easy;
#METER:4;
#RADARVALUES:0.282696,0.393258,0.243166,0.025155,0.000000,236.000000,207.000000,29.000000,3.000000,0.000000,0.000000,0.000000,0.000000,0.000000,0.282696,0.393258,0.243166,0.025155,0.000000,236.000000,207.000000,29.000000,3.000000,0.000000,0.000000,0.000000,0.000000,0.000000;
#CREDIT:K. Pearman;
#NOTES:
0000
0000
0000
0000
,
0000
0000
0000
0000
,
0000
0000
0000
0000
,
0000
0000
0000
0000
,
0000
0000
0000
0000
,
0000
0000
0000
0000
,
0000
0000
0000
0000
,
1001
0001
0100
0100
,
0001
0010
0001
0000
,
1000
1000
0100
0100
,
1000
0010
1000
1001
,
0001
0001
0100
0100
,
0001
0010
0001
0000
,
1000
1000
0100
0100
,
1000
0010
1000
0000
,
0001
0001
0100
0100
,
1000
0100
0001
0000
,
1000
1000
0100
0100
,
0001
0100
1000
0000
,
0001
0001
0010
0010
,
1000
0010
0001
0000
,
1000
1000
0010
0010
,
0001
0010
1000
0000
,
1001
1001
0010
0010
,
1001
1001
0100
0100
,
1001
1001
0010
0010
,
0100
0001
0010
1000
,
1001
1001
0100
0100
,
1001
1001
0010
0010
,
1001
1001
0100
0100
,
1000
0010
0001
0100
,
0010
0000
1000
0000
,
0100
0001
0100
1000
,
0010
0000
0001
0000
,
0100
1000
0100
0001
,
0010
0000
1000
0000
,
0100
0001
0100
1000
,
0010
0000
0001
0000
,
0100
1000
0220
0000
,
0000
0000
0000
0000
,
0000
0000
0000
0000
,
0000
0000
0000
0000
,
0330
0000
0000
0000
,
1001
1000
0100
0010
,
0001
1000
0001
1000
,
0001
0001
0010
0100
,
1000
1000
0001
1001
,
1000
1000
0010
0010
,
0100
0010
1000
0010
,
0100
0100
0001
0001
,
0010
0100
0010
0100
,
1001
1001
0010
0010
,
1001
1001
0100
0100
,
1001
1001
0010
0010
,
1000
0100
0001
0010
,
1001
1001
0100
0100
,
1001
1001
0010
0010
,
1001
1001
0100
0100
,
1000
0010
0001
0100
,
0010
0010
1000
1000
,
0100
0001
0100
1000
,
0010
0010
0001
0001
,
0100
1000
0100
0001
,
0010
0010
1000
1000
,
0100
0001
0100
1000
,
0010
0010
0001
0001
,
0100
1000
0200
0000
,
0300
0000
0000
0000
;

//---------------dance-single - ----------------
#NOTEDATA:;
#CHARTNAME:;
#STEPSTYPE:dance-single;
#DESCRIPTION:;
#CHARTSTYLE:;
#DIFFICULTY:Medium;
#METER:6;
#RADARVALUES:0.365348,0.477528,0.436022,0.041925,0.000000,305.000000,253.000000,52.000000,5.000000,0.000000,0.000000,0.000000,0.000000,0.000000,0.365348,0.477528,0.436022,0.041925,0.000000,305.000000,253.000000,52.000000,5.000000,0.000000,0.000000,0.000000,0.000000,0.000000;
#CREDIT:K. Pearman;
#NOTES:
0000
0000
0000
0000
,
0000
0000
0000
0000
,
0000
0000
0000
0000
,
0000
0000
0000
0000
,
0000
0000
0000
0000
,
0000
0000
0000
0000
,
0000
0000
0000
0000
,
1100
0100
0010
0010
,
0001
0000
1000
0000
0010
0100
0001
0000
,
0100
0100
0010
0010
,
1000
0001
0010
1001
,
0001
0001
1000
0010
,
0100
0000
0100
0000
0010
0000
1000
0100
,
0010
0010
0001
1000
,
0001
0010
0100
1100
,
0011
0001
1000
1000
,
0010
0100
0010
0000
0100
0010
0100
0000
,
0001
0010
0100
1000
,
0001
0100
0001
0000
1000
0100
1000
0000
,
1001
0001
1000
1000
,
0010
0100
0001
0000
0100
0010
1000
0000
,
0001
0001
1000
1000
,
0100
0010
0100
0010
0200
0000
0310
0000
,
0011
0000
0001
0000
1000
0010
1000
0000
,
0001
0000
0001
0000
1000
0100
1000
0000
,
1010
0000
1000
0000
0001
0100
0001
0000
,
1000
1000
0001
0011
,
0010
0000
0010
0000
0100
1000
0001
0000
,
0010
0000
0010
0000
0100
0001
1000
0000
,
0010
0000
0001
0000
1000
0010
0100
0000
,
1010
0100
0011
0100
,
1001
0101
1001
0000
,
0001
0000
0010
0000
0100
0100
0100
0000
,
1001
1100
1001
0000
,
1000
0000
0010
0100
0010
0000
1001
0000
,
0101
1001
0101
0100
,
0010
0000
1000
0000
0001
0001
0001
0000
,
1100
1001
1100
0010
,
0001
0000
1000
0001
2002
0000
0000
0000
,
0000
0000
0000
0000
,
0000
0000
0000
0000
,
0000
0000
0000
0000
,
0000
0000
3003
0000
,
0011
0001
0100
0010
,
1000
0000
0001
0000
1000
0100
0010
0001
,
1000
1000
0001
0001
,
0100
0010
0100
1001
,
1010
1000
0001
0100
,
0010
0000
0100
0000
0001
0010
0100
1000
,
0001
0001
1000
1000
,
0010
0100
0010
1001
,
1100
1100
1001
1001
,
1000
0100
0010
0000
0100
0010
0001
0000
,
1001
1001
0101
0101
,
0001
0100
0010
0000
0100
0000
1001
0000
,
0011
0011
1001
1001
,
0001
0010
0100
0000
0010
0100
1000
0000
,
1010
1010
1001
1001
,
1010
0000
1000
0001
1001
0000
0000
0000
,
0011
0000
0001
0000
1000
0100
1000
0000
,
0010
0000
0010
0000
0100
0010
0100
0000
,
1000
0010
0100
0001
,
1000
0100
0010
1001
,
1100
0000
1000
0000
0001
0010
0001
0000
,
1000
0000
1000
0000
0010
0100
0001
0000
,
0010
0010
0100
0100
,
1001
0010
2002
0000
,
3003
0000
0000
0000
;

//---------------dance-single - ----------------
#NOTEDATA:;
#CHARTNAME:;
#STEPSTYPE:dance-single;
#DESCRIPTION:;
#CHARTSTYLE:;
#DIFFICULTY:Hard;
#METER:7;
#RADARVALUES:0.455188,0.505618,0.285091,0.033540,0.075465,380.000000,346.000000,34.000000,4.000000,0.000000,0.000000,0.000000,0.000000,0.000000,0.455188,0.505618,0.285091,0.033540,0.075465,380.000000,346.000000,34.000000,4.000000,0.000000,0.000000,0.000000,0.000000,0.000000;
#CREDIT:K. Pearman;
#NOTES:
0000
0000
0000
0000
,
0000
0000
0000
0000
,
0000
0000
0000
0000
,
0000
0000
0000
0000
,
0000
0000
0000
0000
,
0000
0000
0000
0000
,
0000
0000
0000
0000
,
0001
0000
0000
0001
0100
0000
0010
0000
0100
0000
0001
0000
1000
0000
0000
0000
,
0001
0000
0010
0000
0100
1000
0001
0000
,
1000
0000
0000
1000
0010
0000
0100
0000
0010
0000
1000
0000
0001
0000
0000
0000
,
0100
0000
0010
0100
0010
0000
1001
0000
,
0001
0000
0000
0001
0100
0000
0010
0000
0100
0000
0001
0000
1000
0000
0000
0000
,
1000
0100
0010
0000
0100
0010
0001
0000
,
1000
0000
0000
1000
0010
0000
0100
0000
0010
0000
1000
0000
0001
0000
0000
0000
,
0100
0010
0100
0000
0001
0000
1001
0000
,
1000
0100
1000
0000
0001
0100
0001
0000
,
1000
0100
0001
0000
0001
0100
1000
0000
,
0001
0010
0001
0000
1000
0010
1000
0000
,
0001
0010
1000
0000
1000
0010
0001
0000
,
1000
0010
0100
0000
0010
0100
0001
0000
,
1000
0100
0001
0000
0001
0100
1000
0000
,
0001
0100
0010
0000
0100
0010
1000
0000
,
0001
0010
1000
0010
0001
0000
1001
0000
,
1000
0100
1000
0100
0001
0100
0001
0100
,
1000
0000
0001
0000
0100
0010
1000
0000
,
0001
0010
0001
0010
1000
0010
1000
0010
,
0001
0000
1000
0010
0100
0000
1001
0000
,
0001
0100
0001
0100
1000
0100
1000
0100
,
0001
0000
0010
0000
1000
0010
0001
0000
,
1000
0010
1000
0010
0001
0010
0001
0010
,
1000
0000
0001
0100
1000
0000
0100
0000
,
0101
1001
0101
0001
,
0010
0000
0000
0010
0001
0000
1000
0000
0001
0000
0000
0000
0100
0000
0000
0000
,
1010
1001
1010
0001
,
0010
0001
1000
0001
0010
0000
1100
0000
,
0101
1001
0101
1000
,
0001
0000
0000
0010
0100
0000
1000
0000
0100
0000
0010
0000
0001
0000
0000
0000
,
1100
0000
1001
0000
1100
0000
1000
0010
,
0100
1000
0100
0002
2000
0000
0000
0000
,
0000
0000
0000
0000
,
0000
0000
0000
0000
,
0000
0000
0000
0000
,
0000
0000
3003
0000
,
1100
0000
0000
1000
0100
0000
0010
0000
0100
0000
1000
0000
0001
0000
0010
0000
,
0100
0000
0000
0100
0010
0000
0000
0010
0001
0000
1000
0000
0010
0000
0100
0000
,
0010
0000
0000
0010
1000
0000
0001
0000
0100
0000
0010
0000
1000
0000
0001
0000
,
0100
1000
0100
0001
1000
0000
1001
0000
,
0011
0000
0000
0001
0010
0000
0100
0000
0010
0000
0001
0000
1000
0000
0100
0000
,
0010
0000
0000
0010
0100
0000
0000
0100
1000
0000
0000
1000
0001
0000
0100
0000
,
0010
0000
0000
0100
0010
0000
1000
0000
0001
0000
0100
0000
1000
0000
0100
0000
,
0001
0000
0000
1000
0001
0000
0010
0000
0200
0000
0000
0000
0310
0000
0000
0000
,
0001
0100
0001
0100
1000
0100
1000
0100
,
0001
0000
0010
0000
1000
0010
0001
0000
,
1000
0010
1000
0010
0001
0010
0001
0010
,
1000
0000
0100
0001
0100
0000
1100
0000
,
1000
0010
1000
0010
0001
0010
0001
0010
,
1000
0000
0100
0000
0001
0100
1000
0000
,
0001
0100
0001
0100
1000
0100
1000
0100
,
0001
0000
0010
1000
0010
0000
0001
0000
,
1010
0000
1001
0000
1010
0000
1000
0010
,
0100
0000
0000
0100
0010
0000
1000
0000
0001
0000
0010
0000
0100
0000
0000
0000
,
0011
1001
0011
0001
,
1000
0010
0100
0010
1000
0000
0101
0000
,
1100
1001
1100
1000
,
0001
0000
0000
0010
0100
0000
1000
0000
0100
0000
0010
0000
0001
0000
0100
0000
,
0101
0000
1001
0000
0101
0000
0100
0010
,
1000
0001
1000
0010
0200
0000
0000
0000
,
0300
0000
0000
0000
;

//---------------dance-single - ----------------
#NOTEDATA:;
#CHARTNAME:;
#STEPSTYPE:dance-single;
#DESCRIPTION:;
#CHARTSTYLE:;
#DIFFICULTY:Challenge;
#METER:10;
#RADARVALUES:0.607317,0.786517,0.352172,0.201241,0.368942,507.000000,459.000000,42.000000,24.000000,74.000000,23.000000,0.000000,0.000000,0.000000,0.607317,0.786517,0.352172,0.201241,0.368942,507.000000,459.000000,42.000000,24.000000,74.000000,23.000000,0.000000,0.000000,0.000000;
#CREDIT:K. Pearman;
#NOTES:
0000
0000
0000
0000
,
0000
0000
0000
0000
,
0000
0000
0000
0000
,
0000
0000
0000
0000
,
0000
0000
0000
0000
,
0000
0000
0000
0000
,
0000
0000
0000
0000
,
0001
0000
1000
0001
0100
0000
0010
0000
1000
0000
0100
0000
1000
0000
0010
0000
,
0100
0000
01M0
1000
0100
0000
M100
0001
0100
0000
010M
0000
1000
0010
0100
0001
,
1000
0000
0010
0100
0001
0000
1000
0000
0001
0000
0010
0000
0100
0000
1000
0000
,
0010
0000
M010
0001
0010
0000
001M
0000
1000
0000
0000
0000
1101
0000
0000
0000
,
1000
0000
0001
1000
0010
0000
0100
0000
0001
0000
0010
0000
0001
0000
0100
0000
,
0010
0000
0M10
0001
0010
0000
001M
1000
0010
0000
M010
0000
0001
0100
0010
1000
,
0001
0000
0100
0010
1000
0000
0001
0000
1000
0000
0100
0000
0010
0000
0001
0000
,
0100
0000
0001
0010
0100
1000
0001
0100
2000
0000
0000
0000
3100
0000
0001
0000
,
1010
0000
1000
0000
0100
0000
0000
0010
0001
0000
0001
0000
0100
0000
0000
0000
,
1000
0000
0100
0000
0001
0000
0010
0100
1000
0000
1000
0000
0110
0000
0000
0000
,
0001
0001
0010
0010
0100
0001
0100
0000
,
1000
0000
1000
0000
0010
0000
0010
0000
0100
0000
1000
0000
0100
0000
0000
0001
,
1010
0000
0001
0000
0100
0000
1000
0100
0001
0000
0010
0000
0100
0000
0100
0000
,
1000
0000
0010
0000
0001
0000
0010
1000
0100
0000
0001
0000
0100
0000
0100
0000
,
1000
0010
0100
0001
1000
0100
1000
0001
,
0010
0001
0100
0010
0100
0000
MMMM
0000
,
1011
0001
0100
0010
0100
1000
0100
0001
,
1000
0000
0001
0010
0001
0000
1000
0010
1000
0000
0001
0100
0001
0000
1000
0000
,
0100
0010
0100
0001
0100
1000
0001
0100
,
1000
0100
0010
0100
0001
0000
1011
0000
,
1000
0100
0010
0001
1000
0010
0100
0001
,
1000
0000
0100
0010
0001
0000
0010
0100
1000
0000
0001
0100
0010
0000
1000
0000
,
0010
0100
0001
0100
1000
0100
0001
1000
,
0011
1000
0001
1000
00M1
1000
0001
1000
0101
1000
0001
1000
0M01
1000
0001
1000
,
0012
0000
00M0
0000
2013
0000
00M0
0000
3012
0000
0000
00M0
0003
0000
1000
0000
,
0010
0000
0000
0100
0001
0000
1000
0000
0100
0000
0010
0000
0001
0000
1000
0000
,
2100
0M00
3102
0M00
2103
0M00
3000
0010
,
1000
0100
0001
0100
0010
0000
0111
0000
,
1200
0000
0321
0000
1031
0000
0100
0001
,
1000
0000
0000
0010
0100
0000
0001
0000
0100
0000
1000
0000
0100
0000
0010
0000
,
0201
1320
1031
0010
,
1000
0100
0010
0001
1001
0000
M00M
0000
,
0MM0
0000
000M
MM00
0000
M000
00MM
0000
0M00
M0M0
0000
0000
,
0M0M
0000
00M0
0M00
0000
M000
00M0
000M
0000
MM00
0000
000M
,
0M00
0000
00M0
000M
M000
0000
0MM0
0000
000M
0M00
M000
0000
,
000M
0M00
0000
M000
000M
0000
00M0
0000
0000
0M00
0000
0000
,
1000
0000
0001
1000
0010
0000
0100
0000
0001
0000
0010
0000
0001
0000
0100
0000
,
0010
0000
0M10
0001
0010
0000
001M
1000
0010
0000
M010
0000
0001
0100
0010
1000
,
0001
0000
0100
0010
1000
0000
0001
0000
1000
0000
0100
0000
0010
0000
0001
0000
,
0100
0000
010M
1000
0100
0000
M100
0000
0001
0000
0000
0000
1011
0000
0000
0000
,
0001
0000
1000
0001
0100
0000
0010
0000
1000
0000
0100
0000
1000
0000
0010
0000
,
0100
0000
01M0
1000
0100
0000
M100
0001
0100
0000
010M
0000
1000
0010
0100
0001
,
1000
0000
0010
0100
0001
0000
1000
0000
0001
0000
0010
0000
0100
0000
1000
0000
,
0010
0000
1000
0100
0010
0001
1000
0010
0002
0000
0000
0000
0013
0000
1000
0000
,
0011
1000
0010
0100
0010
0001
0010
1000
,
0001
0000
1000
0100
1000
0000
0001
0100
0001
0000
1000
0010
1000
0000
0001
0000
,
0010
0100
0010
1000
0010
0001
1000
0010
,
0001
0010
0100
0010
1000
0000
1101
0000
,
0001
0010
0100
1000
0001
0100
0010
1000
,
0001
0000
0010
0100
1000
0000
0100
0010
0001
0000
1000
0010
0100
0000
0001
0000
,
0001
0010
0100
1000
0001
0100
0010
1000
,
0011
1000
0001
1000
00M1
1000
0001
1000
0101
1000
0001
1000
0M01
1000
0001
1000
,
0012
0000
00M0
0000
2013
0000
00M0
0000
3012
0000
0000
00M0
0003
0000
1000
0000
,
0010
0000
0000
0100
0001
0000
1000
0000
0100
0000
0010
0000
0001
0000
1000
0000
,
2100
0M00
3102
0M00
2103
0M00
3011
0010
,
1000
0100
0001
0100
0010
0000
0110
0000
,
1020
0231
1301
0010
,
1000
0000
0000
0010
0100
0000
0001
0000
0100
0000
1000
0000
0100
0000
0010
0000
,
0201
1320
1031
0010
,
1000
0100
0010
0001
1000
0010
1000
0100
2002
0000
0000
0000
0000
0000
0000
0000
,
3003
0000
0000
0000
;

//---------------dance-double - ----------------
#NOTEDATA:;
#CHARTNAME:;
#STEPSTYPE:dance-double;
#DESCRIPTION:;
#CHARTSTYLE:;
#DIFFICULTY:Easy;
#METER:4;
#RADARVALUES:0.287487,0.337079,0.201241,0.335402,0.000000,240.000000,216.000000,24.000000,40.000000,0.000000,0.000000,0.000000,0.000000,0.000000,0.287487,0.337079,0.201241,0.335402,0.000000,240.000000,216.000000,24.000000,40.000000,0.000000,0.000000,0.000000,0.000000,0.000000;
#CREDIT:K. Pearman;
#NOTES:
00000000
00000000
00000000
00000000
,
00000000
00000000
00000000
00000000
,
00000000
00000000
00000000
00000000
,
00000000
00000000
00000000
00000000
,
00000000
00000000
00000000
00000000
,
00000000
00000000
00000000
00000000
,
00000000
00000000
00000000
00000000
,
10010000
00100000
00010000
01000000
,
00001000
00001000
00010000
00010000
,
00000100
00001000
00000010
00001000
,
00000100
00000100
00000010
00000110
,
00001001
00000010
00001000
00000100
,
00010000
00010000
00001000
00001000
,
01000000
00010000
00100000
01000000
,
10000000
00010000
02000000
03000000
,
00100000
00100000
10000000
10000000
,
01000000
00010000
01000000
00010000
,
00001000
00001000
00000100
00000100
,
00000001
00000010
00000001
00000010
,
00000001
00000100
00000010
00001000
,
00000001
00000010
00000001
00000100
,
00001000
00000100
00000010
00001000
,
00000001
00000010
00001000
00010000
,
00011000
01000000
00011000
00000100
,
00010000
00100000
10000000
01000000
,
00011000
00000100
00011000
01000000
,
00001000
00000010
00000002
00001003
,
00011000
00100000
00011000
00000010
,
00010000
00100000
10000000
01000000
,
00011000
00000010
00011000
00100000
,
00001000
00000010
00000002
00000103
,
00000002
00002003
00023000
20030000
,
30000000
00010000
10000000
00010000
,
20000000
30020000
00032000
00003002
,
00001003
00000001
00001000
00000110
,
00000002
00002003
00023000
20030000
,
30010000
10000000
00010000
10000000
,
20000000
30020000
00032000
00003001
,
00001000
00000001
00000220
00000000
,
00000330
00000000
00000000
00000000
,
00000000
00000000
00000000
00000000
,
00000000
00000000
00000000
00000000
,
00000000
00000000
00000000
00000000
,
11000000
00010000
10000000
00010000
,
00100000
00100000
01000000
01000000
,
00010000
00001000
00000100
00000001
,
00001000
00000100
00000010
00000000
,
00000011
00001000
00000001
00000010
,
00000100
00000100
00010000
00010000
,
00001000
00100000
01000000
10000000
,
00010000
01000000
00001000
00000000
,
00011000
00100000
00011000
00000010
,
00010000
00100000
10000000
01000000
,
00011000
00000100
00011000
01000000
,
00001000
00000100
00000002
00000013
,
00011000
00100000
00011000
00000010
,
00010000
00100000
10000000
01000000
,
00011000
00000010
00011000
00100000
,
00001000
00000010
00000002
00000103
,
00000002
00002003
00023000
20030000
,
30000000
00010000
10000000
00010000
,
20000000
30020000
00032000
00003002
,
00000103
00001000
00000100
00000001
,
00000002
00002003
00023000
20030000
,
30000000
01000000
00100000
01000000
,
20000000
30020000
00032000
00003002
,
00000103
00000010
00002002
00000000
,
00003003
00000000
00000000
00000000
;

//---------------dance-double - ----------------
#NOTEDATA:;
#CHARTNAME:;
#STEPSTYPE:dance-double;
#DESCRIPTION:;
#CHARTSTYLE:;
#DIFFICULTY:Medium;
#METER:6;
#RADARVALUES:0.337797,0.419776,0.259936,0.100620,0.000000,282.000000,251.000000,31.000000,12.000000,0.000000,0.000000,0.000000,0.000000,0.000000,0.337797,0.419776,0.259936,0.100620,0.000000,282.000000,251.000000,31.000000,12.000000,0.000000,0.000000,0.000000,0.000000,0.000000;
#CREDIT:K. Pearman;
#NOTES:
00000000
00000000
00000000
00000000
,
00000000
00000000
00000000
00000000
,
00000000
00000000
00000000
00000000
,
00000000
00000000
00000000
00000000
,
00000000
00000000
00000000
00000000
,
00000000
00000000
00000000
00000000
,
00000000
00000000
00000000
00000000
,
00100000
01000000
10000000
00010000
,
01000000
00000000
00011000
00000000
00000100
00000000
00000010
00000010
,
00000010
00000001
00001000
00000010
,
00000100
00000010
00001000
00011000
,
00010000
00100000
01000000
00010000
,
00100000
00000000
00011000
00000000
00000100
00000000
00000010
00000010
,
00000010
00000001
00001000
00000010
,
00000100
00001000
00010000
00011000
,
00001000
00000000
00010000
00000000
00100000
01000000
00100000
00000000
,
10000000
00010000
00100000
00100000
,
01000000
00010000
00001000
00000100
,
00000010
00000000
00001000
00000000
00000001
00001000
00000001
00000000
,
00000110
00000010
00000001
00000001
,
00001000
00000100
00000010
00001000
,
00010000
00100000
00010000
00001000
,
00010000
00001000
00010000
00000000
00001000
00000000
00011000
00000000
,
00010000
00000000
00100000
00000000
10000000
00010000
10000000
00000000
,
01000000
01000000
00100000
00001000
,
00010000
00000000
00000100
00000000
00001000
00000001
00001000
00000000
,
00000010
00000100
00000001
00011000
,
00010000
00000000
00100000
00000000
10000000
00010000
10000000
00000000
,
01000000
00100000
01000000
00010000
,
00001000
00000000
00010000
00000000
00001000
00000100
00001000
00000000
,
00000100
00000001
00000010
00000000
,
00000011
00001001
00001100
00000100
,
00010000
00000000
00001000
00000000
00100000
01000000
00100000
00000000
,
11000000
00110000
01100000
00010000
,
10000000
00010000
10000000
00000000
00100000
00000000
00011000
00000000
,
00000011
00001001
00001100
00010000
,
00000100
00000000
00001000
00000000
00000100
00010000
00001000
00000000
,
00110000
11000000
01100000
00010000
,
10000000
00010000
10000000
00000000
02200000
00000000
00000000
00000000
,
00000000
00000000
00000000
00000000
,
00000000
00000000
00000000
00000000
,
00000000
00000000
00000000
00000000
,
03300000
00000000
00000000
00000000
,
10000000
01000000
10000000
00000000
00010000
00000000
00010000
00000000
,
00200000
00302000
00023000
00030200
,
00000310
00000001
00000010
00000000
00000001
00000100
00000001
00000000
,
00000100
00001000
00010000
01000100
,
00001000
00010000
00001000
00000000
00010000
00000000
00100000
00000000
,
02000000
03020000
20030000
32000000
,
03100000
00010000
00100000
00000000
00001000
00000000
00010000
00000000
,
00000010
00000000
00001000
00000010
00001000
00000000
00000000
00000000
,
00000010
00000000
00001000
00000000
00000100
00000010
00000100
00000000
,
00001000
00000000
00010000
00000000
00100000
01000000
00100000
00000000
,
00010000
00000000
01000000
00000000
00100000
01000000
00100000
00000000
,
00010000
00001000
00000100
00001001
,
00000001
00000010
00000001
00000000
00000010
00000000
00001000
00000000
,
00010000
00100000
00010000
00000000
00100000
00000000
10000000
00000000
,
01000000
00010000
01000000
00000000
00010000
00000000
00001000
00000000
,
00000100
00000001
00000100
00000000
00000001
00000000
00001000
00000000
,
00000011
00001001
00001100
00010000
,
00001000
00000000
01000000
00000000
00100000
01000000
00100000
00000000
,
11000000
00110000
01100000
10000000
,
01000000
10000000
00010000
00000000
01000000
00000000
01000100
00000000
,
00000100
00000010
00000001
00001000
,
00000001
00001000
00000010
00000000
00010000
00001000
00100000
00000000
,
01000000
10000000
00010000
01000000
,
00001000
00010000
00001000
00000000
00200020
00000000
00300030
00000000
;

//---------------dance-double - ----------------
#NOTEDATA:;
#CHARTNAME:;
#STEPSTYPE:dance-double;
#DESCRIPTION:;
#CHARTSTYLE:;
#DIFFICULTY:Hard;
#METER:7;
#RADARVALUES:0.477947,0.505618,0.327017,0.033540,0.000000,399.000000,360.000000,39.000000,4.000000,0.000000,0.000000,0.000000,0.000000,0.000000,0.477947,0.505618,0.327017,0.033540,0.000000,399.000000,360.000000,39.000000,4.000000,0.000000,0.000000,0.000000,0.000000,0.000000;
#CREDIT:K. Pearman;
#NOTES:
// measure 0
00000000
00000000
00000000
00000000
,  // measure 1
00000000
00000000
00000000
00000000
,  // measure 2
00000000
00000000
00000000
00000000
,  // measure 3
00000000
00000000
00000000
00000000
,  // measure 4
00000000
00000000
00000000
00000000
,  // measure 5
00000000
00000000
00000000
00000000
,  // measure 6
00000000
00000000
00000000
00000000
,  // measure 7
00010000
01000000
00010000
00000000
10000000
01000000
00100000
00000000
,  // measure 8
00010000
00100000
00001000
00000000
00010000
00000010
00001000
00000000
,  // measure 9
00000001
00000100
00000001
00000000
00000010
00000100
00001000
00000000
,  // measure 10
00000100
00010000
00001000
00000000
01000000
00000000
01100000
00000000
,  // measure 11
00100000
10000000
00010000
00000000
00100000
01000000
00010000
00000000
,  // measure 12
00001000
00010000
00001000
00000000
00010000
00000100
00000010
00000000
,  // measure 13
00000100
00001000
00000001
00000000
00000010
00000001
00000100
00000000
,  // measure 14
00000010
00001000
00000100
00000000
00010000
00000000
00011000
00000000
,  // measure 15
00001000
00010000
00100000
00010000
00001000
00010000
00100000
00000000
,  // measure 16
10000000
01000000
00100000
01000000
10000000
01000000
00100000
00000000
,  // measure 17
00010000
01000000
00001000
01000000
00010000
01000000
00001000
00000000
,  // measure 18
00010000
00000100
00001000
00000100
00010000
00000100
00001000
00000000
,  // measure 19
00000001
00000010
00000001
00000000
00001000
00000010
00001000
00000000
,  // measure 20
00000001
00000100
00000001
00000000
00001000
00000100
00001000
00000000
,  // measure 21
00000010
00000100
00000001
00000010
00001000
00010000
00100000
10000000
,  // measure 22
01000000
00100000
00010000
01000000
00001000
00000000
00010000
00000000
,  // measure 23
00001000
00010000
00001000
00010000
00000100
01000000
00000100
01000000
,  // measure 24
00001000
00010000
00001000
00010000
00000010
00100000
00000010
00100000
,  // measure 25
00001000
00010000
00001000
00010000
00001000
10000000
00001000
10000000
,  // measure 26
00001000
00010000
00001000
00010000
00000100
00000000
00010100
00000000
,  // measure 27
00010000
00000100
00010000
00000100
00000010
00000001
00000010
00000001
,  // measure 28
00010000
00000010
00010000
00000010
01000000
00001000
01000000
00001000
,  // measure 29
00100000
00010000
00100000
00010000
01000000
00001000
01000000
00001000
,  // measure 30
00010000
00000100
00010000
00000100
00000010
00000000
00000001
00000000
,  // measure 31
00000011
00001100
00011000
01010000
,  // measure 32
00100000
10000000
01000000
00010000
00001000
00000100
00000001
00000000
,  // measure 33
00000011
00001001
00001100
00011000
,  // measure 34
00100000
00010000
01000000
00010000
00100000
00000000
10010000
00000000
,  // measure 35
10100000
01100000
01001000
00010100
,  // measure 36
00000010
00000001
00000100
00001000
00010000
01000000
10000000
00100000
,  // measure 37
10100000
01100000
01010000
00011000
,  // measure 38
00010000
00001000
00000100
00000001
00000220
00000000
00000000
00000000
,  // measure 39
00000000
00000000
00000000
00000000
,  // measure 40
00000000
00000000
00000000
00000000
,  // measure 41
00000000
00000000
00000000
00000000
,  // measure 42
00000330
00000000
00000000
00000000
,  // measure 43
00001000
00010000
00001000
00010000
00100000
10000000
00010000
10000000
,  // measure 44
01000000
00000000
00010000
00000000
00001000
00000000
00000100
00000001
,  // measure 45
00001000
00000001
00000010
00000000
00000100
00001000
00000010
00000000
,  // measure 46
00000100
00000001
00000100
00001000
00000100
00000000
00000101
00000000
,  // measure 47
00000001
00000010
00000001
00000010
00001000
00010000
00001000
00010000
,  // measure 48
00100000
10000000
00100000
10000000
01000000
00010000
01000000
10000000
,  // measure 49
00100000
00010000
00001000
00010000
00100000
00010000
00001000
00000010
,  // measure 50
00001000
00010000
00001000
00000010
00000001
00000000
00011000
00000000
,  // measure 51
00010000
00001000
00010000
00001000
00100000
00000010
00100000
00000010
,  // measure 52
00010000
00001000
00010000
00001000
01000000
00000100
01000000
00000100
,  // measure 53
00010000
00001000
00010000
00001000
00010000
00000001
00010000
00000001
,  // measure 54
00010000
00001000
00010000
00001000
00100000
00000000
00101000
00000000
,  // measure 55
00001000
00100000
00001000
00100000
01000000
10000000
01000000
10000000
,  // measure 56
00001000
01000000
00001000
01000000
00000010
00010000
00000010
00010000
,  // measure 57
00000100
00001000
00000100
00001000
00000010
00010000
00000010
00010000
,  // measure 58
00001000
00100000
00001000
00100000
01000000
00000000
10000000
00000000
,  // measure 59
11000000
01100000
00110000
00011000
,  // measure 60
00001000
00000100
00000001
00000010
00001000
00010000
00100000
10000000
,  // measure 61
11000000
01100000
00110000
00001000
,  // measure 62
00000100
00000010
00000100
00000001
00001000
00000100
00000010
00000000
,  // measure 63
00000011
00000110
00001100
00011000
,  // measure 64
00010000
00100000
10000000
01000000
00010000
00001000
00000100
00000001
,  // measure 65
00000011
00000110
00001100
00000100
,  // measure 66
00010000
00001000
00010000
00000000
02000200
00000000
00000000
00000000
,  // measure 67
03000300
00000000
00000000
00000000
;

//---------------dance-double - ----------------
#NOTEDATA:;
#CHARTNAME:;
#STEPSTYPE:dance-double;
#DESCRIPTION:;
#CHARTSTYLE:;
#DIFFICULTY:Challenge;
#METER:9;
#RADARVALUES:0.546225,0.589888,0.276706,0.025155,0.150931,456.000000,423.000000,33.000000,3.000000,0.000000,0.000000,0.000000,0.000000,0.000000,0.546225,0.589888,0.276706,0.025155,0.150931,456.000000,423.000000,33.000000,3.000000,0.000000,0.000000,0.000000,0.000000,0.000000;
#CREDIT:K. Pearman;
#NOTES:
// measure 0
00000000
00000000
00000000
00000000
,  // measure 1
00000000
00000000
00000000
00000000
,  // measure 2
00000000
00000000
00000000
00000000
,  // measure 3
00000000
00000000
00000000
00000000
,  // measure 4
00000000
00000000
00000000
00000000
,  // measure 5
00000000
00000000
00000000
00000000
,  // measure 6
00000000
00000000
00000000
00000000
,  // measure 7
10000000
00000000
00010000
01000000
00010000
00000000
10000000
00000000
01000000
00000000
00010000
00000000
00001000
00000000
01000000
00000000
,  // measure 8
00001000
00000000
00010000
00001000
00010000
00000000
00001000
00010000
00001000
00000000
00000100
00000000
00000001
00000000
00001000
00000000
,  // measure 9
00000001
00000000
00000010
00000100
00001000
00000000
00000100
00000000
00000010
00000000
00000001
00000000
00001000
00000000
00000010
00000000
,  // measure 10
00000001
00000000
00000010
00000100
00000010
00000000
00001000
00000000
00000001
00000000
00000000
00000000
00011000
00000000
00000000
00000000
,  // measure 11
00001000
00000000
00010000
00100000
00010000
00000000
00100000
00000000
10000000
00000000
01000000
00000000
00010000
00000000
01000000
00000000
,  // measure 12
10000000
00000000
00100000
01000000
00100000
00000000
10000000
00010000
10000000
00000000
00010000
00000000
00100000
00000000
01000000
00000000
,  // measure 13
00010000
00000000
00001000
00010000
00001000
00000000
00000100
00000000
00000001
00000000
00001000
00000000
00000100
00000000
00000010
00000000
,  // measure 14
00000001
00000000
00001000
00000000
00000100
00010000
00000100
00000000
00010000
00000000
00000000
00000000
00010100
00000000
00000000
00000000
,  // measure 15
00001000
00001000
00010000
00010000
00100000
00100000
10000000
10000000
,  // measure 16
00010000
10000000
01000000
10000000
00010000
10000000
01000000
00000000
,  // measure 17
00100000
00100000
00010000
00010000
00001000
00001000
00000010
00000010
,  // measure 18
00000100
00000001
00000100
00001000
00000100
00000001
00001000
00000000
,  // measure 19
00000001
00000100
00000001
00000100
00001000
00010000
00001000
00010000
,  // measure 20
01000000
10000000
01000000
10000000
01000000
00100000
00010000
00000000
,  // measure 21
10000000
00100000
00010000
00001000
00000010
00000001
00001000
00000010
,  // measure 22
00000100
00001000
00010000
00100000
01000000
00000000
10010000
00000000
,  // measure 23
01000000
10000000
00010000
10000000
01000000
10000000
00010000
00100000
,  // measure 24
00001000
00010000
00001000
00000000
00010000
00000000
00000100
00000000
00000010
00000100
00000010
00000000
00000001
00000000
00001000
00000000
,  // measure 25
00000001
00000100
00000001
00001000
00000001
00000100
00000001
00001000
,  // measure 26
00000010
00000100
00000001
00000010
00001000
00000000
10010000
00000000
,  // measure 27
10000000
01000000
10000000
01000000
00010000
01000000
00010000
01000000
,  // measure 28
00100000
00010000
01000000
00001000
00000100
00000010
00001000
00000100
,  // measure 29
00000010
00000001
00000010
00000001
00001000
00000100
00000010
00000001
,  // measure 30
00000100
00000000
00001000
00000000
00000100
00000000
00000001
00000000
00001000
00000001
00001000
00000000
00001001
00000000
00000000
00000000
,  // measure 31
00000011
00000000
00000000
00000000
00001100
00000000
00000000
00000000
00011000
00000000
00000000
00001000
00010000
00000000
00100000
00000000
,  // measure 32
01000000
00000000
00000000
00010000
10000000
00000000
01000000
00000000
00010000
00000000
01000000
00000000
10000000
00000000
00100000
00000000
,  // measure 33
01100000
00000000
00000000
00000000
00011000
00000000
00000000
00000000
00000110
00000000
00000000
00000001
00001000
00000000
00000001
00000000
,  // measure 34
00000100
00000000
00000000
00000010
00001000
00000000
00000001
00000000
00000010
00000000
00000000
00000000
00001100
00000000
00000000
00000000
,  // measure 35
00000011
00000000
00000000
00000000
00001100
00000000
00000000
00000000
00011000
00000000
00000000
00001000
00010000
00000000
00100000
00000000
,  // measure 36
01000000
00000000
00000000
00010000
10000000
00000000
01000000
00000000
00100000
00000000
00010000
00000000
10000000
00000000
00000000
00000000
,  // measure 37
11000000
00000000
00110000
00000000
00011000
00000000
00001000
00000100
,  // measure 38
00000001
00000000
00001000
00000000
00000100
00000000
00001000
00000001
00002000
00000000
00000000
00000000
00000000
00000000
00000000
00000000
,  // measure 39
00000000
00000000
00003000
00000000
,  // measure 40
00000000
00000000
00000000
00000000
,  // measure 41
00000000
00000000
00000000
00000000
,  // measure 42
00000000
00000000
00000000
00000000
,  // measure 43
10000000
00000000
00010000
01000000
00010000
00000000
10000000
00000000
01000000
00000000
00100000
00000000
00010000
00000000
01000000
00000000
,  // measure 44
00001000
00000000
00010000
00000100
00010000
00000000
00001000
01000000
00001000
00000000
00010000
00000000
00000100
00000000
00000010
00000000
,  // measure 45
00000001
00000000
00001000
00000001
00001000
00000000
00000010
00000000
00000100
00000000
00000001
00000000
00000010
00000000
00001000
00000000
,  // measure 46
00010000
00100000
10000000
00010000
01000000
00000000
01100000
00000000
,  // measure 47
00100000
00000000
10000000
01000000
10000000
00000000
00100000
00000000
01000000
00000000
00010000
00000000
00100000
00000000
01000000
00000000
,  // measure 48
00010000
00000000
00000100
00010000
00000100
00000000
00010000
00001000
01000000
00000000
00001000
00000000
00010000
00001000
00010000
00000000
,  // measure 49
00000100
00000000
00000010
00000001
00000010
00000000
00000100
00000000
00001000
00000000
00000001
00000000
00000100
00000000
00001000
00000000
,  // measure 50
00000100
00000000
00000010
00000100
00000001
00000000
00001000
00000000
00000001
00000000
00000000
00000000
00001001
00000000
00000000
00000000
,  // measure 51
00000001
00000010
00000001
00000010
00001000
00000010
00001000
00000010
,  // measure 52
00000100
00000010
00001000
00010000
01000000
00100000
00010000
10000000
,  // measure 53
00010000
00100000
00010000
00100000
10000000
00100000
10000000
00100000
,  // measure 54
01000000
00010000
00001000
00000100
00000010
00000000
00001001
00000000
,  // measure 55
00000001
00000100
00000001
00000100
00001000
00000100
00001000
00000100
,  // measure 56
00000010
00000100
00001000
00010000
01000000
00100000
00010000
10000000
,  // measure 57
00100000
10000000
01000000
10000000
01000000
00010000
01000000
00010000
,  // measure 58
01000000
00100000
00010000
00001000
00000100
00000010
00000001
00000000
,  // measure 59
00001001
00000000
00000000
00000000
00000101
00000000
00000000
00000000
00001100
00000000
00000000
00000001
00000100
00000000
00001000
00000000
,  // measure 60
00010000
00000000
00000000
00001000
00010000
00000000
00100000
00000000
10000000
00000000
00010000
00000000
10000000
00000000
00000000
00000000
,  // measure 61
11000000
00000000
01100000
00000000
00110000
00000000
10000000
00010000
,  // measure 62
01000000
00000000
00000000
00100000
10000000
00000000
00010000
00000000
01000000
00000000
00000000
00000000
01100000
00000000
00000000
00000000
,  // measure 63
11000000
00000000
00000000
00000000
01100000
00000000
00000000
00000000
00110000
00000000
00000000
00100000
00001000
00000000
00010000
00000000
,  // measure 64
00000100
00000000
00000000
00000010
00000001
00000000
00001000
00000000
00000010
00000000
00000100
00000000
00000001
00000000
00000100
00000000
,  // measure 65
00001000
00000000
00000101
00000000
00001100
00000000
00000001
00000010
,  // measure 66
00000100
00000000
00010000
00000000
00001000
00000000
00010000
00002000
00020000
00000000
00000000
00000000
00000000
00000000
00000000
00000000
,  // measure 67
00033000
00000000
00000000
00000000
;
