#VERSION:0.83;
#TITLE:Keep On Movin';
#SUBTITLE:;
#ARTIST:Five;
#TITLETRANSLIT:;
#SUBTITLETRANSLIT:;
#ARTISTTRANSLIT:;
#GENRE:;
#ORIGIN:;
#CREDIT:;
#BANNER:Keep On Movin'-Banner.png;
#BACKGROUND:Keep On Movin'-BG.png;
#PREVIEWVID:;
#JACKET:;
#CDIMAGE:;
#DISCIMAGE:;
#LYRICSPATH:;
#CDTITLE:;
#MUSIC:Keep On Movin' - Five.ogg;
#OFFSET:-0.005000;
#SAMPLESTART:41.770000;
#SAMPLELENGTH:14.218000;
#SELECTABLE:YES;
#BPMS:0.000=135.040;
#STOPS:;
#DELAYS:;
#WARPS:;
#TIMESIGNATURES:0.000=4=4;
#TICKCOUNTS:0.000=4;
#COMBOS:0.000=1;
#SPEEDS:0.000=1.000=0.000=0;
#SCROLLS:0.000=1.000;
#FAKES:;
#LABELS:0.000=Song Start;
#BGCHANGES:;
#KEYSOUNDS:;
#ATTACKS:
;

//---------------dance-single - K. Pearman----------------
#NOTEDATA:;
#CHARTNAME:;
#STEPSTYPE:dance-single;
#DESCRIPTION:K. Pearman;
#CHARTSTYLE:;
#DIFFICULTY:Beginner;
#METER:1;
#RADARVALUES:0.112340,0.177755,0.057340,0.000000,0.000000,96.000000,89.000000,7.000000,0.000000,0.000000,0.000000,0.000000,0.000000,0.000000,0.112340,0.177755,0.057340,0.000000,0.000000,96.000000,89.000000,7.000000,0.000000,0.000000,0.000000,0.000000,0.000000,0.000000;
#CREDIT:K. Pearman;
#NOTES:
0000
0000
0000
0000
,
0000
0000
0000
0000
,
0000
0000
0000
0000
,
0000
0000
0000
0000
,
0010
0000
0000
0000
,
0100
0000
0000
0000
,
0001
0000
0000
0000
,
1000
0000
0000
0000
,
0100
0100
0000
0000
,
0100
0100
0000
0000
,
0010
0000
1000
0000
,
0001
0000
0000
0000
,
0100
0100
0000
0000
,
0100
0100
0000
0000
,
0010
0000
0001
0000
,
1000
0000
0000
0000
,
0010
0010
0010
0000
,
0010
0010
0010
0000
,
1000
0000
0001
0000
,
0100
0000
0000
0000
,
0010
0010
0010
0000
,
0010
0010
0010
0000
,
0001
0000
1000
0000
,
0100
0000
0000
0000
,
0010
0000
0000
0000
,
0100
0000
0000
0000
,
1001
0000
0000
0000
,
0110
0000
0000
0000
,
0001
0000
0000
0000
,
1000
0000
0000
0000
,
0010
0000
0000
0000
,
0100
0000
0000
0000
,
1001
0000
0000
0000
,
0010
0010
0010
0000
,
1001
0000
0000
0000
,
0001
0000
0000
0000
,
0100
0000
0100
0000
,
0010
0000
0000
0000
,
1000
0000
0000
0000
,
0001
0000
0000
0000
,
0100
0000
0100
0000
,
0010
0000
0000
0000
,
0100
0100
0100
0000
,
0100
0100
0100
0000
,
0001
0000
1000
0000
,
0010
0000
0000
0000
,
0100
0100
0100
0000
,
0100
0100
0100
0000
,
1000
0000
0001
0000
,
0010
0000
0000
0000
,
0010
0000
0000
0000
,
0100
0000
0000
0000
,
1001
0000
0000
0000
,
0110
0000
0000
0000
,
1000
0000
0000
0000
,
0001
0000
0000
0000
,
0100
0000
0000
0000
,
0010
0000
0000
0000
,
0010
0000
0000
0000
,
1000
0000
0000
0000
,
0001
0000
0000
0000
,
0100
0000
0000
0000
,
1001
0000
0000
0000
;

//---------------dance-single - K. Pearman----------------
#NOTEDATA:;
#CHARTNAME:;
#STEPSTYPE:dance-single;
#DESCRIPTION:K. Pearman;
#CHARTSTYLE:;
#DIFFICULTY:Easy;
#METER:2;
#RADARVALUES:0.188404,0.232229,0.073723,0.016383,0.000000,161.000000,152.000000,9.000000,2.000000,0.000000,0.000000,0.000000,0.000000,0.000000,0.188404,0.232229,0.073723,0.016383,0.000000,161.000000,152.000000,9.000000,2.000000,0.000000,0.000000,0.000000,0.000000,0.000000;
#CREDIT:K. Pearman;
#NOTES:
0000
0000
0000
0000
,
0000
0000
0000
0000
,
0000
0000
0000
0000
,
0000
0000
0000
0000
,
1000
0010
0100
0000
,
0010
0000
0000
0000
,
0100
0001
1000
0000
,
0001
0000
0000
0000
,
1001
0000
0000
0000
,
0001
0001
0010
0000
,
0100
0000
0000
0000
,
1000
1000
0010
0000
,
0100
0000
0000
0000
,
0001
0001
1000
1000
,
0100
0000
0000
0000
,
1001
0000
0000
0000
,
1000
1000
0001
0001
,
1000
0001
1000
0001
,
1000
1000
0001
0001
,
0010
0000
0100
0000
,
0010
0010
0100
0100
,
0010
0100
0010
0100
,
0010
0010
0100
0100
,
1000
0000
0001
0000
,
0010
0000
0001
0000
,
0100
0000
0001
1000
,
0010
0000
1000
0001
,
0010
0000
0100
0000
,
1001
0000
0010
0000
,
1001
0000
0001
0000
,
1000
0100
1000
0000
,
0001
0100
0001
0000
,
1001
0000
0000
0000
,
1000
0010
0100
0001
,
1000
0000
0010
0000
,
1000
0100
1000
0000
,
0001
0000
0010
0000
,
0001
0100
0001
0000
,
1000
1000
0010
0000
,
0100
0000
0000
0000
,
0001
0001
0010
0000
,
0100
0000
0000
0000
,
1000
1000
0001
0001
,
1000
0001
1000
0001
,
1000
1000
0001
0001
,
0010
0000
0100
0000
,
0010
0010
0100
0100
,
0010
0100
0010
0100
,
0010
0010
0100
0100
,
1000
0000
0001
0000
,
0010
0000
0000
0000
,
0100
0000
0000
0000
,
0001
0010
0100
1000
,
0001
0000
1000
0000
,
0110
0000
0010
0000
,
1001
0000
0001
0000
,
1000
0100
0010
0001
,
0100
0000
0010
0000
,
0110
0000
0001
0000
,
1000
0000
0010
0000
,
0100
0001
1000
0000
,
0100
1000
0001
0010
,
2002
0000
0000
0000
,
3003
0000
0000
0000
;

//---------------dance-single - K. Pearman----------------
#NOTEDATA:;
#CHARTNAME:;
#STEPSTYPE:dance-single;
#DESCRIPTION:K. Pearman;
#CHARTSTYLE:;
#DIFFICULTY:Medium;
#METER:4;
#RADARVALUES:0.250425,0.309638,0.073723,0.016383,0.000000,214.000000,205.000000,9.000000,2.000000,0.000000,0.000000,0.000000,0.000000,0.000000,0.250425,0.309638,0.073723,0.016383,0.000000,214.000000,205.000000,9.000000,2.000000,0.000000,0.000000,0.000000,0.000000,0.000000;
#CREDIT:K. Pearman;
#NOTES:
0000
0000
0000
0000
,
0000
0000
0000
0000
,
0000
0000
0000
0000
,
0000
0000
0000
0000
,
0001
0110
1000
0000
,
0001
0100
0010
0000
,
1000
0110
0001
0000
,
1000
0010
0100
0000
,
0001
0010
0001
0100
,
0001
1000
0100
0000
,
1000
0010
1000
0100
,
1000
0001
0010
0000
,
0001
0010
0100
1000
,
0001
1000
0010
0100
,
0001
1000
0001
0100
,
0010
0000
0100
0000
,
0001
0010
0100
0100
,
0010
0001
1000
1000
,
0010
0100
1000
0100
,
0001
1000
0010
1000
,
0001
0001
0010
0100
,
1000
0001
0100
0100
,
0010
1000
0001
0001
,
1000
0010
0100
0001
,
0010
0001
1000
0001
,
0100
0000
0010
0100
,
0001
0010
1000
0010
,
0001
1000
0010
0100
,
1001
0000
0001
1000
,
0110
0000
0100
0001
,
1000
1000
0001
0001
,
0010
0000
0100
0000
,
1001
0000
0010
0000
,
1000
0001
1000
0001
1000
0001
1000
0000
,
1001
0000
0000
0000
,
0001
0100
0010
1000
,
0001
0000
0010
0000
0100
0000
0000
1000
,
0000
0000
0000
0000
,
1000
0100
0010
0001
,
1000
0010
0100
1000
,
0100
0000
0001
0000
1000
0000
0000
0001
,
0000
0000
0000
0000
,
0001
0001
0010
0010
,
0001
0100
0010
1000
,
0100
0100
1000
1000
,
0001
0010
1000
0010
,
0100
1000
0001
0100
,
0010
1000
0001
0010
,
0100
0100
0010
0010
,
0001
1000
0010
0100
,
0010
0000
1000
0001
,
0100
0000
0001
1000
,
0001
0010
0100
1000
,
0001
0100
0010
0100
,
1000
0000
0100
0001
,
0010
0000
0100
1000
,
0010
0000
0100
0001
,
1000
0001
0010
0100
,
0010
0001
1000
0010
,
0100
0010
1000
0001
,
0100
0010
0100
0001
,
1000
0100
1100
0101
,
2002
0000
0000
0000
,
3003
0000
0000
0000
;

//---------------dance-single - K. Pearman----------------
#NOTEDATA:;
#CHARTNAME:;
#STEPSTYPE:dance-single;
#DESCRIPTION:K. Pearman;
#CHARTSTYLE:;
#DIFFICULTY:Hard;
#METER:8;
#RADARVALUES:0.491489,0.490260,0.163830,0.212979,0.053245,420.000000,400.000000,20.000000,26.000000,0.000000,0.000000,0.000000,0.000000,0.000000,0.491489,0.490260,0.163830,0.212979,0.053245,420.000000,400.000000,20.000000,26.000000,0.000000,0.000000,0.000000,0.000000,0.000000;
#CREDIT:;
#NOTES:
0000
0000
0000
0000
,
0000
0000
0000
0000
,
0000
0000
0000
0000
,
0000
0000
0000
0000
,
0101
0000
0100
1000
0100
0001
0010
0000
,
1100
0000
0100
0001
0100
1000
0010
0000
,
0110
0000
0100
0001
1000
0100
0010
0002
,
0000
2003
0000
3020
0000
0130
0001
0000
,
1001
0000
1000
0010
0100
0100
0001
1000
,
0100
0020
0000
0032
0000
1003
0010
1000
,
0001
0001
0010
0100
1000
1000
0001
0100
,
0010
2000
0000
3020
0000
0130
0001
1000
,
0001
0010
0001
0100
0100
0010
1000
0001
,
0010
0200
0000
2300
0000
3001
0100
2000
,
0000
3100
0010
1000
0001
0010
0100
0100
,
1000
0001
0100
0000
0001
1000
0100
0000
,
1000
0000
0001
0100
0001
0000
1000
0000
0010
0000
0100
0000
0001
0000
0001
0000
,
0010
0000
0100
1000
0100
0000
1000
0000
0100
0000
1000
0000
0001
0000
0010
0000
,
0100
0000
1000
0001
1000
0000
0010
0000
0100
0000
0100
0000
0001
0000
1000
0000
,
0002
0000
0013
0001
0100
1000
0100
0000
,
0010
0000
1000
0001
1000
0000
0100
0000
0010
0000
0001
0000
0100
0000
0100
0000
,
0010
0000
1000
0000
0001
0000
0100
0010
0100
0000
0000
0001
0000
0000
1000
0000
,
0100
1000
0001
0001
0010
0100
1000
1000
,
0002
0000
0013
0001
0100
1000
0100
0000
,
0110
0000
1001
0000
0001
1000
0010
1000
,
0100
0000
0110
0000
0010
0001
1000
0001
,
0000
0100
0010
0000
0100
1000
0100
0001
,
0010
0000
0100
0001
0100
1000
0100
0000
,
0011
0000
0100
0000
0010
1000
0001
1000
,
0100
0000
1010
0000
0100
0002
0000
2003
,
0000
3001
0100
1000
0100
0001
0010
0100
,
1000
0000
0001
0100
0000
0010
0100
0000
,
1001
0000
0001
0011
0000
1000
1100
0100
,
0010
0001
1000
0010
0100
0001
1000
0001
,
0101
0000
0010
0100
0001
0001
0100
0010
,
1000
0001
0010
0200
0000
2300
0000
3100
,
0010
1000
0010
0001
0010
0100
0001
0100
,
1000
0002
0000
0203
0000
0301
0100
0010
,
1000
0001
0100
0010
1000
0100
1000
0001
,
0000
0020
0000
0230
0000
0310
0001
1000
,
0010
0100
1000
0100
0001
0100
0010
1000
,
0010
0000
0010
0100
0000
0001
1000
0001
,
0001
0000
1000
0010
1000
0000
0001
0000
0100
0000
0010
0000
1000
0000
1000
0000
,
0100
0000
0010
0001
0010
0000
0001
0000
0010
0000
0001
0000
1000
0000
0100
0000
,
0010
0000
0001
1000
0001
0000
0100
0000
0010
0000
0010
0000
1000
0000
0001
0000
,
2000
0000
3100
1000
0010
0001
0010
0000
,
0100
0000
0001
1000
0001
0000
0010
0000
0100
0000
1000
0000
0010
0000
0010
0000
,
0100
0000
0001
0000
1000
0000
0010
0100
0010
0000
0000
1000
0000
0000
0001
0000
,
0010
0001
1000
1000
0100
0010
0001
0001
,
2000
0000
3100
1000
0010
0001
0010
0000
,
0110
0000
1001
0000
1000
0001
0100
0001
,
0010
0000
0110
0000
0100
1000
0001
1000
,
0000
0010
0100
0000
0010
0001
0010
1000
,
0100
0000
0010
1000
0010
0001
0010
0000
,
1100
0000
0010
0000
0100
0001
1000
0001
,
0010
0000
0101
0000
0010
2000
0000
3002
,
0000
1003
0010
0001
0010
1000
0100
0010
,
0001
0000
0000
0000
1000
0000
0000
0000
0001
0100
0001
0000
1000
0000
0001
0000
,
0101
0000
0001
1000
0100
1000
0001
0010
,
0100
1000
0001
0100
0001
1000
0010
0100
,
0001
1000
0010
1000
0001
0010
0100
1000
,
0001
0010
0001
1000
0010
0100
0001
0000
,
2002
0000
0000
0000
,
3003
0000
0000
0000
;

//---------------dance-single - Overcharted----------------
#NOTEDATA:;
#CHARTNAME:K. Pearman;
#STEPSTYPE:dance-single;
#DESCRIPTION:Overcharted;
#CHARTSTYLE:;
#DIFFICULTY:Challenge;
#METER:11;
#RADARVALUES:0.827340,0.903111,0.147447,0.245745,1.003457,707.000000,689.000000,18.000000,30.000000,0.000000,0.000000,0.000000,0.000000,0.000000,0.827340,0.903111,0.147447,0.245745,1.003457,707.000000,689.000000,18.000000,30.000000,0.000000,0.000000,0.000000,0.000000,0.000000;
#CREDIT:K. Pearman;
#NOTES:
0000
0000
0000
0000
,
0000
0000
0000
0000
,
0000
0000
0000
0000
,
0000
0000
0000
0000
,
1001
0000
0001
0100
0001
0001
1000
0001
,
0010
0100
1000
0100
0000
1000
0001
0100
,
0010
0000
0100
0010
1000
0010
0100
0001
,
1000
0100
1000
0001
1000
0010
1000
0100
,
1100
0000
0000
0000
0001
0000
0100
0000
0010
0100
0010
0000
0100
0000
0001
0000
,
2000
0100
3100
1100
0000
0011
0001
0100
,
0010
0100
0001
1000
0100
0000
0010
0000
0001
0100
0001
0000
1000
0000
0100
0000
,
0010
0001
0100
0001
0000
1000
0010
1000
,
0100
0010
0100
0000
1000
0000
0001
0000
0100
0000
0010
0000
1000
0000
0002
0000
,
0100
0000
0103
0000
0000
0000
0001
0000
0100
0000
0001
1000
0001
0000
1000
0000
,
0100
0010
0001
1000
0010
0000
0100
0000
0010
1000
0001
0100
0001
0010
0100
1000
,
0010
0100
1001
0000
1000
0010
0101
0001
,
1000
0000
0001
0010
0100
1000
0010
1000
0100
1000
0001
0100
0010
0100
0001
0000
,
1000
0000
0010
0100
0010
1000
0001
0010
0100
1000
0010
1000
0001
0100
0010
0000
,
0100
0000
0001
0100
0001
0010
0100
1000
0001
0100
0001
0010
0100
0010
0001
1000
,
0002
0000
0203
0320
2030
3200
0302
0003
,
1100
0000
0000
0000
0000
0000
0001
0000
0100
0000
0010
0000
1000
0000
0000
0010
0000
0000
1000
0000
0000
0001
0000
0000
0100
0000
0000
0010
0000
0000
0100
0000
0001
0000
1000
0000
0100
0000
0000
0010
0000
0000
0001
0000
0000
0000
0000
0000
,
0100
0000
0010
1000
0100
0000
0010
0001
1000
0001
0100
0010
0100
0001
0010
0100
,
1000
0000
0010
0000
0101
0000
0010
0000
1000
0100
1000
0001
0010
0100
1000
0000
,
0002
0000
0203
0320
2030
3200
0302
0103
,
1000
0010
0100
0001
1000
0100
1000
0010
0100
0010
1000
0001
0010
0100
1000
0100
,
1000
0010
0100
0010
1000
0001
0010
0100
0010
0001
0100
0010
0100
0001
1000
0001
,
0010
0100
1000
0001
0100
0010
0100
0001
1000
0010
1000
0001
0100
0010
0100
0001
,
1000
0000
0000
0000
0000
0000
0001
0000
0100
0000
0010
0000
1000
0000
0000
0010
0000
0000
0100
0000
0000
0001
0000
0000
0100
0000
0000
0000
0000
0000
0001
0000
0000
0000
0000
0000
1000
0000
0000
0000
0000
0000
0001
0000
0000
0000
0000
0000
,
0100
0010
1000
0010
0100
0000
0001
0000
0010
0001
1000
0100
1000
0001
0010
0100
,
1000
0100
0010
0100
1000
0010
0100
0001
1000
0001
0100
0010
1000
0001
0010
0100
,
1000
0001
0100
0001
1000
0010
0100
0001
0100
0010
0100
0001
1000
0100
0010
0001
,
0100
0001
1000
0001
0010
0100
1000
0001
,
1001
0000
0000
0000
0110
0000
1000
0000
0000
0000
0110
0000
0001
0000
1000
0100
,
1000
0001
0100
0001
1000
0100
1000
0001
0100
0001
1000
0100
0010
0000
0001
0000
,
0011
0000
0000
0000
1000
0000
0010
0000
0100
0010
0100
0000
0010
0000
1000
0000
,
0002
0010
0013
0011
0000
1100
1000
0010
,
0100
0010
1000
0001
0010
0000
0100
0000
1000
0010
1000
0000
0001
0000
0010
0000
,
0100
1000
0010
1000
0000
0001
0100
0001
,
0010
0100
0010
0000
0001
0000
1000
0000
0010
0000
0100
0000
0001
0000
2000
0000
,
0010
0000
3010
0000
0000
0000
1000
0000
0010
0000
1000
0001
1000
0000
0001
0000
,
0010
0100
1000
0001
0100
0000
0010
0000
0100
0001
1000
0010
1000
0100
0010
0001
,
0100
0010
1001
0000
0001
0100
1010
1000
,
0001
0000
1000
0100
0010
0001
0100
0001
0010
0001
1000
0010
0100
0010
1000
0000
,
0001
0000
0100
0010
0100
0001
1000
0100
0010
0001
0100
0001
1000
0010
0100
0000
,
0010
0000
1000
0010
1000
0100
0010
0001
1000
0010
1000
0100
0010
0100
1000
0001
,
2000
0000
3020
0230
0302
0023
2030
3000
,
0011
0000
0000
0000
0000
0000
1000
0000
0010
0000
0100
0000
0001
0000
0000
0100
0000
0000
0001
0000
0000
1000
0000
0000
0010
0000
0000
0100
0000
0000
0010
0000
1000
0000
0001
0000
0010
0000
0000
0100
0000
0000
1000
0000
0000
0000
0000
0000
,
0010
0000
0100
0001
0010
0000
0100
1000
0001
1000
0010
0100
0010
1000
0100
0010
,
0001
0000
0100
0000
1010
0000
0100
0000
0001
0010
0001
1000
0100
0010
0001
0000
,
2000
0000
3020
0230
0302
0023
2030
3010
,
0001
0100
0010
1000
0001
0010
0001
0100
0010
0100
0001
1000
0100
0010
0001
0010
,
0001
0100
0010
0100
0001
1000
0100
0010
0100
1000
0010
0100
0010
1000
0001
1000
,
0100
0010
0001
1000
0010
0100
0010
1000
0001
0100
0001
1000
0010
0100
0010
1000
,
0001
0000
0000
0000
0000
0000
1000
0000
0010
0000
0100
0000
0001
0000
0000
0100
0000
0000
0010
0000
0000
1000
0000
0000
0010
0000
0000
0000
0000
0000
1000
0000
0000
0000
0000
0000
0001
0000
0000
0000
0000
0000
1000
0000
0000
0000
0000
0000
,
0010
0100
0001
0100
0010
0000
1000
0000
0100
1000
0001
0010
0001
1000
0100
0010
,
0001
0010
0100
0010
0001
0100
0010
1000
0001
1000
0010
0100
0001
1000
0100
0010
,
0001
1000
0010
1000
0001
0100
0010
1000
0010
0100
0010
1000
0001
0010
0100
1000
,
0010
1000
0001
1000
0100
0010
0001
0100
0010
0100
0001
1000
0100
1000
0001
0100
,
0010
0100
0001
1000
0100
0010
0001
1000
0100
1000
0001
1000
0010
0100
0001
0010
,
0001
1000
0001
0100
0010
1000
0100
1000
0001
0010
0100
1000
0001
1000
0100
0010
,
0001
1000
0010
1000
0001
0010
0100
0010
0001
0100
0010
0100
0001
1000
0010
0100
,
0010
0000
0000
1000
0000
0000
0100
0000
0000
0010
0000
0000
0100
0000
0000
1000
0000
0000
0001
0000
0000
0100
0000
0000
0010
0000
1000
0000
0001
0000
0100
0000
0000
0010
0000
0000
0100
0000
0001
0000
1000
0000
0100
0000
0000
2000
0000
0000
,
0002
0000
0000
0000
,
3003
0000
0000
0000
;

//---------------dance-double - K. Pearman----------------
#NOTEDATA:;
#CHARTNAME:;
#STEPSTYPE:dance-double;
#DESCRIPTION:K. Pearman;
#CHARTSTYLE:;
#DIFFICULTY:Easy;
#METER:3;
#RADARVALUES:0.194255,0.258032,0.147447,0.073723,0.000000,166.000000,148.000000,18.000000,9.000000,0.000000,0.000000,0.000000,0.000000,0.000000,0.194255,0.258032,0.147447,0.073723,0.000000,166.000000,148.000000,18.000000,9.000000,0.000000,0.000000,0.000000,0.000000,0.000000;
#CREDIT:;
#NOTES:
00000000
00000000
00000000
00000000
,
00000000
00000000
00000000
00000000
,
00000000
00000000
00000000
00000000
,
00000000
00000000
00000000
00000000
,
00010000
01000000
00001000
00000000
,
00010000
00000100
00001000
00000000
,
00000010
00000010
00000100
00000000
,
00000001
00000100
00001000
00000000
,
00011000
00000000
00000000
00100000
,
10000000
00000000
00000000
00010000
,
00100000
00000000
00000000
01000000
,
00100000
00000000
00000000
00001000
,
00010000
00000000
00000000
00000100
,
00001000
00000000
00000000
00000010
,
00000100
00000000
00000000
00000001
,
00000010
00000000
00000000
00000000
,
00001001
00000100
00000010
00000001
,
00000100
00001000
00010000
01000000
,
10000000
00010000
10000000
00100000
,
02000000
00000000
00002000
03003000
,
00011000
00010000
00100000
01000000
,
00010000
10000000
01000000
00010000
,
00001000
00010000
00001000
00000100
,
00000002
00000000
00000020
00000033
,
00001001
00000000
00000000
00000000
,
10010000
00000000
00000000
00000000
,
00001000
00010000
00001000
00010000
,
00011000
00000000
00000000
00000000
,
01100000
00000000
00000000
00000000
,
00000110
00000000
00000000
00000000
,
00010000
00001000
00010000
00001000
,
00011000
00000000
00000000
00000000
,
10010000
00000000
00000000
00000000
,
00100000
01000000
00010000
10000000
,
01000000
00000000
00000000
00100000
,
00001000
00000000
00000000
00010000
,
00000010
00000000
00000000
00000100
,
00000001
00000000
00000000
00001000
,
00000100
00000000
00000000
00010000
,
00001000
00000000
00000000
01000000
,
00010000
00000000
00000000
01000000
,
00100000
00000000
00000000
00000000
,
10010000
00100000
10000000
01000000
,
00010000
00001000
00000100
00000001
,
00000010
00000100
00001000
00000001
,
00002000
00000000
00000200
00003300
,
00011000
00000010
00000001
00000100
,
00001000
00010000
01000000
10000000
,
00100000
01000000
00100000
10000000
,
00020000
00000000
00200000
00330000
,
10010000
00000000
00000000
00000000
,
00001001
00000000
00000000
00000000
,
00010000
00001000
00010000
00001000
,
00011000
00000000
00000000
00000000
,
00000110
00000000
00000000
00000000
,
01100000
00000000
00000000
00000000
,
00001000
00010000
00001000
00010000
,
00011000
00000000
00000000
00000000
,
00010000
00100000
00010000
00100000
,
00001000
00010000
00001000
00010000
,
00000010
00001000
00000010
00001000
,
00000100
00010000
00001000
01000000
,
00200000
00000000
00000000
00000000
,
00300000
00000000
00000000
00000000
;

//---------------dance-double - ----------------
#NOTEDATA:;
#CHARTNAME:;
#STEPSTYPE:dance-double;
#DESCRIPTION:;
#CHARTSTYLE:;
#DIFFICULTY:Medium;
#METER:6;
#RADARVALUES:0.305425,0.335441,0.098298,0.065532,0.000000,261.000000,249.000000,12.000000,8.000000,0.000000,0.000000,0.000000,0.000000,0.000000,0.305425,0.335441,0.098298,0.065532,0.000000,261.000000,249.000000,12.000000,8.000000,0.000000,0.000000,0.000000,0.000000,0.000000;
#CREDIT:K. Pearman;
#NOTES:
00000000
00000000
00000000
00000000
,
00000000
00000000
00000000
00000000
,
00000000
00000000
00000000
00000000
,
00000000
00000000
00000000
00000000
,
00011000
00000000
00001000
00000000
00000100
00000000
00000001
00001000
,
00000000
00000000
00000001
00000010
,
00000100
00000000
00010000
00000000
00001000
00000000
01000000
00010000
,
00000000
01000000
00000000
00100000
00000000
10000000
00000000
00000000
,
10010000
00000000
00010000
00000000
10000000
00000000
01000000
01000000
,
01000000
00000000
00100000
00000000
00001000
00000000
00010000
00010000
,
00010000
00000000
00001000
00000000
00000100
00000000
00000001
00000001
,
00000001
00000000
00001000
00000001
,
00001001
00000000
00001000
00000000
00000100
00000000
00010000
00010000
,
00010000
00000000
00001000
00000000
01000000
00000000
00010000
00010000
,
00010000
00000000
10000000
00000000
01000000
00000000
00100000
00010000
,
10000000
00000000
00000000
00000000
,
10000000
01000000
10000000
00000000
00010000
00000000
00100000
00000000
,
00001000
00010000
00001000
00000000
00000010
00000000
00000001
00000000
,
00000100
00000010
00000100
00000000
00000001
00000000
00001000
00000000
,
00000200
00020300
00032000
02003000
,
03000000
00000000
00010000
01000000
00010000
00000000
00100000
00000000
,
00100000
00000000
00001000
00010000
00001000
00000000
00010000
00000000
,
00000100
00000000
00000100
00000000
00000010
00000001
00001000
00000000
,
00000020
00000000
00000230
00000301
,
00000010
00000001
00001000
00000010
,
00000100
00001000
00010000
01000000
,
00100000
00010000
10000000
01000000
,
10010000
00000000
00010000
01000000
,
01100000
00000000
00100000
10000000
,
10010000
00000000
10000000
01000000
,
00010000
00001000
00010000
00000000
00001000
00000000
00000100
00000000
,
00000001
00000010
00000001
00000100
,
00001001
00000000
00000000
00000100
00000000
00000010
00000001
00000000
,
00001000
00000001
00001000
00000001
00001000
00000001
00001000
00000000
,
00000100
00001000
00000010
00001000
,
00000100
00010000
00001000
00010000
,
00001000
00000000
00100000
00000000
00010000
00000000
01000000
00010000
,
10000000
00010000
10000000
00000000
,
01000000
00000000
00100000
00000000
01000000
00000000
10000000
00100000
,
10000000
00010000
01000000
01000000
,
00100000
00000000
00010000
00000000
00001000
00000000
00000010
00001000
,
00010000
00000000
00001000
00000100
,
00000001
00001000
00000001
00000000
00000010
00000000
00000100
00000000
,
00010000
00001000
00010000
00000000
00001000
00000000
01000000
00000000
,
00010000
10000000
00010000
00000000
00100000
00000000
01000000
00000000
,
10000000
00100000
01000000
00010000
,
00100000
00000000
00010000
00000000
01000000
00001000
00010000
00000000
,
00000100
00000000
00001000
00000000
00000010
00001000
00000001
00000000
,
00000010
00000000
00000100
00000000
00001000
00000001
00000010
00000000
,
00000001
00000000
00000010
00000000
00000100
00001000
00000001
00000000
,
00000100
00000001
00001000
00000100
,
00000010
00001000
00010000
00100000
,
01000000
00010000
10000000
00100000
,
10010000
00000000
00010000
00100000
,
01100000
00000000
01000000
10000000
,
10010000
00000000
10000000
00100000
,
00010000
00001000
00010000
00000000
00001000
00000000
00000010
00000000
,
00000001
00000100
00000001
00000010
,
00011000
00000000
00001000
00000000
01000000
00100000
01000000
00000000
,
00001000
00000000
00010000
00000000
00000100
00000010
00000100
00000000
,
00010000
00000000
00001000
00000000
00100000
01000000
00100000
00000000
,
00001000
00000000
00010000
00000000
00000010
00000100
00000010
00000000
,
00002002
00000000
00000000
00000000
,
00003003
00000000
00000000
00000000
;

//---------------dance-double - ----------------
#NOTEDATA:;
#CHARTNAME:;
#STEPSTYPE:dance-double;
#DESCRIPTION:;
#CHARTSTYLE:;
#DIFFICULTY:Hard;
#METER:9;
#RADARVALUES:0.478617,0.464457,0.163830,0.122872,0.000000,409.000000,389.000000,20.000000,15.000000,0.000000,0.000000,0.000000,0.000000,0.000000,0.478617,0.464457,0.163830,0.122872,0.000000,409.000000,389.000000,20.000000,15.000000,0.000000,0.000000,0.000000,0.000000,0.000000;
#CREDIT:K. Pearman;
#NOTES:
// measure 0
00000000
00000000
00000000
00000000
,  // measure 1
00000000
00000000
00000000
00000000
,  // measure 2
00000000
00000000
00000000
00000000
,  // measure 3
00000000
00000000
00000000
00000000
,  // measure 4
10100000
00000000
00100000
10000000
00010000
10000000
00200000
00000000
,  // measure 5
01300000
00000000
00001000
00010000
00000100
00010000
00001000
00000000
,  // measure 6
00000010
00000000
00000001
00000100
00000001
00001000
00000001
00000200
,  // measure 7
00000000
00002300
00000000
00023000
00000000
01030000
00100000
00000000
,  // measure 8
10010000
00000000
10000000
00100000
00010000
00000000
00001000
00000010
,  // measure 9
00000100
00000000
00001000
00000001
00000000
00000100
00000000
00000010
,  // measure 10
00000100
00000001
00001000
00000001
00000010
00001000
00010000
01000000
,  // measure 11
10000000
00000000
00010000
01000000
00000000
00100000
01000000
00000000
,  // measure 12
00010000
00000000
01000000
00100000
10000000
00010000
00100000
00001000
,  // measure 13
00000000
00010000
00001000
00000010
00000000
00000001
00000100
00000010
,  // measure 14
00000000
00000100
00000010
00001000
00000001
00000010
00000100
00001000
,  // measure 15
00000010
00001100
00010000
00011000
,  // measure 16
00001000
01000000
00010000
00100000
10000000
00100000
00010000
01000000
,  // measure 17
00001000
00010000
00000100
00001000
00000010
00000001
00000010
00001000
,  // measure 18
00000100
00010000
00001000
01000000
00010000
00100000
10000000
00100000
,  // measure 19
00010000
00000000
01000000
10000000
01000000
00010000
00100000
00000000
,  // measure 20
00001000
00010000
00000010
00010000
00001000
00000100
00001000
00010000
,  // measure 21
00001000
00100000
00001000
00010000
01000000
00010000
00001000
00010000
,  // measure 22
00000100
00010000
00001000
00010000
00000010
00000100
00000001
00000010
,  // measure 23
00001000
00000000
00000010
00000100
00001000
00000010
00000100
00000000
,  // measure 24
00011000
00000000
01100000
00000000
00010000
00100000
10000000
00000000
,  // measure 25
01100000
00000000
00011000
00000000
00001000
00000100
00000001
00000000
,  // measure 26
00000010
00000001
00000100
00001000
00000100
00000010
00001000
00000001
,  // measure 27
00000010
00000100
00000001
00000100
00000010
00000001
00001000
00000000
,  // measure 28
00001001
00000000
00011000
00000000
00001000
00010000
00100000
00010000
,  // measure 29
00011000
00000000
10010000
00000000
10000000
01000000
00010000
02000000
,  // measure 30
00000000
13000000
00100000
00000000
01000000
00100000
10000000
00010000
,  // measure 31
01000000
00000000
01100000
00000000
00100000
10000000
00010000
00000000
,  // measure 32
00210000
00000000
00301000
00010000
00000000
00010000
00001000
00000100
,  // measure 33
00000010
00001000
00000100
00010000
00001000
01000000
00100000
00010000
,  // measure 34
00002000
00000000
00013000
00001000
00000100
00000010
00001000
00000001
,  // measure 35
00000020
00000000
00000130
00000010
00000000
00000001
00000010
00000100
,  // measure 36
00001000
00001000
00000010
00000010
00010000
00001000
00100000
00010000
,  // measure 37
10000000
10000000
01000000
01000000
00000000
00100000
00010000
10000000
,  // measure 38
00100000
01000000
10000000
01000000
00010000
00100000
00001000
00020000
,  // measure 39
00000000
00030100
00010000
00002000
00000000
00003100
00000001
00000020
,  // measure 40
00000000
00001030
00010000
02000000
00000000
03100000
00010000
10000000
,  // measure 41
00000000
00100000
01000000
00010000
00000000
01000000
10010000
00000000
,  // measure 42
10000000
01000000
00010000
00001000
00000100
00000001
00000010
00000001
,  // measure 43
00000100
00001000
00010000
01000000
10000000
00100000
00010000
00100000
,  // measure 44
10000000
01000000
00100000
00010000
01000000
00001000
00010000
00000100
,  // measure 45
00000020
00000000
00000031
00000100
00000010
00000100
00001000
00000000
,  // measure 46
00000100
00000010
00001000
00000100
00000010
00001000
00010000
00000000
,  // measure 47
00010000
00100000
01000000
00010000
00100000
01000000
00010000
00000000
,  // measure 48
00010000
00001000
00000100
00001000
00010000
01000000
00010000
00001000
,  // measure 49
00020000
00000000
01030000
00100000
00010000
01000000
00100000
00000000
,  // measure 50
10010000
00000000
10000000
01000000
00010000
00001000
00000100
00000000
,  // measure 51
00000101
00000000
00000001
00000010
00001000
00010000
00100000
00000000
,  // measure 52
01000000
00010000
10000000
00000000
00010000
10000000
01000000
00010000
,  // measure 53
01000000
10000000
00100000
00000000
10000000
00100000
00010000
00000000
,  // measure 54
00011000
00000000
00001000
00000100
00000001
00000010
00001000
00000000
,  // measure 55
00011000
00000000
00010000
01000000
10000000
00100000
00010000
00000000
,  // measure 56
00001000
00010000
00000100
00000010
00000100
00010000
00001000
00000100
,  // measure 57
00000001
00000010
00001000
00000001
00000100
00001000
00000001
00000100
,  // measure 58
00000110
00000000
00000010
00000100
00001000
00000100
00000001
00000100
,  // measure 59
00001000
00010000
01000000
10000000
01000000
00010000
01000000
00100000
,  // measure 60
01000000
00010000
00001000
00010000
00000010
00000100
00000010
00010000
,  // measure 61
00001000
00100000
01000000
00100000
00010000
01000000
10000000
00010000
,  // measure 62
00200000
00000000
00000000
00000000
,  // measure 63
00300000
00000000
00000000
00000000
;
