#TITLE:Ella Elle L'a;
#SUBTITLE:;
#ARTIST:Kate Ryan;
#TITLETRANSLIT:;
#SUBTITLETRANSLIT:;
#ARTISTTRANSLIT:;
#GENRE:;
#CREDIT:;
#BANNER:Ella Elle L'a-Banner.png;
#BACKGROUND:Ella Elle L'a-Bg.png;
#LYRICSPATH:;
#CDTITLE:;
#MUSIC:Ella Elle L'a - Kate Ryan - 125.ogg;
#OFFSET:0.009000;
#SAMPLESTART:30.711000;
#SAMPLELENGTH:15.360000;
#SELECTABLE:YES;
#BPMS:0.000000=124.999992
;
#STOPS:
;
#BGCHANGES:;
#KEYSOUNDS:;
#ATTACKS:;

//---------------dance-single - K. Pearman----------------
#NOTES:
     dance-single:
     :
     Beginner:
     2:
     0.110058,0.177785,0.050796,0.050796,0.000000,91.000000,85.000000,6.000000,6.000000,0.000000,0.000000,0.110058,0.177785,0.050796,0.050796,0.000000,91.000000,85.000000,6.000000,6.000000,0.000000,0.000000:
0000
0000
0000
0000
,
0000
0000
0000
0000
,
0000
0000
1000
0000
,
0000
0000
0001
0000
,
0000
0000
0100
0000
,
0010
0000
0000
0000
,
0000
0000
0001
0000
,
1000
0000
0000
0000
,
0000
0000
0000
0000
,
1001
0000
0000
0000
,
0100
0000
0000
0000
,
0010
0000
0000
0000
,
0000
0000
0000
0000
,
1000
0000
0001
0000
,
0000
0000
2000
3000
,
0002
0003
0100
0000
,
1001
0000
0000
0010
,
0010
0000
0000
0000
,
1000
0000
1000
0000
,
0000
0001
0001
0000
,
0000
0000
0100
0000
,
0100
0000
0000
0000
,
0010
0000
1000
0000
,
0001
0000
0000
0000
,
0200
0300
0020
0030
,
1001
0000
0110
0000
,
0000
0010
0010
0000
,
0000
0000
1000
0000
,
0001
0000
0100
0000
,
0000
0100
0100
0000
,
0001
0000
1000
0000
,
0000
0000
0010
0000
,
0000
0000
0100
0000
,
0000
0000
0001
0000
,
0000
0000
0010
0000
,
0000
0000
0100
0000
,
0000
0000
1000
0000
,
0000
0000
1001
0000
,
0001
0000
1000
0000
,
0010
0000
0100
0000
,
0100
0000
0000
0000
,
0010
0010
0000
0000
,
1000
0000
0000
0000
,
0010
0000
0001
0000
,
1000
0000
1001
0000
,
0001
0000
0100
0100
,
0000
0000
0010
0000
,
1000
0000
0000
0001
,
0001
0000
0000
0000
,
0010
0000
0100
0000
,
1000
0000
0001
0000
,
0100
0000
0100
0000
,
0000
0000
0010
0000
,
0100
0000
0001
0001
,
0001
0000
0000
1000
,
1000
0000
0000
0000
,
0010
0000
1000
0000
,
0100
0000
0000
0100
,
0100
0000
2000
0000
,
0002
0000
0000
0000
,
3003
0000
0000
0000
;

//---------------dance-single - K. Pearman----------------
#NOTES:
     dance-single:
     :
     Easy:
     3:
     0.203183,0.253979,0.084660,0.228581,0.000000,168.000000,158.000000,10.000000,27.000000,0.000000,0.000000,0.203183,0.253979,0.084660,0.228581,0.000000,168.000000,158.000000,10.000000,27.000000,0.000000,0.000000:
0000
0000
0000
0000
,
0000
0000
0000
0000
,
0000
0000
1000
0000
,
0100
0000
0010
0000
,
0001
0000
0100
0000
,
0020
0000
0030
0000
,
0001
0000
1000
0000
,
0200
0000
0300
0000
,
0000
0000
0000
0000
,
1000
0000
0010
0000
,
0100
0000
0001
0000
,
0010
0000
0200
0000
,
0300
0000
0010
0000
,
0001
0000
2000
0000
,
3000
0000
0020
0030
,
0200
0300
0002
0000
,
1003
0100
1000
0000
,
0010
0010
0100
1001
,
0001
0010
0001
0000
,
0100
0100
0010
0100
,
0010
1001
1000
0100
,
0010
0002
1003
0000
,
0001
0100
0001
0001
,
1000
0020
0130
0000
,
0020
0030
0200
0300
,
0002
0000
0013
0100
,
1000
0001
0100
0010
,
0100
1001
0001
0001
,
0100
0000
0010
1000
,
0100
0010
0100
1001
,
1000
0010
0200
0300
,
0000
0000
0020
0030
,
0000
0000
2000
3000
,
0000
0000
0002
0003
,
0000
0000
0020
0030
,
0000
0000
0200
0300
,
0000
0000
2000
3000
,
0000
0002
0103
0100
,
0001
0001
0010
0001
,
0100
0001
1000
1000
,
0010
0010
1000
0100
,
1000
0001
1000
0100
,
0010
0001
1000
1000
,
0001
0001
0100
0100
,
0010
0000
1001
0000
,
0110
0000
0001
0010
,
0001
1001
0100
0100
,
0010
0000
0100
1000
,
0010
1000
0100
1001
,
0010
0100
0001
2000
,
3001
0000
0100
0100
,
0010
0010
1000
0002
,
0013
0000
0200
0300
,
0020
0030
0001
0100
,
0001
0001
0010
0010
,
0001
0100
0010
1001
,
1000
1000
0100
0100
,
1000
0010
0100
0010
,
1000
1001
0002
2003
,
0002
0000
0000
0000
,
3003
0000
0000
0000
;

//---------------dance-single - K. Pearman----------------
#NOTES:
     dance-single:
     :
     Medium:
     4:
     0.220115,0.279377,0.118524,0.160853,0.000000,182.000000,168.000000,14.000000,19.000000,0.000000,0.000000,0.220115,0.279377,0.118524,0.160853,0.000000,182.000000,168.000000,14.000000,19.000000,0.000000,0.000000:
0000
0000
0000
0000
,
0000
0000
0000
0000
,
0000
0000
0001
0000
,
0010
0000
0001
0000
,
0100
0000
0001
0000
,
2000
0000
3000
0000
,
0010
0000
0100
0000
,
0002
0000
0003
0000
,
0000
0000
0000
0000
,
0110
0000
1000
0000
,
0001
0000
0100
0000
,
0010
0000
2000
0000
,
3000
0000
0001
0000
,
1000
0000
0200
0000
,
0300
0000
0020
0030
,
0200
0300
1000
0001
,
1001
0001
0100
0100
,
0010
0010
1000
1001
,
0001
0010
0100
0100
,
1000
1000
0001
0001
,
0100
1001
0001
0100
,
0010
0000
0000
1000
0000
0000
0010
0000
,
0100
0100
0001
0001
,
1000
0000
0000
0100
0000
0000
1000
0000
,
0020
0030
0200
0300
,
0001
1000
1001
0001
,
1000
0100
0100
1000
,
0010
0110
0100
0001
,
1000
0000
1000
0001
,
0010
0001
1000
0110
,
0001
0000
0020
0000
,
0000
0030
0001
1000
,
0001
1000
0200
0000
,
0000
0300
1000
0010
,
1000
0010
0200
0000
,
0000
0300
0001
0010
,
0001
0010
0200
0000
,
0000
1300
1001
0001
,
0100
0100
0010
1000
,
0001
0000
0001
0000
0010
0000
0100
0100
,
0100
0000
1000
0000
,
0001
0000
1000
0000
0010
0010
0100
0000
,
0001
1000
0001
0100
,
0020
0030
0200
0300
,
2002
0000
0000
3003
,
1000
0001
0100
0100
,
0001
1001
1000
0100
,
0010
0010
0001
0001
,
1000
1000
0100
1001
,
1000
0000
0010
0000
0100
0000
0000
0001
,
0000
0100
0010
0010
,
1000
0000
1000
0000
0001
0000
0000
0010
,
0000
0001
0200
0300
,
0020
0030
1000
0001
,
1001
1000
0001
0010
,
0010
0001
0100
0110
,
0010
1000
0001
0000
,
0001
1000
0100
1000
,
0001
0110
1000
0001
,
0200
0000
0000
0000
,
0300
0000
0000
0000
;

//---------------dance-single - K. Pearman----------------
#NOTES:
     dance-single:
     :
     Hard:
     7:
     0.382178,0.406366,0.093126,0.364037,0.207416,316.000000,305.000000,11.000000,43.000000,0.000000,0.000000,0.382178,0.406366,0.093126,0.364037,0.207416,316.000000,305.000000,11.000000,43.000000,0.000000,0.000000:
0000
0000
0000
0000
,
0000
0000
0000
0000
,
0000
0000
2000
0000
,
3020
0000
0230
0000
,
0302
0000
2003
3200
,
0320
0000
0032
0000
,
2003
0000
3020
0000
,
0230
0000
0302
0000
,
2003
0000
0002
3003
,
1000
0000
0000
1000
0010
0000
0000
0010
,
0100
0000
0000
0100
0001
0000
0010
0000
,
0100
0000
1000
0001
2000
0000
3000
0000
,
0020
0000
0030
0000
0200
0000
0301
0010
,
0001
0000
0000
0001
1000
0000
0000
0000
,
0000
0000
0000
0000
0000
0000
0000
1000
0020
0000
0000
0000
0000
0000
0030
0000
,
0100
0002
0000
0000
2003
0000
3000
0000
,
0001
0000
0010
0000
0001
0000
0100
0000
0010
1000
0000
0001
0000
1000
0020
0000
,
0000
0000
0030
0100
0000
0001
2000
0000
0000
0000
3000
0000
1001
0000
0000
0000
,
1000
0010
1000
0100
0001
0000
0100
1000
,
0010
0100
0000
0001
0000
0100
0020
0000
0000
0000
0030
1000
0000
0100
0020
0000
,
0000
0000
0030
0000
1001
0000
0000
0000
0100
0010
0000
0000
1000
0000
0100
0000
,
0001
0000
0100
2000
0000
3001
0010
0001
,
0100
0001
1000
0000
0010
1000
0001
0001
,
0100
0000
0110
0002
0000
0003
1000
0000
,
1000
0100
0000
0000
0010
0000
0000
0000
0001
0100
0000
0000
0010
0000
0000
0000
,
1000
0001
0100
0010
1000
0100
1000
0010
,
0100
0001
0000
1000
0000
0001
0200
0000
0000
0000
0300
0010
0000
1000
0002
0000
,
0000
0003
1001
0000
0001
0100
0001
0010
,
1000
0000
0000
0000
0010
0000
0001
0000
0100
0010
0000
1000
0000
0010
0200
0000
,
0000
0000
0300
0001
0000
0010
0200
0000
0000
0000
0300
0000
1001
0000
0001
0000
,
1000
0000
0001
0100
0010
1000
0000
0001
,
0000
1000
0000
0100
0010
0001
0000
1000
,
0000
0001
0000
0100
0010
1000
0000
0001
,
0000
1000
0000
0001
0100
1000
0000
0001
,
0000
1000
0000
0001
0010
1000
0000
0001
,
0000
1000
0000
0001
0100
0010
0000
1000
,
0000
0001
0000
1000
0100
0010
0000
0001
,
0000
1000
0200
0000
0310
0001
0100
0001
,
0011
0000
0100
1000
0010
0000
1000
0010
,
0001
0000
0010
0100
0001
0001
0100
0010
,
1000
0001
0001
0000
1000
0000
0100
0000
,
0010
0100
1000
0000
0001
0010
0100
0100
,
0010
0001
1000
0000
0010
0000
0100
0000
,
0001
1000
0000
0000
0100
0000
0000
0000
0100
0010
0000
0000
0001
0000
0000
0000
,
0001
0010
0100
1000
0001
0010
0001
0100
,
0010
1000
0000
0001
0000
1000
0020
0000
0000
0000
0030
0100
0000
0001
2000
0000
,
0000
3000
1001
0000
1000
0010
1000
0100
,
0001
0000
0000
0000
0100
0000
1000
0000
0010
0100
0000
0001
0000
0100
0020
0000
,
0000
0000
0030
1000
0000
0100
0020
0000
0000
0000
0030
0000
1001
0000
0000
0000
,
0100
0010
0000
0000
1000
0000
0100
0000
0001
0000
0000
0000
0100
0000
2000
0000
,
0000
3001
0010
0001
0100
0001
1000
0000
,
0010
1000
0001
0001
0100
0000
0110
0002
,
0000
0000
0003
0000
1000
0000
0000
0000
1000
0100
0000
0000
0010
0000
0000
0000
,
0001
0100
0000
0000
0010
0000
0000
0000
1000
0000
0001
0000
0100
0000
0010
0000
,
1000
0000
0100
0000
1000
0000
0010
0000
0100
0001
0000
1000
0000
0001
0200
0000
,
0000
0000
0300
0010
0000
1000
0002
0000
0000
0000
0003
0000
1001
0000
0000
0000
,
0001
0100
0001
0010
1000
0000
0010
0001
,
0100
0010
0000
1000
0000
0010
0200
0000
0000
0000
0300
0001
0000
0010
0200
0000
,
0000
0300
1001
0001
1000
0100
0010
0002
,
0200
0000
0000
0000
,
0303
0000
0000
0000
;

//---------------dance-double - K. Pearman----------------
#NOTES:
     dance-double:
     :
     Easy:
     3:
     0.160853,0.228581,0.042330,0.008466,0.000000,133.000000,128.000000,5.000000,1.000000,0.000000,0.000000,0.160853,0.228581,0.042330,0.008466,0.000000,133.000000,128.000000,5.000000,1.000000,0.000000,0.000000:
00000000
00000000
00000000
00000000
,
00000000
00000000
00000000
00000000
,
00000000
00000000
10000000
00000000
,
01000000
00000000
10000000
00000000
,
00010000
00000000
01000000
00000000
,
00001000
00000000
00010000
00000000
,
00001000
00000000
00010000
00000000
,
00000100
00000000
00000010
00000000
,
00000001
00000000
00001001
00000000
,
00000110
00000000
00000010
00000000
,
00001000
00000000
00000100
00000000
,
00010000
00000000
00001000
00000000
,
01000000
00000000
00010000
00000000
,
00100000
00000000
01000000
00000000
,
10000000
00000000
00010000
00000000
,
10000000
00000000
00100000
00100000
,
10010000
00010000
01000000
00000000
,
00001000
00010000
00000100
00000000
,
00000010
00000000
00000001
00000000
,
00001000
00000010
00000100
00000000
,
00000001
00000010
00000100
00000000
,
00001000
00000000
00000100
00000000
,
00010000
00010000
00001000
00001000
,
01000000
00000000
00010000
00000000
,
10000000
00010000
10000000
00000000
,
00010000
10000000
00010000
00000000
,
01000000
00000000
00001000
00000000
,
00010000
00000000
00000100
00000100
,
00000010
00000000
00000001
00000000
,
00001000
00000000
00000010
00000000
,
00000100
00000000
00000001
00000000
,
00000000
00000000
00001000
00000000
,
00000000
00000000
00010000
00000000
,
00000000
00000000
10000000
00000000
,
00000000
00000000
01000000
00000000
,
00000000
00000000
00000100
00000000
,
00000000
00000000
00000010
00000000
,
00000000
00100000
00011000
00000000
,
00001000
00000000
00100000
00000000
,
01000000
10000000
00010000
00000000
,
01000000
00000000
00001000
00000000
,
00010000
00000100
00001000
00000000
,
00000001
00000000
00000010
00000000
,
00000100
00001000
00000100
00000010
,
00000001
00000000
00001001
00000000
,
00000010
00000000
00000100
00000001
,
00000010
00000000
00000100
00000000
,
00010000
00000000
00001000
00000000
,
01000000
00010000
00100000
00000000
,
01000000
00000000
10000000
00000000
,
00100000
00000000
01000000
00000000
,
00010000
00000000
10000000
00000000
,
00010000
00000000
01000000
00010000
,
01000000
00000000
00001000
00010000
,
00001000
00000000
00010000
00000000
,
00000100
00000000
00000010
00000000
,
00000001
00000001
00001000
00001000
,
00000010
00000000
00000100
00000000
,
00000001
00000000
00001000
00000000
,
00000200
00000000
00000000
00000000
,
00000300
00000000
00000000
00000000
;

//---------------dance-double - K. Pearman----------------
#NOTES:
     dance-double:
     :
     Medium:
     4:
     0.240675,0.304775,0.084660,0.245513,0.000000,199.000000,189.000000,10.000000,29.000000,0.000000,0.000000,0.240675,0.304775,0.084660,0.245513,0.000000,199.000000,189.000000,10.000000,29.000000,0.000000,0.000000:
00000000
00000000
00000000
00000000
,
00000000
00000000
00000000
00000000
,
00000000
00000000
00010000
00000000
,
01000000
00000000
00001000
00000000
,
00010000
00000000
00000100
00000000
,
00000020
00000000
00000031
00000000
,
00001000
00000000
00000010
00010000
,
00001000
00000000
00100000
00000000
,
01000000
00000000
10000000
00010000
,
10010000
00000000
10000000
00000000
,
00100000
00000000
01000000
00000000
,
00002000
00000000
00023000
00000000
,
00030100
00000000
00000010
00000000
,
00000001
00000000
00001000
00000000
,
00000010
00000000
00000200
00000300
,
00000020
00000030
00000000
00000000
,
00001001
00000000
00000001
00000000
00000100
00000000
00000001
00001000
,
00000001
00001000
00000100
00000110
,
00000100
00010000
00001000
01000000
,
00100000
00000000
01000000
00010000
10000000
00000000
00010000
00000000
,
10000000
10010000
10000000
01000000
,
00100000
00000000
00000000
00010000
00000000
00000000
01000000
00000000
,
00001000
00010000
00000100
00001000
,
00000010
00000000
00000000
00001000
00000000
00000000
00000100
00000000
,
00020000
00030000
00002000
00003000
,
00022000
00033000
00011000
00001000
,
00100000
00000000
00010000
01000000
00010000
00000000
10000000
01000000
,
00100000
00010000
10000000
00100000
,
01000000
00000000
00001000
00000000
00010000
00000000
00000100
00001000
,
00000001
00000000
00001000
00000100
00001000
00000000
00000001
00000000
,
00000110
00001000
00000002
00000003
,
00002000
00003000
00000200
00000300
,
00020000
00030000
00002000
00003000
,
02000000
03000000
00020000
00030000
,
20000000
30000000
00020000
00030000
,
00200000
00300000
00002000
00003000
,
00020000
00030000
00000200
00000300
,
00001000
00000002
00000013
00000001
,
00001000
00000001
00000100
00001000
,
00010000
01000000
10000000
00010000
,
10000000
00100000
01000000
00100000
,
10000000
10000000
00010000
00010000
,
10000000
00000000
01000000
00000000
,
00200000
00300000
00020000
00030000
,
10000000
01000000
10010000
00010000
,
01000000
00000000
00001000
00010000
00000100
00000000
00010000
00001000
,
01000000
00001000
00010000
00000100
,
00000010
00000000
00000001
00000000
00001000
00000000
00000010
00001000
,
00000001
00000000
00000010
00000001
00001000
00000000
00001001
00000000
,
00000100
00000000
00010000
00000000
00001000
00000000
00000000
00100000
,
00000000
00001000
00010000
00001000
,
01000000
00000000
00001000
00000000
00010000
00000000
00000000
00000010
,
00000000
00010000
00002000
00003000
,
00020000
00031000
00000100
00000001
,
00001001
00000000
00000001
00000000
00000010
00000000
00000001
00000100
,
00000001
00000000
00001000
00000010
00001000
00000000
00000100
00000000
,
00010000
00010000
00001000
00001000
,
01000000
00100000
10000000
00010000
,
10000000
00000000
01000000
00100000
01000000
00000000
20000000
00000000
,
00020000
00000000
00000000
00000000
,
30030000
00000000
00000000
00000000
;

//---------------dance-double - K. Pearman----------------
#NOTES:
     dance-double:
     :
     Hard:
     8:
     0.372503,0.431764,0.152387,0.499492,0.169319,308.000000,290.000000,18.000000,59.000000,0.000000,0.000000,0.372503,0.431764,0.152387,0.499492,0.169319,308.000000,290.000000,18.000000,59.000000,0.000000,0.000000:
// measure 0
00000000
00000000
00000000
00000000
,  // measure 1
00000000
00000000
00000000
00000000
,  // measure 2
00000000
00000000
00000000
00000000
20000000
00000000
30000000
00010000
,  // measure 3
02000000
00000000
03000000
00001000
00020000
00000000
00030000
00000100
,  // measure 4
00000020
00000000
00000030
00000001
00002000
00000000
00003002
00000000
,  // measure 5
00000203
00000300
00000000
00000000
,  // measure 6
00000002
00000000
00000013
00000000
00000100
00000000
00000000
00000100
,  // measure 7
00020000
00030000
00000000
00000000
,  // measure 8
00000000
00000000
00000000
00000000
,  // measure 9
10010000
00000000
00000000
10000000
02000000
00000000
03000000
01000000
,  // measure 10
00200000
00000000
00300000
00100000
00002000
00000000
00003000
00010000
,  // measure 11
00000020
00000000
00000130
00000001
00000020
00000000
00000030
00000000
,  // measure 12
00000200
00000300
00010000
00001000
,  // measure 13
00010000
00000000
00000000
00001000
00000000
00000000
00010000
00000000
02000000
00000000
00000000
00000000
03000000
00000000
00000000
00000000
,  // measure 14
00000000
00000000
00000000
00000000
00000000
00000000
00000000
10000000
00100000
00000000
02000000
00000000
00000000
00000000
03000000
00000000
,  // measure 15
00001000
00020000
00000000
00030000
00022000
00000000
00033000
00000000
,  // measure 16
00011000
00000000
00000000
00000000
00010000
00000000
00100000
00000000
10000000
00000000
00000000
01000000
00000000
00200000
00010000
00000000
,  // measure 17
00000000
00300000
00000000
00001000
00000000
01000000
00200000
00000000
00000000
00000000
00300000
00000000
10010000
00000000
00000000
00000000
,  // measure 18
01000000
00001000
00100000
00001000
01000000
00000000
00001000
00000100
,  // measure 19
00000001
00000000
00000000
00000010
00000000
00000200
00001000
00000000
00000000
00000300
00000000
00010000
00000000
00000010
00000200
00000000
,  // measure 20
00000000
00000300
00002001
00000000
00003010
00010000
00000100
00010000
,  // measure 21
00000010
00000000
00010000
00200000
00000000
00300000
00000000
00000000
,  // measure 22
10000000
01000000
00100000
00000000
00010000
01000000
00100000
00000000
,  // measure 23
01000000
00000000
00001000
00000020
00000000
00000030
00000001
00000000
,  // measure 24
00000100
00000020
00000000
00000000
00020030
00000000
00000000
00000000
00130000
02000000
00000000
00000000
03001000
00000000
00000000
00000000
,  // measure 25
00010000
00001000
00010000
00001000
00011000
00000000
00001000
00000100
,  // measure 26
00000001
00000000
00000000
00000010
00000000
00000200
00001000
00000000
00000000
00000300
00000000
00010000
00000000
00000010
00000200
00000000
,  // measure 27
00000000
00000300
00002001
00000000
00003010
00010000
00000100
00010000
,  // measure 28
00000010
00000000
00000000
00000000
00010000
00000000
00100000
00000000
10000000
00000000
00000000
01000000
00000000
00200000
00010000
00000000
,  // measure 29
00000000
00300000
00000000
00001000
00000000
01000000
00200000
00000000
00000000
00000000
00300000
00000000
10020000
00000000
00000000
00000000
,  // measure 30
01030000
00001000
00100000
00001000
01000000
00010000
10000000
01000000
,  // measure 31
00000000
00100000
00000000
00001000
00000100
00000001
00000000
00000010
,  // measure 32
00000000
00000100
00000000
00010000
01000000
10000000
00000000
00100000
,  // measure 33
00000000
00010000
00000000
00001000
00000100
00000001
00000000
00000010
,  // measure 34
00000000
00000100
00000000
00010000
01000000
10000000
00000000
00100000
,  // measure 35
01000000
00001000
00000000
00000010
00000100
00010000
01000000
10000000
,  // measure 36
00100000
00010000
00001000
00010000
00100000
10000000
01000000
00010000
,  // measure 37
00001000
00010000
01000000
00000000
10010000
00000000
10000000
01000000
,  // measure 38
01000000
00000000
00010000
00000010
00000010
00000000
00000100
00000001
,  // measure 39
00001000
00000001
00000100
00001000
00010000
01000000
00100000
00001000
,  // measure 40
02000000
13000000
01000000
00010000
,  // measure 41
00100000
00010000
00001000
00010000
00100000
00001000
01000000
10000000
,  // measure 42
02000000
03001000
00020000
00030100
,  // measure 43
00000010
00000001
00000000
00000000
00001100
00000000
00000000
00000000
00010000
01000000
00000000
00000000
10100000
00000000
00000000
00000000
,  // measure 44
00022000
00000000
00033000
00000000
00011000
00000000
00001000
00000100
,  // measure 45
00000001
00000000
00000000
00000010
00000000
00000200
00001000
00000000
00000000
00000300
00000000
00010000
00000000
00000010
00000200
00000000
,  // measure 46
00000000
00000300
00002001
00000000
00003010
00010000
00000100
00010000
,  // measure 47
00000010
00000000
00000000
00000000
00010000
00000000
00100000
00000000
10000000
00000000
00000000
01000000
00000000
00200000
00010000
00000000
,  // measure 48
00000000
00300000
00000000
00001000
00000000
01000000
00200000
00000000
00000000
00000000
00300000
00000000
10020000
00000000
00000000
00000000
,  // measure 49
01030000
00001000
00100000
00001000
01000000
00000000
00001000
00000200
,  // measure 50
00000000
00000300
00000000
00000000
00000001
00000010
00000100
00000000
,  // measure 51
00001000
00000010
00000100
00000000
00000010
00000000
00010000
02000000
,  // measure 52
00000000
00000000
03000000
00000000
10000000
00000000
00000000
00000000
00100000
02000000
00000000
00000000
03002000
00000000
00000000
00000000
,  // measure 53
00003100
00000020
00000000
00000000
00010030
00000000
00000000
00000000
00001000
00000000
00010000
00000000
00001000
00000000
00010000
00000000
,  // measure 54
00011000
00000000
00000000
00000000
00010000
00000000
00100000
00000000
10000000
00000000
00000000
01000000
00000000
00200000
00010000
00000000
,  // measure 55
00000000
00300000
00000000
00001000
00000000
01000000
00200000
00000000
00000000
00000000
00300000
00000000
10020000
00000000
00000000
00000000
,  // measure 56
01030000
00001000
00100000
00001000
01000000
00000000
00001000
00000100
,  // measure 57
00000001
00000000
00000000
00000010
00000000
00000200
00001000
00000000
00000000
00000300
00000000
00010000
00000000
00000010
00000200
00000000
,  // measure 58
00000000
00000300
00002001
00000000
00003010
00010000
00000100
00010000
,  // measure 59
00000020
00000000
00000000
00000000
,  // measure 60
00000030
00000000
00000000
00000000
;
