#VERSION:0.83;
#TITLE:Ebeneezer Goode;
#SUBTITLE:;
#ARTIST:The Shamen;
#TITLETRANSLIT:;
#SUBTITLETRANSLIT:;
#ARTISTTRANSLIT:;
#GENRE:;
#ORIGIN:;
#CREDIT:;
#BANNER:Ebeneezer Goode-Banner.png;
#BACKGROUND:Ebeneezer Goode-Background.png;
#PREVIEWVID:;
#JACKET:;
#CDIMAGE:;
#DISCIMAGE:;
#LYRICSPATH:;
#CDTITLE:;
#MUSIC:Ebeneezer Goode - The Shamen.ogg;
#OFFSET:0.004471;
#SAMPLESTART:60.426998;
#SAMPLELENGTH:15.118000;
#SELECTABLE:YES;
#BPMS:0.000=127.000;
#STOPS:;
#DELAYS:;
#WARPS:;
#TIMESIGNATURES:0.000=4=4;
#TICKCOUNTS:0.000=4;
#COMBOS:0.000=1;
#SPEEDS:0.000=1.000=0.000=0;
#SCROLLS:0.000=1.000;
#FAKES:;
#LABELS:0.000=Song Start;
#BGCHANGES:;
#KEYSOUNDS:;
#ATTACKS:
;

//---------------dance-single - K. Pearman----------------
#NOTEDATA:;
#CHARTNAME:K. Pearman;
#STEPSTYPE:dance-single;
#DESCRIPTION:K. Pearman;
#CHARTSTYLE:;
#DIFFICULTY:Beginner;
#METER:2;
#RADARVALUES:0.134278,0.182613,0.143382,0.111519,0.000000,118.000000,100.000000,18.000000,14.000000,0.000000,0.000000,0.000000,0.000000,0.000000,0.134278,0.182613,0.143382,0.111519,0.000000,118.000000,100.000000,18.000000,14.000000,0.000000,0.000000,0.000000,0.000000,0.000000;
#CREDIT:K. Pearman;
#NOTES:
0000
0000
0000
0000
,
0000
0000
0000
0000
,
0000
0000
0000
0000
,
0000
0000
0000
0000
,
1001
0000
0000
0000
,
0000
0000
0000
0000
,
0010
0000
0000
0000
,
0100
0100
0100
0000
,
0001
0000
0001
0000
,
1000
0000
0000
0000
,
0001
0000
0001
0000
,
1000
0000
0000
0000
,
0010
0000
0010
0000
,
0100
0000
0000
0000
,
0010
0000
0010
0000
,
0100
0000
0000
0000
,
1000
0000
0100
0000
,
1000
0000
0001
0002
,
0003
0000
0010
0000
,
0001
0000
1000
2000
,
3000
0000
0010
0000
,
1000
0000
0100
0200
,
0300
0000
0010
0000
,
0001
0000
0100
0100
,
0100
0000
0100
0000
,
0010
0000
0010
0000
,
1000
0000
1000
0000
,
0001
0000
0001
0000
,
0100
0000
0010
0000
,
0100
0000
0100
0000
,
0001
0000
1000
0000
,
0001
0000
0000
0000
,
1001
0000
1001
0000
,
0020
0030
0000
0000
,
1001
0000
1001
0000
,
0020
0030
0000
0000
,
1001
0000
1001
0000
,
0200
0300
0000
0000
,
1001
0000
1001
0000
,
0200
0300
0000
0000
,
0010
0000
0000
0000
,
1000
0000
0000
0000
,
0001
0000
0000
0000
,
0100
0000
0000
0000
,
0010
0000
0010
0000
,
0100
0000
0100
0000
,
0001
0000
0001
0000
,
1000
0000
1000
0000
,
0002
0000
0000
0003
,
0000
0000
1000
0000
,
1001
0000
0000
0000
,
0010
0010
0000
0000
,
0100
0100
0000
0000
,
0001
0000
1000
0000
,
1001
0000
1001
0000
,
0020
0030
0000
0000
,
1001
0000
1001
0000
,
0020
0030
0000
0000
,
1001
0000
1001
0000
,
0200
0300
0000
0000
,
1001
0000
1001
0000
,
0200
0300
0000
0000
,
0001
0000
0010
0000
,
1000
0000
0100
0000
,
0020
0000
0030
0000
,
0200
0000
0300
0000
;

//---------------dance-single - K. Pearman----------------
#NOTEDATA:;
#CHARTNAME:K. Pearman;
#STEPSTYPE:dance-single;
#DESCRIPTION:K. Pearman;
#CHARTSTYLE:;
#DIFFICULTY:Easy;
#METER:3;
#RADARVALUES:0.221900,0.260875,0.231004,0.047794,0.000000,195.000000,166.000000,29.000000,6.000000,0.000000,0.000000,0.000000,0.000000,0.000000,0.221900,0.260875,0.231004,0.047794,0.000000,195.000000,166.000000,29.000000,6.000000,0.000000,0.000000,0.000000,0.000000,0.000000;
#CREDIT:K. Pearman;
#NOTES:
0000
0000
0000
0000
,
0000
0000
0000
0000
,
0000
0000
0000
0000
,
0000
0000
0000
0000
,
0001
0100
0100
0001
,
1000
0100
0100
1000
,
0001
0010
0010
0001
,
1000
0010
0010
1000
,
0110
0000
0110
0000
,
1000
0001
1000
0001
,
0110
0000
0110
0000
,
0001
1000
0001
1000
,
1001
0000
1001
0000
,
0010
0010
0100
0100
,
1001
0000
1001
0000
,
0010
0010
0100
0100
,
0001
0010
0001
0010
,
0100
0100
1000
0000
,
1000
0010
1000
0010
,
0100
0100
0001
0000
,
1000
0000
0001
0000
,
0100
0010
1000
0000
,
0001
0000
1000
0000
,
0100
0010
0001
0000
,
1001
0000
0001
0000
,
0100
0001
0010
0000
,
1000
0000
0100
0000
,
1000
0001
1000
0001
,
0100
0010
0010
0100
,
0001
0010
0100
1000
,
0001
0000
1000
0000
,
0010
0100
0010
0000
,
1001
0000
1001
0000
,
0010
1000
0100
0001
,
1001
0000
1001
0000
,
0010
0001
0100
1000
,
1001
0000
1001
0000
,
0010
1000
0100
0001
,
1001
0000
1001
0000
,
0010
0001
0100
1000
,
2002
0000
3003
0000
,
0002
0000
0010
0000
,
0103
0000
0000
0000
,
2000
0000
0010
0000
,
3100
0000
0010
0000
,
1000
0000
0001
0000
,
0100
0000
0010
0000
,
0100
0000
0001
0000
,
2000
0000
0000
0000
,
0000
0000
3001
0000
,
1001
0000
0000
0000
,
0010
0000
0100
0000
,
1001
0000
0000
0000
,
0010
0010
0100
0100
,
1001
0000
1001
0000
,
0010
0001
0100
1000
,
1001
0000
1001
0000
,
0010
1000
0100
0001
,
1001
0000
1001
0000
,
0010
0001
0100
1000
,
1001
0000
1001
0000
,
0010
1000
0100
0001
,
1001
0000
0000
0000
,
0001
0000
0010
0000
,
0200
0000
0000
0000
,
0010
0000
0310
0000
;

//---------------dance-single - K. Pearman----------------
#NOTEDATA:;
#CHARTNAME:K. Pearman;
#STEPSTYPE:dance-single;
#DESCRIPTION:K. Pearman;
#CHARTSTYLE:;
#DIFFICULTY:Medium;
#METER:5;
#RADARVALUES:0.274246,0.286963,0.175244,0.047794,0.000000,241.000000,219.000000,22.000000,6.000000,0.000000,0.000000,0.000000,0.000000,0.000000,0.274246,0.286963,0.175244,0.047794,0.000000,241.000000,219.000000,22.000000,6.000000,0.000000,0.000000,0.000000,0.000000,0.000000;
#CREDIT:K. Pearman;
#NOTES:
0000
0000
0000
0000
,
0000
0000
0000
0000
,
0000
0000
0000
0000
,
0000
0000
0000
0000
,
0010
0010
0100
0100
,
0001
0010
0100
1000
,
0010
0010
0100
0100
,
0001
1000
0001
1000
,
1001
0000
1001
0000
,
0001
0000
0010
0000
0100
0100
0100
0000
,
1001
0000
1001
0000
,
1000
0000
0010
0000
0100
0100
0100
0000
,
0110
0000
0110
0000
,
0001
0000
1000
0000
0010
0010
0010
0000
,
0110
0000
0110
0000
,
1000
0000
0001
0000
0100
0100
0100
0000
,
0001
0000
0010
0000
0001
0100
0001
0000
,
1000
0001
0010
0000
,
1000
0000
0001
0000
1000
0001
1000
0000
,
0100
0010
0001
1000
,
0010
0000
0100
0000
,
0001
0000
0010
0000
0100
1000
0001
0000
,
1000
0010
1000
0010
,
0100
0001
0100
0001
,
0011
1000
1010
0001
,
0001
0100
0100
1000
,
0100
0001
1000
0001
,
1000
1000
0010
0010
,
0100
0010
0010
0100
,
0001
1000
0001
0000
0010
0000
0100
0000
,
1000
0000
0010
0000
,
0100
0001
1000
0000
,
1001
0000
1001
0000
,
0010
1000
0100
0001
,
0011
0000
1100
0000
,
0010
0001
0100
1000
,
1001
0000
1001
0000
,
0010
1000
0100
0001
,
0011
0000
1100
0000
,
0010
0001
0100
1000
,
0001
1000
0001
0000
0100
0000
0100
0000
,
0020
0000
0030
0000
,
1000
0001
1000
0000
0100
0000
0100
0000
,
0020
0000
0030
0000
,
0001
0100
0010
1000
,
0001
0100
0010
1000
,
1000
0100
0010
0001
,
1000
0100
0010
0001
,
2002
0000
0000
0000
,
3003
0000
0110
0000
,
0010
0010
0010
0000
0000
0000
0100
0000
,
0001
0001
0001
0000
0000
0000
1000
0000
,
0100
0100
0100
0000
0000
0000
0010
0000
,
0001
0100
1000
0100
,
0001
0010
0001
0000
1000
0000
1000
0000
,
0010
0000
0100
0010
,
1000
0100
1000
0000
0001
0000
0100
0000
,
0010
0000
0100
0001
,
1000
0001
1000
0000
0100
0000
0010
0000
,
0001
0000
1000
0010
,
0100
0001
0100
0000
0010
0000
1000
0000
,
0001
0000
1000
0001
,
1001
0001
0010
0100
,
1001
1000
0010
0100
,
0002
0000
0000
0000
,
2003
0000
3001
0000
;

//---------------dance-single - K. Pearman----------------
#NOTEDATA:;
#CHARTNAME:K. Pearman;
#STEPSTYPE:dance-single;
#DESCRIPTION:K. Pearman;
#CHARTSTYLE:;
#DIFFICULTY:Hard;
#METER:7;
#RADARVALUES:0.398283,0.418993,0.095588,0.270832,0.179227,350.000000,338.000000,12.000000,34.000000,0.000000,2.000000,0.000000,0.000000,0.000000,0.398283,0.418993,0.095588,0.270832,0.179227,350.000000,338.000000,12.000000,34.000000,0.000000,2.000000,0.000000,0.000000,0.000000;
#CREDIT:K. Pearman;
#NOTES:
0000
0000
0000
0000
,
0000
0000
0000
0000
,
0000
0000
0000
0000
,
0000
0000
0000
0000
,
0010
0010
0100
0000
0001
0000
1000
0000
,
0100
0100
0010
0000
0001
0000
1000
0000
,
0001
0001
0100
0000
0010
0000
1000
0000
,
1000
1000
0100
0000
0010
0000
0001
0000
,
1000
0000
0000
0010
0000
0000
1000
0000
0000
0001
0000
0000
1000
0000
0000
0000
,
0100
0000
1000
0000
0001
0000
0010
0000
0100
0000
0000
0100
0000
0000
0000
0000
,
0010
0000
0000
0001
0000
0000
1000
0000
0000
0001
0000
0000
0100
0000
0001
0000
,
0010
0000
0000
0100
0000
0000
0010
0000
0001
0000
0000
1000
0000
0000
0000
0000
,
0010
0000
0000
1000
0000
0000
0010
0000
0000
0100
0000
0000
0010
0000
1000
0000
,
0001
0000
0100
0000
0010
0000
1000
0000
0100
0000
0000
0100
0000
0000
0000
0000
,
0010
0000
0000
0001
0000
0000
1000
0000
0000
0001
0000
0000
0100
0000
0100
0000
,
0010
1000
0001
1000
0100
0010
0001
0000
,
1000
0100
1000
0000
0010
0100
0010
0000
,
1000
0010
1000
0001
0100
0100
0001
0000
,
0001
0010
0001
0000
0010
0100
0010
0000
,
0001
0100
0001
1000
0010
0100
0100
0010
,
1000
0101
0001
1100
,
1000
0100
0001
0100
1000
0010
0100
0000
,
0100
0001
0010
1000
0010
0001
1000
0000
,
1000
0010
0100
0000
0100
0001
1000
0000
,
0001
0010
0011
0000
1000
0010
1010
0000
,
0001
0100
0010
0100
1000
0100
0001
0000
,
1000
0100
0010
0000
0001
0100
0010
0000
,
1000
0001
1000
0001
0100
0001
1000
0000
,
0100
1000
0010
0000
0010
1000
0100
0000
,
0010
0001
1000
0001
0100
0100
0010
0000
,
0010
0100
0001
0000
0100
0001
1000
0000
,
0001
1000
0100
1001
,
2000
0000
0000
3100
0000
0000
2000
0000
0000
3001
0000
0000
1000
0000
0100
0000
,
0010
0000
0000
0000
0010
0000
0001
0000
2000
0000
0000
3001
0000
0000
0000
0000
,
0020
0000
0000
0031
0000
0000
2000
0000
0000
3001
0000
0000
0100
0000
0001
0000
,
0010
0000
0000
0000
0100
0000
1000
0000
0020
0000
0000
1030
0000
0000
0000
0000
,
0200
0000
0000
1300
0000
0000
0020
0000
0000
0130
0000
0000
0010
0000
1000
0000
,
0001
0000
0000
0000
0100
0000
0001
0000
2000
0000
0000
3001
0000
0000
0000
0000
,
0200
0000
0000
0310
0000
0000
2000
0000
0000
3010
0000
0000
0100
0000
0001
0000
,
0010
0000
0000
0000
0100
0000
1000
0000
0020
0000
0000
0130
0000
0000
0000
0000
,
0010
1010
0001
0101
,
1000
0000
0000
0000
1100
0000
0000
0000
0002
0000
0000
0013
0000
0000
0000
0000
,
0001
0011
1000
1100
,
0001
0000
0000
0000
0101
0000
0000
0000
2000
0000
0000
3010
0000
0000
0000
0000
,
0200
0000
0000
0310
0000
0000
0020
0000
0000
0130
0000
0000
0100
0000
0001
0000
,
1000
0001
1000
0000
0001
1000
0010
0000
,
2000
0000
0000
3001
0000
0000
0002
0000
0000
1003
0000
0000
0010
0000
0000
0000
,
0100
0010
1000
0000
0010
0100
0001
0000
,
2002
0000
0000
0000
,
0000
0000
0010
3003
,
1000
0000
0001
0000
0100
0000
0000
0001
0000
0000
0001
0000
1000
0000
0000
0000
,
0001
0000
1000
0000
0100
0000
0000
1000
0000
0000
1000
0000
0001
0000
0000
0000
,
0010
0000
0001
0000
1000
0000
0000
0001
0000
0000
0100
0000
0010
0000
0000
0000
,
0010
1000
0001
1000
1000
0100
0010
0000
,
0002
0000
0000
0103
0000
0000
0002
0000
0000
1003
0000
0000
0001
0000
0010
0000
,
0100
0000
0000
0000
0100
0000
1000
0000
0020
0000
0000
0130
0000
0000
0000
0000
,
0200
0000
0000
0301
0000
0000
2000
0000
0000
3001
0000
0000
0100
0000
0010
0000
,
1000
0000
0000
0000
0001
0000
0010
0000
0200
0000
0000
0310
0000
0000
0000
0000
,
0020
0000
0000
0130
0000
0000
2000
0000
0000
3100
0000
0000
0010
0000
0001
0000
,
1000
0000
0000
0000
0010
0000
1000
0000
0002
0000
0000
0103
0000
0000
0000
0000
,
0200
0000
0000
0310
0000
0000
0200
0000
0000
1300
0000
0000
0100
0000
0010
0000
,
1000
0000
0001
0010
0100
1000
0001
0000
,
1000
0100
0010
0001
1000
0010
1000
0000
,
0001
0000
0100
0000
0010
0000
1000
0000
0002
0000
0000
0103
0000
0000
0000
0000
,
0002
0000
0000
0000
,
2000
0000
0010
3003
;

//---------------dance-single - K. Pearman----------------
#NOTEDATA:;
#CHARTNAME:K. Pearman;
#STEPSTYPE:dance-single;
#DESCRIPTION:K. Pearman;
#CHARTSTYLE:;
#DIFFICULTY:Challenge;
#METER:10;
#RADARVALUES:0.753323,0.816429,0.103553,0.111519,1.023586,662.000000,649.000000,13.000000,14.000000,2.000000,2.000000,2.000000,0.000000,0.000000,0.753323,0.816429,0.103553,0.111519,1.023586,662.000000,649.000000,13.000000,14.000000,2.000000,2.000000,2.000000,0.000000,0.000000;
#CREDIT:K. Pearman;
#NOTES:
0000
0000
0000
0000
,
0000
0000
0000
0000
,
0000
0000
0000
0000
,
0000
0000
0000
0000
,
1000
0010
1000
0000
0001
0000
0001
0000
0100
0000
0010
0000
1000
0000
1000
0000
,
0001
0010
0001
0000
1000
0000
1000
0000
0100
0000
0010
0000
0001
0000
0001
0000
,
1000
0100
1000
0000
0001
0000
0001
0000
0010
0000
0100
0000
1000
0000
0001
0100
,
0010
0100
0010
1000
0000
0000
1000
0100
1000
0100
0000
0010
0001
0100
0001
0100
,
0010
0000
1000
0200
0000
0000
0310
0000
0001
0200
0000
0000
0310
0000
1000
0001
,
1000
0000
0100
0010
0000
0000
0001
0000
0010
0000
0100
2000
0000
0000
0000
0000
,
3001
0000
0100
0020
0000
0000
1030
0000
0100
0020
0000
0000
0031
0000
1000
0010
,
1000
0000
0001
0200
0000
0000
0310
0000
0100
0000
0001
0020
0000
0000
0000
0000
,
0130
0000
1000
0010
0000
0000
0100
0000
0001
0010
0000
0000
0100
0000
1000
0001
,
1000
0000
0100
0010
0000
0000
0001
0000
1000
0000
0010
0200
0000
0000
0000
0000
,
0310
0000
1000
0200
0000
0000
0310
0000
0001
0200
0000
0000
0310
0000
1000
0001
,
0100
0001
0100
0010
0000
0000
1000
0100
0010
0001
0000
0100
0010
0100
0001
1000
,
0100
0000
0010
0001
0100
0000
0010
1000
0001
1000
0100
0000
0100
0000
0010
0001
,
1000
0000
0010
0100
1000
0100
0010
1000
0001
0000
0010
0100
0001
0000
0000
0100
,
0010
0000
0001
0100
0010
1000
0001
1000
0100
0010
0001
0000
1000
0010
0100
0010
,
1000
0000
0001
0100
1000
0000
0100
0001
0010
0100
0001
0100
0010
0001
0000
0100
,
0010
0000
0000
1000
0100
0000
0010
0001
0000
1000
0100
0000
1001
0000
0000
0001
,
0010
0001
0100
0010
0001
0000
0010
1000
0000
0010
0000
0100
0001
0000
0000
1000
,
0100
1000
0001
0000
0010
0100
0010
0001
1000
0000
0110
0000
0001
0010
0001
1000
,
0100
1000
0010
0100
0010
1000
0100
0010
0001
0000
1000
0100
0001
0100
0001
0100
,
1000
0010
0100
0000
0001
0010
0100
0000
1000
0010
0001
0000
1000
0100
0001
0000
,
0010
0100
0001
0100
0010
0001
1000
0010
0100
0010
1000
0001
0400
0000
0000
0000
,
0310
1000
0001
1000
0100
0000
0100
0010
0001
1000
0001
0010
0100
0001
0100
0000
,
0010
0001
0100
1000
0100
0010
1000
0100
0001
0100
0010
0001
1000
0000
0000
0000
,
0100
1000
0001
1000
0010
0100
0000
0100
0010
1000
0001
1000
0100
0010
0000
0010
,
0001
0100
0010
0001
0010
1000
0010
0100
0001
1000
0100
0001
0100
0000
0000
1000
,
0010
0100
0010
1000
0001
0100
0010
0100
0001
0010
0100
1000
0001
0010
0001
0100
,
0010
0100
0001
1000
0100
1000
0010
0001
0010
0100
0001
1000
0400
0000
0000
0000
,
1300
0000
0010
0100
0000
0010
1000
0000
0010
0100
0000
0000
0010
1000
0100
0010
,
0001
0000
0010
0100
0000
0010
0001
0010
0100
0000
0010
0001
0000
0000
1000
0000
,
0001
0000
0100
0010
0000
0100
0001
0000
0100
0010
0000
0100
0001
0000
1000
0010
,
0100
0000
0001
0010
0100
0000
1000
0100
0010
0000
0001
0010
0100
0000
1000
0000
,
0001
0000
0010
0100
0000
0010
0001
0000
0010
0100
0000
0010
0001
1000
0100
0010
,
0001
0000
1000
0010
0000
0100
0010
1000
0010
0000
0100
0010
0000
0000
1000
0000
,
0001
0000
1000
0100
0000
0010
0100
0000
1000
0100
0000
0010
0001
0000
1000
0000
,
0010
0000
0100
0001
0010
0000
0100
1000
0010
0000
0100
0001
1000
0000
0000
0000
,
0001
0100
0001
0100
0001
0000
1000
0100
0010
0001
0000
1000
0010
0000
0000
0000
,
1000
0100
1000
0100
1000
0000
0001
0010
0100
0000
1000
0001
0000
0000
0000
0000
,
0100
0010
0100
0010
0100
0000
0001
0010
0100
1000
0000
0001
0100
0000
0000
0000
,
0010
1000
0010
1000
0010
0000
0100
0001
1000
0000
0001
0010
0000
0000
0000
0000
,
0100
1000
0010
1000
0100
0000
0010
0001
0100
0000
0010
1000
0001
0000
0000
0000
,
0100
0001
0010
0001
0100
0000
0010
1000
0100
0000
0010
0001
1000
0000
0000
0000
,
0001
1000
0100
1000
0001
0000
0010
0001
1000
0000
0010
0100
0001
0000
0000
0000
,
0100
0010
1000
0010
0100
0000
0001
0010
0100
0000
1000
0100
0010
0000
0000
0000
,
2002
0000
0000
0000
,
0000
0000
0010
3003
,
0011
0000
0001
0000
1001
0000
1000
0100
0000
0100
0010
0000
0110
0000
0000
0000
,
1010
0000
1000
0000
1001
0000
0001
0100
0000
0100
0010
0000
0110
0000
0000
0000
,
0011
0000
0001
0000
1001
0000
1000
0100
0000
0100
0010
0000
0110
0000
0000
0000
,
0010
0001
1000
0001
0000
0000
0100
0010
1000
0010
0000
0100
0001
1000
0100
0000
,
1000
0000
0010
0100
0000
0010
1000
0000
0010
0100
0000
0000
0010
1000
0100
0010
,
0001
0000
0010
0100
0000
0010
0001
0010
0100
0000
0010
0001
0000
0000
1000
0000
,
0001
0000
0100
0010
0000
0100
0001
0000
0100
0010
0000
0100
0001
0000
1000
0010
,
0100
0000
0001
0010
0100
0000
1000
0100
0010
0000
0001
0010
0100
0000
1000
0000
,
0001
0000
0010
0100
0000
0010
0001
0000
0010
0100
0000
0010
0001
1000
0100
0010
,
0001
0000
1000
0010
0000
0100
0010
1000
0010
0000
0100
0010
0000
0000
1000
0000
,
0001
0000
1000
0100
0000
0010
0100
0000
1000
0100
0000
0010
0001
0000
1000
0000
,
0010
0000
0100
0001
0010
0000
0100
1000
0010
0000
0100
0001
1000
0000
0000
0000
,
0001
0010
0001
0100
0001
0000
1000
0100
0001
0000
0100
1000
0010
0000
0000
0000
,
1000
0010
1000
0100
1000
0000
0001
0010
1000
0000
0010
0001
0100
0000
0000
0000
,
0010
1000
0001
1000
0100
0010
0001
0100
0010
0000
0100
0001
0010
0000
0000
0000
,
2002
0000
0010
3003
,
0000
M00M
0000
0000
0000
0000
0000
0000
;

//---------------dance-double - ----------------
#NOTEDATA:;
#CHARTNAME:;
#STEPSTYPE:dance-double;
#DESCRIPTION:;
#CHARTSTYLE:;
#DIFFICULTY:Easy;
#METER:2;
#RADARVALUES:0.194589,0.235684,0.015931,0.015931,0.000000,171.000000,169.000000,2.000000,2.000000,0.000000,0.000000,0.000000,0.000000,0.000000,0.194589,0.235684,0.015931,0.015931,0.000000,171.000000,169.000000,2.000000,2.000000,0.000000,0.000000,0.000000,0.000000,0.000000;
#CREDIT:K. Pearman;
#NOTES:
00000000
00000000
00000000
00000000
,
00000000
00000000
00000000
00000000
,
00000000
00000000
00000000
00000000
,
00000000
00000000
00000000
00000000
,
10000000
00010000
01000000
00000000
,
00010000
01000000
00001000
00000000
,
00010000
00000100
00001000
00000000
,
00000001
00000100
00001000
00000000
,
00000100
00000001
00000010
00000001
,
00000100
00000000
00000100
00000000
,
00000010
00001000
00000100
00001000
,
00000010
00000000
00000010
00000000
,
00010000
00001000
00010000
00001000
,
00100000
00010000
10000000
00000000
,
01000000
00000000
00100000
00000000
,
00010000
01000000
00001000
00000000
,
00010000
00001000
00010000
00000000
,
00100000
01000000
00100000
00000000
,
10000000
01000000
00100000
00000000
,
01000000
00100000
00010000
00000000
,
01000000
00001000
01000000
00000000
,
00000100
00010000
00000100
00000000
,
00001000
00000001
00001000
00000000
,
00000010
00000100
00000010
00000000
,
00001000
00000100
00000010
00000001
,
00001000
00000000
00000001
00000000
,
00000001
00000010
00000100
00001000
,
00000001
00000000
00001000
00000000
,
00000100
00000000
00000010
00000000
,
00000010
00000000
00001000
00000000
,
00010000
00000000
00100000
00000000
,
01000000
00000000
00010000
00000000
,
10000000
01000000
00010000
00001000
,
00000100
00000000
00000000
00000000
,
00000001
00000100
00001000
00010000
,
01000000
00000000
00000000
00000000
,
00100000
00010000
00001000
00000010
,
00000001
00000000
00000000
00000000
,
00000010
00001000
00010000
00100000
,
10000000
00000000
00000000
00000000
,
00100000
00000000
00010000
00000000
,
01000000
00000000
10010000
00000000
,
00001000
00000000
00010000
00000000
,
00001000
00000000
00010000
00000000
,
00000100
00000000
00001000
00000000
,
00000010
00000000
00001001
00000000
,
00001000
00000000
00010000
00000000
,
00001000
00000000
00010000
00000000
,
00001000
00000000
00000000
00000000
,
00000000
00000000
00000010
00000000
,
00000001
00000100
00000001
00000100
,
00001000
00000100
00001000
00000100
,
00001000
00010000
00001000
00010000
,
01000000
10000000
01000000
10000000
,
00100000
10000000
01000000
00010000
,
00001000
00000000
00000100
00000000
,
00000010
00000100
00001000
00010000
,
01000000
00000000
00100000
00000000
,
00010000
01000000
00001000
00000100
,
00000001
00000000
00000010
00000000
,
00000001
00000010
00001000
00010000
,
01000000
00000000
10000000
00000000
,
00010000
00100000
00010000
01000000
,
00001000
00010000
00000100
00001000
,
00000010
00000000
00000000
00000000
,
00020000
00000000
00002000
00033000
;

//---------------dance-double - ----------------
#NOTEDATA:;
#CHARTNAME:;
#STEPSTYPE:dance-double;
#DESCRIPTION:;
#CHARTSTYLE:;
#DIFFICULTY:Medium;
#METER:5;
#RADARVALUES:0.298143,0.368013,0.238970,0.071691,0.000000,262.000000,232.000000,30.000000,9.000000,0.000000,0.000000,0.000000,0.000000,0.000000,0.298143,0.368013,0.238970,0.071691,0.000000,262.000000,232.000000,30.000000,9.000000,0.000000,0.000000,0.000000,0.000000,0.000000;
#CREDIT:K. Pearman;
#NOTES:
00000000
00000000
00000000
00000000
,
00000000
00000000
00000000
00000000
,
00000000
00000000
00000000
00000000
,
00000000
00000000
00000000
00000000
,
00001000
00010000
00001000
00000000
00100000
00000000
00110000
00000000
,
01000000
10000000
00010000
01000000
,
00001000
00010000
00001000
00000000
00000010
00000000
00001010
00000000
,
00000010
00000001
00000100
00000000
,
00000001
00000000
00001000
00000000
00000001
00001000
00000100
00000000
,
00000010
00000100
00010000
00001000
,
01000000
00000000
00010000
00000000
10000000
00010000
01000000
00000000
,
00100000
01000000
00010000
00000000
,
10000000
00000000
11000000
00000000
00010000
00100000
00010000
00000000
,
01000000
00001000
00010000
00000100
,
00001000
00000000
00000011
00000000
00000001
00000100
00000001
00000000
,
00002000
00000000
00003002
00000000
,
00000103
00000010
00001000
00000001
,
00000010
00000000
00001000
00000000
00010000
00010000
00010000
00000000
,
00100000
01000000
00010000
10000000
,
01000000
00000000
00010000
00000000
00001000
00001000
00001000
00000000
,
00000100
00000010
00000100
00001001
,
00000010
00001000
00010000
00100000
,
01000000
00100000
01000000
10010000
,
00100000
00010000
00001000
00000010
,
00000100
00000001
00000010
00000001
,
00000100
00000000
00001000
00000000
00010000
00001000
00010000
00000000
,
01000000
10000000
00100000
10000000
,
01000000
00000000
00010000
00000000
00001000
00010000
00001000
00000000
,
01000000
00100000
00100000
01000000
,
00001000
00000000
00010000
00000000
00000100
00010000
00000100
00000000
,
00000010
00000001
00001000
00000001
,
00000100
00000000
00001000
00000000
00010000
00001000
00010000
00000000
,
00001000
00011000
00010000
00011000
,
00100000
00000000
00010000
00000000
01000000
00100000
01000000
00000000
,
00010000
10010000
10000000
10010000
,
00100000
00000000
00001000
00000000
00010000
00001000
00010000
00000000
,
00000100
00000110
00000010
00000110
,
00001000
00000000
00000001
00001000
00000001
00000000
00000100
00000000
,
00001010
00000001
00000011
00001000
,
00000100
00000000
00010000
00000000
00001000
01000000
00010000
00000000
,
00200000
00300000
00000000
00000000
,
00002000
00000000
00003000
00000000
,
00020000
00000000
00030000
00000000
,
00000200
00000000
00000300
00000000
,
00000010
00000001
00001000
00000001
,
00000100
00000100
00000010
00000010
,
00010000
00100000
10000000
01000000
,
00100000
00100000
00010000
00010000
,
20000000
00000000
00000000
00000000
,
00000000
00000000
30010000
00000000
,
10000000
00010000
10000000
00000000
00000000
00000000
00011000
00000000
,
00001000
00000001
00001000
00000000
00000000
00000000
00011000
00000000
,
00010000
10000000
00010000
00000000
00000000
00000000
00011000
00000000
,
00001000
00000001
00001000
00000000
00000000
00000000
00011000
00000000
,
00100000
00110000
00000010
00001010
,
00010000
00110000
00001000
00001010
,
01000000
01010000
00000100
00001100
,
00010000
01010000
00001000
00001100
,
00010000
00000000
00100000
00000000
01000000
00010000
10000000
00000000
,
00010000
01000000
00001000
00010000
,
00000010
00000000
00001000
00000000
00000100
00001000
00000001
00000000
,
00001000
00000100
00010000
00001000
,
00011000
00000000
00000000
00000000
,
01100000
00000000
00000000
00000000
,
00000110
00000000
00000000
00000000
,
00022000
00000000
00000000
00000000
,
00033000
00000000
00000000
00000000
;

//---------------dance-double - ----------------
#NOTEDATA:;
#CHARTNAME:;
#STEPSTYPE:dance-double;
#DESCRIPTION:;
#CHARTSTYLE:;
#DIFFICULTY:Hard;
#METER:8;
#RADARVALUES:0.424455,0.446873,0.095588,0.071691,0.171262,373.000000,361.000000,12.000000,9.000000,0.000000,0.000000,0.000000,0.000000,0.000000,0.424455,0.446873,0.095588,0.071691,0.171262,373.000000,361.000000,12.000000,9.000000,0.000000,0.000000,0.000000,0.000000,0.000000;
#CREDIT:K. Pearman;
#NOTES:
// measure 0
00000000
00000000
00000000
00000000
,  // measure 1
00000000
00000000
00000000
00000000
,  // measure 2
00000000
00000000
00000000
00000000
,  // measure 3
00000000
00000000
00000000
00000000
,  // measure 4
00000001
00000000
00000100
00000000
00000001
00000000
00000000
00000010
00000000
00000000
00000010
00000000
00000100
00000000
00000000
00000000
,  // measure 5
00010000
00000000
00001000
00000000
00010000
00000000
00000000
00100000
00000000
00000000
00100000
00000000
01000000
00000000
00000000
00000000
,  // measure 6
00010000
00000000
10000000
00000000
00010000
00000000
00000000
00100000
00000000
00000000
01000000
00000000
10000000
00000000
00000000
00000000
,  // measure 7
10000000
01000000
00010000
00000000
00001000
00000100
00000001
00000000
,  // measure 8
00000010
00000000
00000000
00000100
00000000
00000000
00001000
00000000
00000000
00000010
00000000
00000000
00000100
00000000
00001000
00000000
,  // measure 9
00010000
00000000
00000000
00100000
00000000
00000000
01000000
00000000
00010000
00000000
00000000
10000000
00000000
00000000
00000000
00000000
,  // measure 10
00010000
00000000
00000000
00100000
00000000
00000000
00001000
00000000
00000000
00010000
00000000
00000000
00000100
00000000
00000010
00000000
,  // measure 11
00000001
00000000
00000000
00000100
00000000
00000000
00000010
00000000
00001000
00000000
00000000
00000100
00000000
00000000
00000000
00000000
,  // measure 12
00000010
00000000
00000000
00000001
00000000
00000000
00001000
00000000
00000000
00010000
00000000
00000000
00100000
00000000
01000000
00000000
,  // measure 13
10000000
00000000
00000000
00100000
00000000
00000000
00010000
00000000
00001000
00000000
00000000
01000000
00000000
00000000
00000000
00000000
,  // measure 14
00001000
00000000
00000000
00010000
00000000
00000000
00100000
00000000
00000000
01000000
00000000
00000000
00010000
00000000
00100000
00000000
,  // measure 15
01000000
00000000
00000000
00010000
00000000
00000000
00001000
00000000
00000100
00000000
00000000
00000010
00000000
00000000
00000000
00000000
,  // measure 16
00001000
00000100
00000001
00000100
00001000
00000010
00001000
00000100
,  // measure 17
00010000
00001000
01000000
10000000
01000000
00010000
00100000
00000000
,  // measure 18
01000000
00100000
00010000
00000000
00001000
00000010
00000100
00000000
,  // measure 19
00001000
00010000
01000000
00000000
00010000
00001000
00000100
00000000
,  // measure 20
00000010
00000100
00000001
00001000
00000001
00000100
00000010
00000000
,  // measure 21
00010000
00001000
00100000
00000000
00001000
00010000
00000010
00000000
,  // measure 22
00010000
00100000
01000000
00010000
10000000
00010000
01000000
00000000
,  // measure 23
00100000
00000000
00100000
00000000
01000000
00000000
00000000
00000000
00010000
00000000
10000000
00010000
10000000
00000000
00000000
00000000
,  // measure 24
01000000
01000000
00010000
00010000
00001000
00001000
00000100
00000100
,  // measure 25
00000010
00001000
00010000
01000000
00010000
00001000
00000010
00000000
,  // measure 26
00000100
00000001
00000010
00000000
00000100
00001000
00000010
00000000
,  // measure 27
00010000
00001000
00010000
00001000
00100000
01000000
00010000
00001000
,  // measure 28
00000100
00000001
00000010
00000000
00000010
00000001
00000100
00000000
,  // measure 29
00000100
00000001
00000010
00001000
00010000
00100000
10000000
00000000
,  // measure 30
10000000
01000000
00010000
01000000
00100000
00010000
01000000
00001000
,  // measure 31
00010000
00000100
00001000
00000001
00000100
00001000
00000100
00000001
,  // measure 32
00000010
00000000
00000000
00000001
00000000
00000000
00001000
00000000
00000000
00000001
00000000
00000000
00000100
00000000
00000010
00000000
,  // measure 33
00001000
00001100
00010000
01020000
,  // measure 34
00130000
00000000
00000000
00010000
00000000
00000000
10000000
00000000
00000000
00010000
00000000
00000000
01000000
00000000
00100000
00000000
,  // measure 35
10000000
11000000
00010000
01020000
,  // measure 36
00130000
00000000
00000000
00001000
00000000
00000000
00010000
00000000
00000000
00001000
00000000
00000000
01000000
00000000
00001000
00000000
,  // measure 37
00010000
00001100
00000010
00002100
,  // measure 38
00003010
00000000
00000000
00010000
00000000
00000000
00001000
00000000
00000000
00010000
00000000
00000000
00000100
00000000
00010000
00000000
,  // measure 39
00000010
00011000
01000000
00011000
,  // measure 40
00010000
00001000
00000100
00000000
00000010
00000000
00001000
00000000
,  // measure 41
00000100
00001000
00010000
00000000
00100000
00000000
00001000
00000000
,  // measure 42
00010000
00100000
01000000
00000000
00001000
00000000
00010000
00000000
,  // measure 43
00001000
01000000
00100000
00000000
00010000
00000000
00001000
00000000
,  // measure 44
01000000
00000000
00000000
00010000
00000000
00000000
01000000
00000000
00000000
00010000
00000000
00000000
10000000
00000000
00000000
00000000
,  // measure 45
00010000
00100000
01000000
00000000
00010000
00001000
00000100
00000000
,  // measure 46
00000001
00000000
00000000
00000010
00000000
00000000
00001000
00000000
00000000
00000010
00000000
00000000
00000100
00000000
00000000
00000000
,  // measure 47
00001000
00000010
00001000
00000000
00000100
00000000
00010000
00000000
,  // measure 48
00011000
00000000
00000000
00000000
,  // measure 49
00000000
00000000
01000100
00000000
,  // measure 50
00001000
00000000
00010000
00000000
00001000
00000000
00000000
00010000
00000000
00000000
00100000
00000000
01000000
00000000
00000000
00000000
,  // measure 51
00001000
00000000
00010000
00000000
00001000
00000000
00000000
00000100
00000000
00000000
00000010
00000000
00010000
00000000
00000000
00000000
,  // measure 52
00001000
00000000
00100000
00000000
01000000
00000000
00000000
00010000
00000000
00000000
00001000
00000000
00000100
00000000
00000010
00000000
,  // measure 53
00001000
00000001
00000010
00000100
00001000
00000001
00000100
00000000
,  // measure 54
00000001
00000000
00000000
00001000
00000000
00000000
00000001
00000000
00000000
00000100
00000000
00000000
00001000
00000000
00010000
00000000
,  // measure 55
01000000
10000000
00010000
10000000
01000000
00010000
00001000
00000100
,  // measure 56
00000001
00000000
00000000
00001000
00000000
00000000
00000001
00000000
00000000
00000100
00000000
00000000
00000001
00000000
00000100
00000000
,  // measure 57
00001000
00010000
01000000
10000000
00010000
10000000
01000000
00010000
,  // measure 58
00000100
00000000
00000000
00001000
00000000
00000000
00000100
00000000
00000000
00000010
00000000
00000000
00000100
00000000
00001000
00000000
,  // measure 59
00000001
00000010
00001000
00010000
00100000
10000000
00100000
00010000
,  // measure 60
00001000
00000000
00000000
00000010
00000000
00000000
00000100
00000000
00000000
00001000
00000000
00000000
00000100
00000000
00000010
00000000
,  // measure 61
00001000
00010000
00100000
10000000
00010000
00100000
01000000
00000000
,  // measure 62
21000000
00000000
30020000
00000000
01030000
00010000
00100000
00000000
,  // measure 63
00021000
00000000
00030200
00000000
00000310
00000001
00000100
00000000
,  // measure 64
00000001
00000100
00001000
00010000
01000000
00000000
00000000
00000000
,  // measure 65
00200000
00000000
00000020
00000000
,  // measure 66
00300030
00000000
00000000
00000000
;

//---------------dance-double - ----------------
#NOTEDATA:;
#CHARTNAME:;
#STEPSTYPE:dance-double;
#DESCRIPTION:;
#CHARTSTYLE:;
#DIFFICULTY:Challenge;
#METER:10;
#RADARVALUES:0.751047,0.864174,0.334557,0.031863,0.912067,660.000000,618.000000,42.000000,4.000000,0.000000,3.000000,0.000000,0.000000,0.000000,0.751047,0.864174,0.334557,0.031863,0.912067,660.000000,618.000000,42.000000,4.000000,0.000000,3.000000,0.000000,0.000000,0.000000;
#CREDIT:K. Pearman;
#NOTES:
00000000
00000000
00000000
00000000
,
00000000
00000000
00000000
00000000
,
00000000
00000000
00000000
00000000
,
00000000
00000000
00000000
00000000
,
00010000
01000000
00010000
00000000
00100000
00000000
00010000
01000000
00000000
00001000
00010000
00000000
00000100
00000000
00001000
00000000
,
00000010
00001000
00000010
00000000
00001000
00000000
00000100
00010000
00000000
00001000
01000000
00000000
00010000
00000000
00100000
00000000
,
00010000
00100000
00010000
00000000
01000000
00000000
00001000
00010000
00000000
00000100
00001000
00000000
00000010
00000000
00000100
00000000
,
00000010
00001000
00000100
00000010
00000000
00001000
00010000
00000010
00010000
00001000
00000000
00010000
00001000
00100000
00001000
00100000
,
00101000
00000000
00100000
00001000
00000000
00000000
00010010
00000000
00000010
00010000
00000000
00001000
00100000
00010000
01000000
00000000
,
00100000
00000000
01000000
00001000
00000000
00010000
00000100
00000010
00000100
00000000
00001000
00000010
00001000
00000000
00000000
00000000
,
00001010
00000000
00000010
00010000
00000000
00001000
00100000
00000000
00001000
00010000
00000000
00000000
00000010
00000000
00010000
00001000
,
00100000
00000000
00010000
01000000
00000000
00100000
00010000
00000000
00001000
00000000
00000100
00000010
00000000
00000000
00000000
00000000
,
00011000
00000000
00001000
00100000
00000000
00000000
00011000
00000000
00010000
00000010
00000000
00000000
00010000
00000000
00001000
01000000
,
00010000
00000000
01000000
00001000
00000000
00000000
00010000
00000000
00000100
00000000
00001000
00000100
00000000
00000000
00000000
00000000
,
00010100
00000000
00000100
00010000
00000000
00000000
00011000
00000000
00001000
01000000
00000000
00000000
00010000
01000000
00100000
00000000
,
01000000
00010000
00100000
01000000
00000000
00010000
00001000
00000100
00000010
00001000
00000000
00000100
00000010
00001000
00010000
00000000
,
00001000
00010000
00100000
00000000
00010000
00001000
00000010
00000000
00001000
00010000
01000000
00000000
00010000
00001000
00000100
00000000
,
00000010
00000100
00000010
00001000
00000010
00000100
00000010
00001000
00000100
00000010
00001000
00010000
00000010
00000000
00010000
00000000
,
00001000
00100000
00010000
00000000
00100000
00010000
01000000
00000000
00100000
01000000
00010000
00000000
00100000
00001000
00010000
00000000
,
00000010
00010000
00000100
00001000
00000100
00000010
00000100
00001000
00000010
00000100
00001000
00000100
00000010
00001000
00000100
00000010
,
00001000
00000000
00010000
00100000
01000000
00000000
00010000
00100000
01000000
00010000
00001000
01000000
00010000
00000000
01000000
00010000
,
00100000
01000000
00010000
00001000
00000100
00000010
00001000
00000100
00000010
00001000
00000010
00000100
00001000
00000000
00000010
00000000
,
00000100
00001000
00000100
00000000
00000010
00000100
00000010
00000000
00001000
00000010
00001000
00000100
00000010
00000000
00001000
00000000
,
00010000
00001000
00010000
00000000
00100000
00010000
00100000
00000000
01000000
00010000
00100000
01000000
00010000
00000000
00001000
00000000
,
01000000
00010000
00100000
00001000
00010000
00001000
01000000
00001000
00010000
00000100
00001000
00000010
00010000
00001000
00010000
00000100
,
00001000
00000010
00001000
00000100
00000010
00001000
00010000
00000010
00001000
00100000
00010000
00001000
01000000
00000000
00010000
00000000
,
00100000
01000000
00010000
00001000
00000100
00000010
00001000
00000100
00000010
00001000
00010000
00100000
00010000
00001000
00000010
00000100
,
00001000
00000010
00000100
00001000
00010000
00001000
01000000
00010000
00100000
00001000
00010000
00001000
01000000
00000000
00000000
00000000
,
01000000
01000000
00001000
00010000
00000010
00000010
00000000
00000000
00100000
00100000
00001000
00010000
00000100
00000100
00000000
00000000
,
00000010
00000100
00001000
00000100
00000010
00000100
00001000
00000010
00010000
00001000
00100000
00001000
00010000
00100000
01000000
00000000
,
00010000
00100000
01000000
00010000
00001000
01000000
00010000
01000000
00100000
00010000
00001000
00100000
01000000
00010000
00001000
00000100
,
00000010
00001000
00000100
00000010
00000100
00001000
00000010
00010000
00001000
00100000
01000000
00010000
01000000
00100000
00010000
00000000
,
00110000
00000000
00100000
00010000
00000000
00100000
00001000
00000000
00010000
00000010
00000000
00001000
00000100
00000010
00000100
00001000
,
00000010
00000000
00000100
00001000
00000000
00000100
00000010
00001000
00000100
00000000
00000010
00001000
00000000
00010000
00100000
00000000
,
01000000
00000000
00010000
00100000
00000000
01000000
00100000
00000000
00010000
00100000
00000000
01000000
00100000
00000000
00010000
00001000
,
00000010
00000000
00000100
00000000
00001000
00000010
00000100
00000010
00001000
00000000
00000100
00000010
00001000
00000000
00010000
00000000
,
00100000
00000000
01000000
00010000
00000000
01000000
00100000
00000000
01000000
00010000
00000000
00000000
00100000
00000000
00001000
00010000
,
00000100
00000000
00001000
00000010
00000100
00000000
00000010
00001000
00000100
00000000
00000010
00001000
00010000
00000000
00100000
00000000
,
01000000
00000000
00010000
00100000
00000000
01000000
00100000
00000000
00010000
00100000
00000000
01000000
00100000
00000000
00010000
01000000
,
00001000
00000000
00010000
00001000
00000100
00000000
00000010
00001000
00000100
00000010
00001000
00010000
00000010
00001000
00000100
00000000
,
00000010
00010100
00100000
01001000
,
00000010
00010100
00100000
01001000
,
00000010
01000100
00100000
01000100
,
00000010
01000100
00100000
00011000
,
01000000
00000000
00010000
00100000
00000000
00010000
01000000
00000000
00010000
00100000
00000000
00010000
01000000
00000000
00100000
00000000
,
00010000
00000000
00001000
00000000
00010000
00000000
00000100
00000000
00000010
00000000
00001000
00010000
00000010
00000000
00000000
00000000
,
00010000
00000000
00100000
00010000
00000000
00001000
00010000
00000000
00100000
00010000
00000000
00001000
00010000
00000000
00000100
00000000
,
00000010
00000000
00000100
00001000
00000100
00000000
00000010
00000000
00000100
00000000
00001000
00000100
00001000
00000000
00000000
00000000
,
00002200
00000000
00000000
00000000
,
00000000
00000000
00100010
00003300
,
00011000
00000000
00010100
00000000
00011000
00000000
00001000
00010000
00000000
00010000
00100000
00000000
01000000
00000000
00010000
00000000
,
00110000
00000000
00101000
00000000
00110000
00000000
00100000
00001000
00000000
00001000
00010000
00000000
00000010
00000000
00001000
00000000
,
00001010
00000000
00001100
00000000
00001010
00000000
00001000
00000010
00000000
00000010
00000100
00000000
00001000
00000000
00010000
00000000
,
00000100
00010000
00001000
00010000
00000000
00000000
00000100
00010000
00001000
00010000
00000000
00000100
00010000
00001000
00010000
00000000
,
00011000
00000000
00001000
00100000
00000000
00000000
00011000
00000000
00010000
00000010
00000000
00000000
00010000
00000000
00001000
00100000
,
01000000
00000000
00010000
00001000
00000100
00000000
00000010
00010000
00001000
00000000
00100000
00001000
00010000
00000000
00000010
00000000
,
00011000
00000000
00010000
00000010
00000000
00000000
00011000
00000000
00001000
00100000
00000000
00000000
00001000
00000000
00010000
00000010
,
00001000
00000000
00000010
00000100
00001000
00000000
00010000
00001000
00010000
00000000
01000000
00100000
00010000
00000000
00000000
00000000
,
00101000
00000000
00001000
00010000
00000000
00000000
00010010
00000000
00010000
00001000
00000000
00000000
01000000
00000000
00001000
00100000
,
00010000
00000000
00100000
00010000
01000000
00000000
00001000
00010000
00000100
00000000
00001000
00000100
00000010
00000000
00000100
00000000
,
00001100
00000000
00000100
00010000
00000000
00000000
00011000
00000000
00001000
01000000
00000000
00000000
00010000
00000000
01000000
00100000
,
00010000
00000000
00001000
00000100
00000010
00000000
00001000
00000100
00000010
00000000
00001000
00010000
01000000
00100000
00010000
01000000
,
00100000
01010000
00000010
00001100
,
01000000
00110000
00000100
00001010
,
02000200
00000000
00000000
00000000
,
00100010
00000000
00011000
03000300
;
