#TITLE:E.T.;
#SUBTITLE:(Dave Aude Edit);
#ARTIST:Katy Perry;
#TITLETRANSLIT:;
#SUBTITLETRANSLIT:;
#ARTISTTRANSLIT:;
#GENRE:;
#CREDIT:;
#BANNER:ET (Dave Aude Edit)-Banner.png;
#BACKGROUND:ET (Dave Aude Edit)-Background.png;
#LYRICSPATH:;
#CDTITLE:;
#MUSIC:Katy Perry - ET (Dave Aude Edit).ogg;
#OFFSET:0.000000;
#SAMPLESTART:52.052998;
#SAMPLELENGTH:14.884000;
#SELECTABLE:YES;
#BPMS:0.000000=129.000000
;
#STOPS:
;
#BGCHANGES:;
#KEYSOUNDS:;
#ATTACKS:;

//---------------dance-single - K. Pearman----------------
#NOTES:
     dance-single:
     K. Pearman:
     Beginner:
     2:
     0.164201,0.343472,0.077141,0.023142,0.000000,149.000000,139.000000,10.000000,3.000000,0.000000,0.000000,0.164201,0.343472,0.077141,0.023142,0.000000,149.000000,139.000000,10.000000,3.000000,0.000000,0.000000:
0000
0000
0000
0000
,
0000
0000
0000
0000
,
0000
0000
0000
0000
,
0000
0000
0000
0000
,
0001
0000
1000
0000
,
0100
0100
0100
0000
,
1000
0000
1000
0000
,
0001
0000
0001
0000
,
1000
0000
0001
0000
,
0100
0100
0100
0000
,
0001
0000
1000
0000
,
0001
0000
1000
0000
,
1001
0000
0010
0000
,
0000
0100
0100
0000
,
0001
0000
1000
0000
,
0010
0010
0010
0000
,
1001
0000
0001
0000
,
0000
0100
0100
0000
,
0010
0010
0010
0000
,
0000
0000
0000
0000
,
1000
0000
0000
0000
,
0001
0000
0000
0000
,
0100
0000
0000
0000
,
0010
0000
0000
0000
,
1000
0000
0001
0000
,
0100
0000
0010
0000
,
1000
1000
1000
0000
,
0110
0110
0110
0110
,
1001
0000
0001
0000
,
1000
1000
1000
0000
,
0010
0000
1000
0000
,
0100
0100
0100
0000
,
1000
0000
0001
0000
,
1000
1000
1000
0000
,
0010
0000
0001
0000
,
0100
0100
0100
0000
,
0010
0000
0010
0000
,
0001
0000
0001
0000
,
1000
0000
1000
0000
,
0010
0000
0010
0000
,
0100
0000
0100
0000
,
0001
0000
0001
0000
,
1000
0000
1000
0000
,
0100
0000
0100
0000
,
0200
0000
0300
0000
,
0000
0000
0000
0000
,
0010
0000
1000
0000
,
0001
0000
0100
0000
,
0001
0000
1000
0000
,
0010
0000
0100
0000
,
0001
0001
0001
0000
,
1000
1000
1000
0000
,
1001
0000
0001
0000
,
0100
0100
0100
0000
,
0001
0000
1000
0000
,
0100
0000
0010
0000
,
1001
0000
1000
0000
,
0100
0100
0100
0000
,
1000
0000
0010
0000
,
0100
0000
0001
0000
,
0100
0000
0100
0000
,
0010
0010
0010
0000
,
1000
0000
0001
0000
,
0100
0100
0100
0000
,
0001
0000
0010
0000
,
1000
1000
1000
0000
,
1000
0000
0100
0000
,
0001
0001
0001
0000
,
2002
0000
3003
0000
;

//---------------dance-single - K. Pearman----------------
#NOTES:
     dance-single:
     K. Pearman:
     Easy:
     3:
     0.210486,0.369893,0.053999,0.092570,0.000000,191.000000,184.000000,7.000000,12.000000,0.000000,0.000000,0.210486,0.369893,0.053999,0.092570,0.000000,191.000000,184.000000,7.000000,12.000000,0.000000,0.000000:
0000
0000
0000
0000
,
0000
0000
0000
0000
,
0000
0000
0000
0000
,
0000
0000
0000
0000
,
0010
0001
0100
0000
,
0010
1000
0100
0000
,
2000
0010
3001
0000
,
0002
0010
1003
0000
,
0100
0000
0010
0000
,
0001
0100
0001
0000
,
2000
0100
3001
0000
,
0002
0100
1003
0000
,
0010
0100
0010
0000
,
0000
1000
0001
0000
,
1000
0010
0100
0000
,
0001
0010
0100
0000
,
1000
0000
0001
0000
,
0000
0100
0010
0000
,
0010
1000
0100
0001
,
0010
1000
0001
0000
,
0001
1000
0001
1000
,
0100
0010
0001
0000
,
0100
0010
0100
0010
,
1000
0001
0010
0100
,
1000
0010
0100
0001
,
1000
0100
0010
0001
,
1000
1000
0001
0001
,
1001
0110
1001
0110
,
1001
0001
0200
0300
,
0001
0001
0100
0000
,
0010
1000
0100
0000
,
0010
0001
0100
0000
,
1000
0000
0200
0300
,
1000
1000
0100
0000
,
0010
1000
0001
0000
,
0010
0001
1000
0000
,
1001
0000
0010
0000
,
0100
0010
1000
0000
,
0010
0000
0100
0000
,
0001
0010
0100
0000
,
0010
0000
0001
0000
,
1000
0100
1000
0001
,
0100
0000
0010
0000
,
1000
0001
1000
0000
,
0200
0000
0000
0000
,
0300
0000
0000
0000
,
1000
0000
0001
0000
,
0100
0000
0010
0000
,
1000
0000
0100
0000
,
0010
0000
0001
0000
,
1000
0100
0010
0001
,
1000
0010
0200
0300
,
1001
0000
0100
0000
,
0001
0010
0200
0300
,
1000
1000
0001
0001
,
1000
0100
0010
0001
,
1000
0000
0010
0000
,
0100
0100
0020
0030
,
1000
0010
0100
0001
,
1000
0001
1000
0001
,
0010
0000
0100
0000
,
1000
0010
1000
0000
,
0001
0000
1000
0000
,
0001
0100
0001
0000
,
0010
0000
0100
0000
,
1000
0100
0001
0000
,
0100
0000
1000
0000
,
0010
0100
0001
2000
,
0002
0000
3003
0000
;

//---------------dance-single - K. Pearman----------------
#NOTES:
     dance-single:
     K. Pearman:
     Medium:
     5:
     0.303056,0.449156,0.200568,0.416564,0.000000,275.000000,249.000000,26.000000,54.000000,0.000000,0.000000,0.303056,0.449156,0.200568,0.416564,0.000000,275.000000,249.000000,26.000000,54.000000,0.000000,0.000000:
0000
0000
0000
0000
,
0000
0000
0000
0000
,
0000
0000
0000
0000
,
0000
0000
0000
0000
,
2000
3010
0002
0013
,
1000
0100
0010
0000
0001
0000
0001
0000
,
1000
1000
1000
0000
0010
0000
0100
0000
,
0001
0001
0001
0000
0010
0000
0100
0000
,
2000
3100
0002
0103
,
1000
0100
0010
0000
0001
0000
1000
0000
,
0010
0010
0010
0000
1000
0000
0001
0000
,
0100
0100
0100
0000
0001
0000
1000
0000
,
0020
0130
0200
0310
,
0000
1000
0100
0000
0100
0000
0100
0000
,
0010
0001
2000
3010
,
0010
1000
0002
0013
,
0200
0310
0020
0130
,
0000
1000
0001
0000
0200
0000
0310
0000
,
0100
0001
0010
1000
,
0010
0100
1000
0001
,
2020
0000
3030
0000
0010
0000
1000
0010
,
0200
0000
0300
0001
,
0020
0000
0000
0000
0130
0000
1000
0010
,
0100
0100
0001
1000
,
0022
0000
0033
0000
0010
0000
0001
0100
,
0020
0000
0030
0100
,
0001
1000
0100
0010
,
0011
1010
1001
0110
,
2000
3100
0002
0103
,
1000
0001
1000
0000
0002
0000
1003
0000
,
0010
0010
0100
0001
,
0010
0010
0100
1000
,
0002
0103
2000
3100
,
0001
1000
0001
0000
1000
0000
0001
0000
,
0010
0010
0100
1000
,
0010
0010
0200
0000
,
0301
0011
0200
1300
,
0001
1000
0010
0200
,
0302
0000
2003
3000
,
0100
0010
0002
2003
,
3020
0000
0230
0300
,
0001
0010
0100
1000
,
0002
0000
2003
3010
,
0010
0000
0100
0000
0001
0000
1000
0001
,
0200
0000
0000
0000
,
0300
0000
0000
0000
,
0001
0010
0001
0010
,
1000
0010
1000
0010
,
0001
0011
1000
1010
,
0001
0101
1000
1100
,
0011
0110
1001
0110
,
1010
0110
2002
3003
,
0002
0103
2000
3100
,
0001
1000
0001
0000
1000
0000
0010
0000
,
0100
0100
0001
1000
,
0100
0100
1000
0001
,
2000
3010
0002
0013
,
0100
0010
0100
0000
1000
0000
0001
0000
,
0100
0100
0010
1000
,
0100
0100
0010
0001
,
0000
1100
0000
0101
,
2000
0000
3200
0000
0320
0000
0031
1000
,
0010
1010
0000
0011
,
0002
0000
0023
0000
0230
0000
1300
0001
,
0100
0101
0000
1100
,
2000
0000
3002
0000
0203
0000
0310
1000
,
0001
1100
0000
0101
,
2000
0000
3200
0000
0320
0000
0031
1000
,
0200
0000
0300
0000
;

//---------------dance-single - K. Pearman----------------
#NOTES:
     dance-single:
     K. Pearman:
     Hard:
     7:
     0.433094,0.449156,0.169711,0.416564,0.000000,393.000000,371.000000,22.000000,54.000000,0.000000,0.000000,0.433094,0.449156,0.169711,0.416564,0.000000,393.000000,371.000000,22.000000,54.000000,0.000000,0.000000:
0000
0000
0000
0000
,
0000
0000
0000
0000
,
0000
0000
0000
0000
,
0000
0000
0000
0000
,
0002
0103
2000
3200
,
1300
0010
1000
0001
1000
0010
0100
0000
,
0001
0010
0001
0010
0100
0001
1000
0000
,
1000
0100
1000
0100
0010
1000
0001
0000
,
0020
0130
2000
3002
,
0103
0010
1000
0001
0010
0100
1000
0000
,
0001
0100
0001
0100
1000
0010
1000
0000
,
0010
0001
0010
0001
0100
1000
0100
0000
,
0020
1030
0002
0013
,
0000
0100
0010
0000
2001
0000
3010
0000
,
1000
0100
0001
0100
0010
0001
1000
0000
,
0001
0100
1000
0100
0010
1000
0001
0000
,
0021
1030
1200
0301
,
0000
0010
0100
0000
2000
0000
3001
0000
,
0010
0001
0100
1000
0100
0001
0020
0000
,
0130
2000
3002
0203
,
0310
1000
0200
0000
0310
1000
0200
0000
,
0310
1000
0100
0000
0001
0100
0010
0000
,
0010
0001
0200
0000
0310
0001
0200
0000
,
0310
0001
0200
0000
0310
1000
0001
0000
,
0021
0000
0230
0000
0301
0100
1000
0010
,
0001
0000
0010
0000
1000
0000
0100
0010
,
0001
0100
1000
0100
0001
0100
1000
0100
,
0001
0010
1000
0100
0001
1000
0001
0000
,
1020
0031
0201
1300
,
1000
0010
0001
0100
0001
0010
1000
0000
,
0001
0001
1000
1000
0100
0001
1000
0000
,
1000
1000
0001
0001
0010
1000
0001
0000
,
0201
1300
1020
0031
,
0001
0100
1000
0010
1000
0100
0001
0000
,
1000
1000
0001
0001
0010
1000
0001
0000
,
0001
0001
1000
1000
0100
0001
2000
0000
,
3001
0110
2000
3200
,
0302
0000
0023
0000
2030
0000
3100
0001
,
0100
1000
0010
0000
0200
0000
0301
0000
,
2000
0000
3010
1000
0001
0010
0100
0000
,
1000
0110
0002
0023
,
2030
0000
3200
0000
0302
0000
0013
1000
,
0010
0001
0100
0000
0020
0000
1030
0000
,
0002
0000
0103
0001
1000
0100
0010
0002
,
2000
0000
3003
0000
,
0000
0000
0000
0000
,
1000
1010
0001
0011
,
1000
1100
0001
0101
,
1000
0010
0100
1000
0001
0100
0010
0001
,
1000
0010
0100
1000
0001
0100
0010
0001
,
1000
0010
0001
1000
0100
0001
0010
1000
,
0001
0100
1000
0010
0001
0010
1000
0000
,
0201
1300
1020
0031
,
0001
0100
1000
0010
1000
0100
0001
0000
,
1000
1000
0001
0001
0010
1000
0001
0000
,
0001
0001
1000
1000
0100
0001
1000
0000
,
1020
0031
0201
1300
,
1000
0010
0001
0100
0001
0010
1000
0000
,
0001
0001
1000
1000
0100
0001
1000
0000
,
1000
1000
0001
0001
0010
1000
0002
0000
,
1003
0110
2000
3001
,
0010
0001
1000
0100
0010
1000
0010
0100
,
1000
0011
0002
1003
,
0010
1000
0001
0100
0010
0001
0010
0100
,
0001
1010
2000
3100
,
0001
0100
1000
0010
0001
0100
1000
0001
,
1000
1001
0002
0013
,
1000
0100
0001
0010
1000
0001
0100
1000
,
0200
0000
0300
0000
;

//---------------dance-single - ----------------
#NOTES:
     dance-single:
     :
     Challenge:
     12:
     0.645784,0.977575,1.072266,0.570847,0.100284,586.000000,419.000000,139.000000,74.000000,67.000000,65.000000,0.645784,0.977575,1.072266,0.570847,0.100284,586.000000,419.000000,139.000000,74.000000,67.000000,65.000000:
// measure 0
0000
0000
0000
0000
,  // measure 1
0000
0000
0000
0000
,  // measure 2
0000
0000
0000
0000
,  // measure 3
0000
0000
0000
0000
,  // measure 4
0002
1003
2000
3001
,  // measure 5
0100
0100
0020
0000
1030
0000
0001
0000
,  // measure 6
M100
010M
1000
001M
M020
0000
0131
0000
,  // measure 7
M010
001M
1000
010M
M200
0000
0311
0000
,  // measure 8
0002
0010
2003
0100
,  // measure 9
3001
0010
0200
0000
2300
0000
3000
0000
,  // measure 10
001M
M010
0001
M100
020M
0000
1310
0000
,  // measure 11
010M
M100
0001
M010
002M
0000
1130
0000
,  // measure 12
2000
3001
0002
1003
,  // measure 13
0000
0002
2000
0000
0110
3003
1001
0000
,  // measure 14
100M
00M1
0100
M010
0M02
0000
1003
0000
,  // measure 15
M001
1M00
0100
001M
2M00
0000
3001
0000
,  // measure 16
0002
1003
2000
3001
,  // measure 17
0000
2000
0002
0000
0110
3003
1001
0000
,  // measure 18
M001
1M00
0100
001M
20M0
0000
3002
0000
,  // measure 19
0203
2300
3020
0230
,  // measure 20
0311
0001
0100
0010
0100
1000
0100
0001
,  // measure 21
1000
0100
0001
0100
0010
0100
1000
0001
,  // measure 22
1000
0010
0001
0010
1000
0010
0100
0010
,  // measure 23
1000
0001
0010
1000
0010
0001
0010
0100
,  // measure 24
1010
0001
0100
1000
0100
0010
1000
0001
,  // measure 25
0010
1000
0010
0001
1000
0010
0001
0010
,  // measure 26
1000
0000
0000
0000
0000
1000
0000
0000
0010
0000
0000
0000
0000
M010
0000
0000
0001
0000
0000
0000
0000
0001
0000
0000
0010
0000
0000
0000
0000
001M
0000
0000
1000
0000
0000
0000
0000
1000
0000
0000
0100
0000
0000
0000
0000
M100
0000
0000
0001
0000
0000
0000
0000
0001
0000
0000
0100
0000
0000
0000
0000
010M
0000
0000
,  // measure 27
1010
0000
0000
0000
0000
0001
0000
0000
0100
0000
0000
0000
0000
0001
0000
0000
1010
0000
0000
0000
0000
0001
0000
0000
0100
0000
0000
0000
0000
0100
0000
0000
0011
0000
0000
0000
0000
1000
0000
0000
0100
0000
0000
0000
0000
1000
0000
0000
0011
0000
0000
0000
0000
1000
0000
0000
0100
0000
0000
0000
0000
0000
0000
0000
,  // measure 28
1001
0010
1M11
0000
1001
0100
11M1
0000
,  // measure 29
111M
M111
111M
0000
1001
0010
1M11
0000
,  // measure 30
2010
3012
1003
0010
0001
0010
1000
0000
,  // measure 31
0102
2103
3001
0100
1000
0100
0001
0000
,  // measure 32
0011
0100
M111
0000
1010
0100
111M
0000
,  // measure 33
M111
11M1
111M
0000
1100
0010
1M11
0000
,  // measure 34
0102
2103
3001
0100
1000
0100
0001
0000
,  // measure 35
2010
3012
1003
0010
0400
0000
0300
0000
,  // measure 36
0001
0010
0100
0000
1010
0001
0100
0010
,  // measure 37
1100
0001
0110
1000
0011
1000
0101
2010
,  // measure 38
3012
0003
1011
0000
0101
1000
0010
0100
,  // measure 39
0011
1000
0110
0001
1010
0001
1100
0011
,  // measure 40
1000
0100
0010
0000
0101
1000
0010
0100
,  // measure 41
0011
1000
0110
0001
1100
0001
1010
0102
,  // measure 42
2103
3000
1101
0000
1010
0001
0100
0010
,  // measure 43
1100
0001
0110
1000
0101
1000
0012
2103
,  // measure 44
3020
0000
0000
0030
0000
0000
M000
0000
00M0
000M
00M0
000M
,  // measure 45
M000
0000
0M00
0000
M000
0000
00M0
0000
0M00
0000
000M
0000
,  // measure 46
2000
0011
3002
1010
,  // measure 47
2003
0011
3002
1010
,  // measure 48
2003
0011
3002
1010
2003
0011
3002
1010
,  // measure 49
2003
0101
3002
1100
2003
0101
3002
1100
,  // measure 50
2003
0101
3020
1100
2030
0011
3200
1010
,  // measure 51
2300
0000
0000
0000
0000
0000
3002
0000
0000
0000
0000
0000
0103
0000
0010
0000
0100
0000
0010
0000
0000
1000
0000
0000
0001
0000
0000
1000
0000
0000
0400
0000
0000
0000
0000
0000
0000
0000
0000
0000
0000
0000
0300
0000
0000
0000
0000
0000
,  // measure 52
1001
0100
11M1
0000
1001
0010
1M11
0000
,  // measure 53
M111
111M
M111
0000
1001
0100
11M1
0000
,  // measure 54
0102
2103
3001
0100
1000
0100
0001
0000
,  // measure 55
2010
3012
1003
0010
0001
0010
1000
0000
,  // measure 56
1100
0010
111M
0000
0101
0010
M111
0000
,  // measure 57
111M
1M11
M111
0000
0011
0100
11M1
0000
,  // measure 58
2010
3012
1003
0010
0001
0010
1000
0000
,  // measure 59
0102
2103
3001
0100
0020
0000
1001
0030
,  // measure 60
1000
0100
0010
0000
0101
1000
0010
0100
,  // measure 61
0011
1000
0110
0001
1100
0001
1010
0102
,  // measure 62
2103
3000
1101
0000
1010
0001
0100
0010
,  // measure 63
1100
0001
0110
1000
0101
1000
0011
1100
,  // measure 64
0001
0010
0100
0000
1010
0001
0100
0010
,  // measure 65
1100
0001
0110
1000
0011
1000
0101
2010
,  // measure 66
3012
0003
1011
0000
0101
1000
0010
0100
,  // measure 67
0011
1000
0110
0001
1010
0001
1100
0011
,  // measure 68
0200
0000
0300
0000
;

//---------------dance-double - ----------------
#NOTES:
     dance-double:
     :
     Easy:
     3:
     0.189548,0.236053,0.038571,0.000000,0.000000,172.000000,167.000000,5.000000,0.000000,0.000000,0.000000,0.189548,0.236053,0.038571,0.000000,0.000000,172.000000,167.000000,5.000000,0.000000,0.000000,0.000000:
00000000
00000000
00000000
00000000
,
00000000
00000000
00000000
00000000
,
00000000
00000000
00000000
00000000
,
00000000
00000000
00000000
00000000
,
10000000
00000000
01000000
00000000
,
00100000
00010000
01000000
00000000
,
00001000
00010000
00001000
00010000
,
00001000
00010000
00001000
00000000
,
00000100
00000000
00000001
00000000
,
00000010
00000001
00000100
00000000
,
00001000
00010000
00001000
00010000
,
00001000
00010000
00001000
00000000
,
00010000
00000000
00100000
00000000
,
10000000
01000000
10000000
00000000
,
01000000
00100000
00010000
00000000
,
01000000
00000000
00001000
00000000
,
00010000
00000000
00000100
00000000
,
00000010
00000001
00000100
00000000
,
00000010
00001000
00000010
00000000
,
00001000
00000000
00000100
00000000
,
00011000
00000000
00000100
00000000
,
00010000
00000000
00001000
00000000
,
01000000
00000000
00001000
00000000
,
00010000
00000000
00000010
00000000
,
00010000
00000000
00001000
00000000
,
00100000
00000000
00001000
00000000
,
00010000
00001000
00010000
00001000
,
00100000
00010000
00100000
00010000
,
10000000
00000000
01100000
00000000
,
00010000
00000000
01100000
00000000
,
10000000
01000000
00010000
00000000
,
00001000
00000100
00000001
00000000
,
00001000
00000000
00000110
00000000
,
00000001
00000000
00000110
00000000
,
00000001
00000010
00001000
00000000
,
00010000
00100000
10000000
00000000
,
00010000
00000000
10000000
00000000
,
01000000
10000000
00010000
10000000
,
01000000
00000000
00100000
00000000
,
00001000
00010000
00000100
00010000
,
00001000
00000000
00000100
00000000
,
00000001
00000010
00000100
00001000
,
00000001
00000000
00001000
00000000
,
00000001
00000100
00000010
00001000
,
00000100
00000000
00000000
00000000
,
00010000
00000000
00000000
00000000
,
00001000
00000000
00000000
00000000
,
01000000
00000000
00000000
00000000
,
00100000
00000000
00000000
00000000
,
10000000
00000000
00000000
00000000
,
01000000
00000000
00100000
00000000
,
00010000
00000000
10000000
00000000
,
00100000
01000000
00100000
00000000
,
10000000
00010000
10000000
00000000
,
00010000
00100000
00001000
00010000
,
00000010
00001000
00000001
00000000
,
00000010
00000100
00000010
00000000
,
00000001
00001000
00000001
00000000
,
00000100
00001000
00010000
00001000
,
00010000
00001000
00100000
00010000
,
00100000
00000000
01000000
00000000
,
10000000
00100000
10000000
00000000
,
01000000
00000000
00100000
00000000
,
00010000
01000000
00010000
00000000
,
00100000
00000000
00001000
00000000
,
00010000
00001000
00010000
00000000
,
00001000
00000000
00000100
00000000
,
00000001
00001000
00000001
00000010
,
00000100
00000000
00000000
00000000
;

//---------------dance-double - ----------------
#NOTES:
     dance-double:
     :
     Medium:
     5:
     0.286525,0.394868,0.215996,0.277709,0.000000,260.000000,232.000000,28.000000,36.000000,0.000000,0.000000,0.286525,0.394868,0.215996,0.277709,0.000000,260.000000,232.000000,28.000000,36.000000,0.000000,0.000000:
00000000
00000000
00000000
00000000
,
00000000
00000000
00000000
00000000
,
00000000
00000000
00000000
00000000
,
00000000
00000000
00000000
00000000
,
00020000
01000000
20030000
01000000
,
30010000
00100000
01000000
00000000
,
00100000
00001000
00010000
00000000
,
00001000
00010000
00000010
00000000
,
00002000
00000100
00003002
00000010
,
00001003
00000100
00000010
00000000
,
00000100
00010000
00001000
00000000
,
01000000
00001000
00010000
00000000
,
00002000
00013000
00020000
00031000
,
00000000
00011000
01001000
00000000
,
01000000
00100000
10000000
01000000
,
00000000
01000000
00010000
00001000
,
00020000
00030100
00002000
01003000
,
00000000
00010000
00001000
00000100
,
00000001
00001000
00000001
00000010
,
00000000
00000001
00000010
00000100
,
00001200
00000000
00010300
00001000
,
01000000
00000000
01000000
00100000
,
20000000
00000000
30010000
00100000
,
02000000
00000000
03010000
00001000
,
00001200
00000000
00000301
00000010
,
00000200
00000000
00000310
00000001
,
00001000
00000001
00001000
00000001
,
00001000
00000000
00000001
00000000
00001000
00000001
00001000
00000000
,
00001001
00000100
00011000
01000000
,
00100000
01000000
00100000
00000000
10000000
00000000
01000000
00000000
,
00100000
00010000
01010000
11000000
,
00010000
01000000
11000000
01010000
,
10010000
00100000
00011000
00000010
,
00001000
00000001
00001000
00000000
00000100
00000000
00000100
00000000
,
00000010
00000001
00000101
00001100
,
00000010
00001000
00001100
00000101
,
00002002
00003003
00000001
00000001
,
00001000
00001000
00000001
00000010
,
00000100
00001000
00000001
00000100
,
00001000
00000100
00000010
00010000
,
00001000
00100000
00010000
00010000
,
10000000
10000000
01000000
00010000
,
01000000
10000000
00010000
00010000
,
10000000
10000000
00100000
01000000
,
20020000
00000000
00000000
00000000
,
30030000
00000000
00000000
00000000
,
00000000
00000000
00000000
00000000
,
00000000
00000000
00000000
00000000
,
00001000
00010000
00001000
00000000
00010000
00000000
00100000
00000000
,
10000000
00010000
10000000
00000000
01000000
00000000
00010000
00000000
,
00001000
00010000
00001000
00000000
00000100
00000000
00000001
00000000
,
00001000
00000001
00001000
00000000
00000002
00000000
00000013
00000000
,
00002100
00003001
00000102
00001003
,
00000100
00000100
00000100
00000000
00000010
00000000
00001000
00000000
,
00010000
00001000
01001000
01010000
,
00010000
01000000
01010000
10010000
,
20000000
30100000
00020000
00130000
,
10000000
01000000
10000000
00000000
00010000
00000000
00100000
00000000
,
01000000
10000000
11000000
01010000
,
01000000
00001000
00011000
00010100
,
00000100
00000100
00000020
00000031
,
00002000
00000000
00003020
00000000
00000230
00000000
00000301
00001000
,
00000001
00000000
00000002
00000003
,
00000020
00000000
00000230
00000000
00020300
00000000
00031000
01000000
,
00001000
00000000
02000000
03010000
,
20000000
00000000
32000000
00000000
03200000
00000000
00310000
10000000
,
00010000
00000000
20000000
30000000
,
00100000
00000000
01000000
00000000
00010000
00000000
10000000
01000000
,
00020000
00030000
00000000
00000000
;

//---------------dance-double - ----------------
#NOTES:
     dance-double:
     :
     Hard:
     8:
     0.423176,0.473841,0.100284,0.107998,0.000000,384.000000,371.000000,13.000000,14.000000,0.000000,0.000000,0.423176,0.473841,0.100284,0.107998,0.000000,384.000000,371.000000,13.000000,14.000000,0.000000,0.000000:
00000000
00000000
00000000
00000000
,
00000000
00000000
00000000
00000000
,
00000000
00000000
00000000
00000000
,
00000000
00000000
00000000
00000000
,
00010000
01000000
00010000
00000000
00100000
01000000
10000000
00000000
,
00100000
00010000
00001000
00000000
00000010
00000000
00000100
00000000
,
00001000
00000001
00001000
00000001
00000010
00000100
00001000
00000000
,
00000001
00001000
00000001
00001000
00000010
00000100
00000001
00000000
,
00000010
00000100
00001000
00000000
00000100
00010000
00001000
00000000
,
00010000
00001000
01000000
00000000
00010000
01000000
00100000
00000000
,
10000000
00010000
10000000
00010000
00100000
01000000
10000000
00000000
,
00010000
10000000
00010000
10000000
00100000
01000000
00010000
00000000
,
01000000
00010000
00100000
00000000
00001000
00010000
00001000
00000000
,
00010000
00001000
00010000
00000000
00000100
00001000
00000010
00000000
,
00000100
00000001
00001000
00000001
00000010
00001000
00010000
00000000
,
00001000
00010000
00100000
10000000
00010000
10000000
01000000
00000000
,
00100000
00010000
00001000
00000000
00000100
00000000
00000010
00000000
,
00000010
00001000
00010000
00000000
01000000
00000000
00100000
00000000
,
00010000
01000000
00100000
10000000
00010000
01000000
00001000
00010000
,
00000100
00000010
00000001
00001000
,
00000102
00001000
00010000
00001000
,
00000010
00001000
00010000
00000103
,
00000100
00000010
00001000
00000000
00001000
00000010
00010000
00000000
,
00010000
00001000
00100000
00000000
00100000
00010000
10000000
00000000
,
21000000
00010000
00001000
00010000
,
00100000
00010000
00001000
01000000
,
31000000
00100000
00010000
00001000
00000100
00000010
00000001
00000100
,
00001000
00010000
01000000
10000000
00100000
01000000
00100000
10000000
,
11000000
00100000
01000000
00000000
00010000
10000000
00010000
00000000
,
00100000
00100000
01000000
00010000
00001000
00000100
00000010
00000000
,
00001000
00001000
00000001
00000001
00000010
00001000
00000010
00000001
,
00001000
00001000
00000001
00000001
00000100
00001000
00000100
00000001
,
00000010
00000100
00010000
00000000
00001000
00010000
00100000
00000000
,
01000000
01000000
00100000
10000000
00010000
10000000
01000000
00000000
,
10000000
01000000
00010000
01000000
10000000
01000000
00010000
00001000
,
00000100
00000001
00000100
00001000
00000100
00000001
00000020
00000000
,
00000031
00000011
00000100
00001100
,
00010000
00011000
00001000
01010000
,
01000000
00100000
10000000
00000000
00010000
01000000
00100000
00000000
,
10000000
01000000
10000000
00010000
10000000
01000000
00010000
00001000
,
00010000
00000000
00011000
00000000
00001000
00000100
00000001
00000000
,
00000010
00000000
00000100
00000000
00001000
00000010
00001000
00000001
,
00001000
00000000
00001001
00000000
00000001
00000010
00000100
00000000
,
00000010
00000000
00002000
00000000
00013000
00000000
00100000
01000000
,
00020000
00030000
20000000
30000000
,
02000000
03000000
00000200
00000300
,
00000020
00000030
00200000
00300000
,
00002000
00003000
00020000
00030000
,
00001000
00010000
00001000
00010000
,
00001000
00010000
00001000
00010000
00001000
00010000
00001000
00010000
,
00000100
00000010
00000001
00001000
00000010
00000100
00000001
00001000
,
00000100
00010000
00001000
01000000
00010000
10000000
01000000
00000000
,
00100000
11000000
00100000
01010000
,
01000000
00100000
10000000
00010000
00100000
01000000
10000000
00000000
,
10000000
01000000
00010000
00000000
00001000
00000000
00010000
00000000
,
00001000
00000100
00000001
00000000
00001000
00000000
00000001
00000000
,
00000010
00000100
00001000
00000000
00000010
00000100
00000001
00000000
,
00000010
00000001
00001000
00000001
00000010
00001000
00010000
00000000
,
00001000
00010000
00001000
00010000
00100000
01000000
00010000
00000000
,
10000000
01000000
10000000
01000000
00200000
00000000
00310000
00000000
,
10010000
01000000
00100000
10010000
,
10000000
00100000
00010000
00000000
00001000
00000010
00000001
00000000
,
00001000
00000000
00000001
00000000
00000100
00000001
00000010
00000000
,
00000001
00000100
00001000
00000000
00010000
01000000
10000000
00000000
,
01000000
10000000
00100000
00000000
10000000
00000000
00010000
00000000
,
10000000
00100000
00010000
00001000
00000010
00000000
00000001
00000100
,
00001000
00010000
01000000
00100000
,
00010000
01000000
10000000
01000000
00010000
00001000
00000100
00000001
,
00000200
00000300
00000000
00000000
;

//---------------dance-double - ----------------
#NOTES:
     dance-double:
     :
     Challenge:
     12:
     0.511338,0.708158,0.863984,0.485991,0.000000,464.000000,336.000000,112.000000,63.000000,14.000000,116.000000,0.511338,0.708158,0.863984,0.485991,0.000000,464.000000,336.000000,112.000000,63.000000,14.000000,116.000000:
00000000
00000000
00000000
00000000
,
00000000
00000000
00000000
00000000
,
00000000
00000000
00000000
00000000
,
00000000
00000000
00000000
00000000
,
10000000
01000000
00001000
00000000
00000001
00000100
00010000
00000000
,
00200000
00010000
00000200
00000000
00011000
00300300
00100100
00000000
,
02000000
00100000
00001000
00000100
00000020
00000000
00011000
03000030
,
00000200
00001000
00010000
01000000
00200000
00000000
00011000
00300300
,
00001000
00000100
00000001
00000000
00010000
00100000
10000000
00000000
,
02000000
10000000
00001000
00000000
00100000
00000000
03001100
00000000
,
00011000
00000002
00001000
00010000
20000000
00000000
00100000
30000003
,
00011000
20000000
00010000
00001000
00000002
00000000
00000010
30000003
,
00011000
1MMMMMMM
00011000
MMMMMMM1
,
00000000
00100010
02000200
00000000
00011000
03000300
00100010
00000000
,
00001000
01000000
10000000
01000000
00000200
00000000
00000001
00000000
,
00010300
00000100
00000001
00000100
02000000
00000000
10000000
00000000
,
03010000
00100000
00000110
00000000
00001000
00000010
01100000
00000000
,
00000000
20000000
00020000
00000000
00001000
00000000
31030000
00000000
,
00111100
00000000
01011010
00000000
00111100
00011000
01011010
00000000
,
00011000
01000000
00000100
00100010
,
02000200
00000000
10000000
00001000
10000000
00000000
13001300
00000000
,
02000200
00000000
00010000
00000001
00010000
00000000
03010301
00000000
,
00200020
00000000
10000000
00001000
10000000
00000000
10301030
00000000
,
00200020
00000000
00010000
00000001
00010000
00000000
00310031
00000000
,
11022000
00100000
00000010
00033101
,
00022011
00000100
01000000
10133000
,
10000000
00000100
00100000
00000001
10000000
00000010
01000000
00000001
,
00011000
01100000
00011000
00000110
00011000
10010000
00011000
00001001
,
00000010
00000100
01100000
00000000
00100000
01000000
00000110
00000000
,
00000101
00001100
00001021
00000000
00100000
00000000
02020030
00000000
,
10000000
00100000
10000000
00100000
10000000
00000000
00001000
00000000
,
00100000
00001000
00100000
00001000
00100000
00000000
13030000
00000000
,
01000000
00100000
00000110
00000000
00000100
00000010
01100000
00000000
,
10100000
00110000
12010000
00000000
00000100
00000000
03002020
00000000
,
00000001
00000100
00000001
00000100
00000001
00000000
00010000
00000000
,
00000100
00010000
00000100
00010000
00000100
00000000
00003031
00000000
,
00001001
00000010
00100000
01000000
10010000
01000000
00000100
00000010
,
00020002
00000000
00100010
00030003
00010001
00000000
00000001
00001000
,
10000000
00000000
10010000
00100000
00000010
00001001
00000100
01000000
,
20002000
00000000
01000100
30003000
10001000
00000000
10000000
00010000
,
00000001
00011000
02002000
00000000
,
10000100
00010010
00010100
10010000
,
13003100
00000000
00020020
00000000
,
00100001
01001000
00101000
00001001
,
00130031
00000000
00000000
00000000
,
00000000
00000000
00000000
00000000
,
00001000
00002000
00010000
01003000
,
00001000
00001000
01000000
00000200
,
00100300
01000000
00000100
00010000
00000200
00100000
00010300
00001000
,
10000000
00100000
00100000
00000020
01000000
00100030
00000100
00010000
,
00000001
00001000
00000001
00001000
00001000
01000000
00001000
10000000
,
00002000
00100000
10000000
00013000
00000002
00000000
00000003
00000000
,
00000010
00000100
01100000
00000000
00100000
01000000
00000110
00000000
,
00000101
00001100
00001021
00000000
00100000
00000000
02020030
00000000
,
10000000
00100000
10000000
00100000
10000000
00000000
00001000
00000000
,
00100000
00001000
00100000
00001000
00100000
00000000
13030000
00000000
,
01000000
00100000
00000110
00000000
00000100
00000010
01100000
00000000
,
10100000
00110000
12010000
00000000
00000100
00000000
03002020
00000000
,
00000001
00000100
00000001
00000100
00000001
00000000
00010000
00000000
,
00000100
00010000
00000100
00010000
00000100
00000000
00003031
00000000
,
00001001
00000010
00100000
01000000
10010000
01000000
00000100
00000010
,
00020002
00000000
00100010
00030003
00010001
00000000
00000001
00001000
,
10000000
00000000
10010000
00100000
00000010
00001001
00000100
01000000
,
20002000
00000000
01000100
30003000
10001000
00000000
10000000
00010000
,
00000001
00011000
02002000
00000000
,
10000100
00010100
00010100
10010000
,
13003100
00000000
00020020
00000000
,
00100001
01001000
00101000
00031031
,
10000001
00000000
00000000
00000000
;
