#TITLE:Do The Thing;
#SUBTITLE:feat. Kanae Asaba;
#ARTIST:MK;
#TITLETRANSLIT:;
#SUBTITLETRANSLIT:;
#ARTISTTRANSLIT:;
#GENRE:;
#CREDIT:;
#BANNER:Do The Thing-Banner.png;
#BACKGROUND:Do The Thing-Background.png;
#LYRICSPATH:;
#CDTITLE:;
#MUSIC:Do The Thing feat. Kanae Asaba - MK.ogg;
#OFFSET:-0.884550;
#SAMPLESTART:86.219002;
#SAMPLELENGTH:14.278000;
#SELECTABLE:YES;
#BPMS:0.000000=135.000000
;
#STOPS:
;
#BGCHANGES:;
#KEYSOUNDS:;
#ATTACKS:;

//---------------dance-single - ----------------
#NOTES:
     dance-single:
     :
     Beginner:
     2:
     0.136778,0.215634,0.099908,0.116559,0.000000,115.000000,103.000000,12.000000,14.000000,0.000000,0.000000,0.136778,0.215634,0.099908,0.116559,0.000000,115.000000,103.000000,12.000000,14.000000,0.000000,0.000000:
0000
0000
0000
0000
,
0000
0000
0000
0000
,
0000
0000
0000
0000
,
0000
0000
0000
0000
,
0100
0000
0000
0000
,
0001
0000
0000
0000
,
1000
0000
0000
0000
,
0100
0000
0000
0000
,
1001
0000
0000
0000
,
0110
0000
0000
0000
,
1000
1000
1000
0000
,
0001
0001
0001
0000
,
1001
0000
0000
0000
,
0110
0000
0000
0000
,
0001
0001
0001
0000
,
1000
1000
1000
0000
,
0200
0000
0000
0000
,
0000
0000
0300
0000
,
0010
0000
0100
0000
,
0010
0000
0000
0000
,
0020
0000
0000
0000
,
0000
0000
0030
0000
,
0001
0000
1000
0000
,
0001
0001
0001
0000
,
1001
0000
0000
0000
,
0010
0010
0010
0000
,
1000
0000
0001
0000
,
0010
0010
0010
0000
,
0100
0000
0100
0000
,
0001
0000
1000
0000
,
0100
0000
0100
0000
,
1000
0000
0001
0000
,
0100
0000
0000
0000
,
0010
0000
0000
0000
,
1000
0000
0000
0000
,
0001
0000
0000
0000
,
0010
0010
0000
0000
,
0001
0001
0000
0000
,
1000
1000
0000
0000
,
0100
0100
0000
0000
,
2002
0000
3003
0000
,
0220
0000
0330
0000
,
2002
0000
3003
0000
,
0220
0000
0330
0000
,
1000
0000
0100
0000
,
0001
0000
0010
0000
,
1000
0000
0100
0000
,
0001
0000
0000
0000
,
1001
0000
0001
0000
,
0100
0100
0100
0000
,
1000
0000
1000
0000
,
0100
0100
0100
0000
,
1001
0000
0001
0000
,
0010
0010
0010
0000
,
1000
0000
1000
0000
,
0010
0010
0010
0000
,
0200
0000
0300
0000
,
0100
0000
0000
0000
,
0020
0000
0030
0000
,
0010
0000
0000
0000
,
0001
0001
0000
0000
,
1000
1000
0000
0000
,
0100
0000
0010
0000
,
0100
0000
0010
0000
,
2002
0000
0000
3003
;

//---------------dance-single - ----------------
#NOTES:
     dance-single:
     :
     Easy:
     4:
     0.250958,0.324700,0.141536,0.024977,0.000000,211.000000,194.000000,17.000000,3.000000,0.000000,0.000000,0.250958,0.324700,0.141536,0.024977,0.000000,211.000000,194.000000,17.000000,3.000000,0.000000,0.000000:
0000
0000
0000
0000
,
0000
0000
0000
0000
,
0000
0000
0000
0000
,
0000
0000
0000
0000
,
1000
0000
0000
1000
0000
0000
0000
0000
,
0001
0000
0000
0001
0000
0000
0000
0000
,
0010
0000
0000
0010
0000
0000
0000
0000
,
0100
0000
0000
0100
0000
0000
0000
0000
,
1001
0000
0000
0001
0000
0000
0000
0000
,
0110
0000
0000
0100
0000
0000
0000
0000
,
1001
0000
0000
1000
0000
0000
0000
0000
,
0110
0000
0000
0010
0000
0000
0000
0000
,
1000
0000
0000
1000
0000
0000
0000
0000
,
0100
0000
0000
0100
0000
0000
0000
0000
,
0001
0000
0000
0001
0000
0000
0000
0000
,
0100
0100
0100
0100
,
0010
0001
1000
0000
,
0010
1000
0001
0000
,
0100
0001
1000
0000
,
0100
1000
0001
0000
,
0010
0001
0010
0001
,
1000
0100
1000
0100
,
1000
0001
1000
0001
,
0100
0000
0010
0000
,
1001
0001
0100
0000
,
0010
0100
0001
0010
,
0100
0100
0010
0000
,
0100
1000
0010
0000
,
0100
0100
0010
1000
,
0001
0100
0010
0000
,
0100
0001
1000
1000
,
0001
1000
0100
0000
,
1001
0001
0100
0010
,
1000
1000
0001
0100
,
1001
0000
1000
1000
,
0100
0010
0001
0100
,
1001
0000
0001
0100
,
0101
0001
1000
0100
,
1100
1000
0001
0010
,
0100
0100
0010
0010
,
0001
0000
0000
1000
0000
0000
0010
0000
,
1000
0000
0000
0001
0000
0000
0010
0000
,
0001
0000
0000
1000
0000
0000
0100
0000
,
1000
0000
0000
0001
0000
0000
0100
0000
,
0010
0010
1000
1000
,
0100
0100
0001
0001
,
0010
1000
0100
0001
,
0020
0000
0000
0030
,
1001
0001
0100
0100
,
0001
1000
0100
0100
,
1000
0010
0100
0000
,
0010
1000
0001
0010
,
0011
0001
1000
0000
,
1100
1000
0001
0000
,
1000
0100
0010
0001
,
1001
0100
1001
0100
,
0010
0010
0010
0000
0000
0000
1001
0000
,
0001
0100
0001
0000
,
1000
0100
1000
0000
,
0010
0100
0001
0100
,
1000
0100
0010
1000
,
0001
0010
0100
1000
,
0001
0100
0010
0100
,
0001
1000
0100
0010
,
2002
0000
0000
0000
,
3003
0000
0000
0000
;

//---------------dance-single - ----------------
#NOTES:
     dance-single:
     :
     Medium:
     5:
     0.310427,0.487049,0.299723,0.049954,0.000000,261.000000,225.000000,36.000000,6.000000,0.000000,0.000000,0.310427,0.487049,0.299723,0.049954,0.000000,261.000000,225.000000,36.000000,6.000000,0.000000,0.000000:
0000
0000
0000
0000
,
0000
0000
0000
0000
,
0000
0000
0000
0000
,
0000
0000
0000
0000
,
1000
0000
0000
0010
0000
0000
0000
0000
,
0001
0000
0000
0010
0000
0000
0000
0000
,
1000
0000
0000
0100
0000
0000
0000
0000
,
0001
0000
0000
0100
0000
0000
1000
0000
,
0001
0000
0000
0101
0000
0000
0001
0000
,
1000
0000
0000
1100
0000
0000
1000
0000
,
1001
0000
0000
0011
0000
0000
0001
0000
,
0011
0000
0000
1001
0000
0000
0001
0000
,
1010
0000
0000
1001
0000
0000
0001
0000
,
1001
0000
0000
1010
0000
0000
1000
0000
,
1100
0000
0000
0110
0000
0000
0100
0000
,
0110
0000
0000
0011
0000
0000
0001
0000
,
1000
0010
0100
0001
,
1000
0100
0010
0001
,
1000
0000
0100
0000
0010
0010
0010
0000
,
0100
0000
1000
0000
0001
0000
0100
0100
,
0100
0010
0100
1000
,
0100
0001
1000
0100
,
0010
0001
0010
0000
0100
0000
0100
0000
,
1000
0001
0100
0000
,
1001
0001
0100
0000
,
0010
1000
0001
0000
1001
0000
0100
0000
,
0010
0001
1000
0000
,
0100
1000
0001
0000
1001
0000
0001
0000
,
0010
0000
0100
0000
0010
0001
0100
0000
,
0010
0100
0001
0000
,
1000
0000
0010
0000
0100
0010
1000
0000
,
0100
0000
0010
0000
0100
0000
1000
0001
,
1000
0010
1000
0100
,
1000
0001
1000
0010
,
0101
0000
0100
0001
,
1000
0001
0010
0001
,
1100
0000
0000
0000
0100
0100
1000
0000
,
0010
0000
0100
0000
0100
0100
0001
0000
,
0010
0100
1000
0001
,
1000
0010
0100
0001
,
0012
0000
0000
1003
0000
0000
0010
0000
,
2010
0000
0000
3001
0000
0000
0001
0000
,
0102
0000
0000
1003
0000
0000
0100
0000
,
2100
0000
0000
3001
0000
0000
0001
0000
,
0110
1010
0110
0011
,
0110
1100
0110
0101
,
1001
0011
1001
1010
,
0200
0000
0000
0010
0000
0000
0300
0000
,
1001
1000
0001
0100
,
0010
1000
0100
0001
,
0100
0000
1000
0010
1000
0000
0001
0000
,
0100
0100
0010
0010
,
0100
0000
0000
0001
0000
0010
0000
0000
,
0100
0000
0000
1000
0000
0010
0000
0000
,
0100
0000
0001
1000
0001
0000
0010
0000
,
0100
0010
1000
0010
,
0001
0001
1000
1000
,
0010
0100
0001
1000
,
0100
0000
0010
0100
0010
0000
0001
0000
,
1000
0000
0000
0010
0000
0000
0100
0000
,
0001
0000
0000
0010
0000
0001
0000
0000
,
1000
0000
0000
0010
0000
1000
0000
0000
,
0001
0000
0100
0001
1000
0001
0010
0000
,
0100
0000
0100
1000
0000
1000
0001
0000
,
0200
0000
0000
0000
,
0300
0000
0000
0000
;

//---------------dance-single - ----------------
#NOTES:
     dance-single:
     :
     Hard:
     7:
     0.432933,0.432933,0.141536,0.016651,0.183164,364.000000,347.000000,17.000000,2.000000,0.000000,0.000000,0.432933,0.432933,0.141536,0.016651,0.183164,364.000000,347.000000,17.000000,2.000000,0.000000,0.000000:
0000
0000
0000
0000
,
0000
0000
0000
0000
,
0000
0000
0000
0000
,
0000
0000
0000
0000
,
1000
0000
0000
0100
0000
0000
1000
0000
,
0001
0000
0000
0100
0000
0000
0001
0000
,
1000
0000
0000
0010
0000
0000
1000
0000
,
0001
0000
0000
0010
0000
0000
0001
0000
0000
0000
0100
0000
0010
0000
0000
0000
,
0110
0000
0000
0101
0000
0001
0010
0000
,
0110
0000
0000
1100
0000
1000
0010
0000
,
0100
0000
1000
0100
0001
0010
1000
0000
,
0010
0000
0001
1000
0000
0001
1000
0000
,
1010
0000
0000
1001
0000
0000
0001
0000
,
0011
0000
0000
1001
0000
0000
0011
0000
,
0010
0000
1000
0010
0001
0100
1000
0000
,
0100
0000
0001
1000
0000
0001
0100
0000
,
0010
0000
0010
0000
0000
0100
0000
0000
0001
0000
1000
0000
0001
0000
1000
0000
,
0100
0000
0010
0000
0000
0100
0000
0000
1000
0000
0010
0000
1000
0000
0010
0000
,
0100
0001
0000
0010
0001
1000
0000
0100
,
0010
0100
0000
1000
0001
0100
0000
0010
,
1000
0000
0001
0000
0000
0100
0000
0010
0000
1000
0000
0000
0001
0000
1000
0000
,
0001
0000
0010
0000
0000
0100
0000
1000
0000
0010
0000
0000
1000
0000
0001
0000
,
0100
0001
1000
0001
0010
0100
1000
0001
,
1000
0010
0100
1000
0000
0100
0001
0000
,
0010
0000
0001
0000
0000
1000
0000
0001
0000
0100
0000
0000
0010
0000
0000
0000
,
0010
0000
1000
0000
0000
0001
0000
1000
0000
0100
0000
0000
0010
0000
0001
0000
,
0100
0000
0010
0000
0100
0000
0000
0001
0000
0010
0000
0000
0100
0000
1000
0000
,
0010
0000
0001
0000
0010
0000
0000
0100
0000
1000
0000
0000
0100
0000
0001
0000
,
1000
0000
0100
0000
0000
0010
0000
1000
0000
0010
0000
0000
0001
0000
0100
0000
,
0010
0000
0001
0000
0000
0010
0000
0100
0000
0001
0000
0000
0100
0000
0010
0000
,
1000
0000
0001
0000
0000
0010
0000
0001
0000
1000
0000
0000
0001
0000
0100
0000
,
0010
0000
1000
0000
0000
0100
0000
0001
0000
0100
0000
0000
0010
0000
0001
0000
,
1000
1010
0001
0011
,
1000
0100
0010
0000
0100
0010
0001
0000
,
1000
0001
0101
1000
,
1100
0000
0001
0000
0100
0010
1000
0001
,
1000
0010
0100
0000
0001
0000
0011
0000
,
1000
0000
1010
0000
0001
0100
0010
0000
,
1000
0100
0001
0100
1000
0001
1000
0000
,
0001
1000
0001
0010
1000
0010
0001
0000
,
1000
0000
0100
0010
0000
0100
1000
0000
,
0001
0000
0100
0010
0000
0100
0001
0000
,
1000
0000
0010
0100
0000
0010
1000
0000
,
0001
0000
0010
0100
0000
0010
0001
0000
,
1000
0000
0100
0010
1000
0010
0100
1000
,
0001
0000
0100
0010
0001
0010
0100
0001
,
1000
0000
0001
0100
0010
0000
1000
0100
,
0020
0000
0000
0030
,
0001
0000
0010
0000
0000
0001
0000
1000
0000
0001
0000
0000
0100
0000
0010
0000
,
1000
0000
0100
0000
0000
1000
0000
0001
0000
1000
0000
0000
0010
0000
0100
0000
,
0001
0000
0010
1000
0010
0001
0010
0000
,
0100
1000
0100
0010
0000
0001
0100
0000
,
0010
0000
0100
0000
0000
0001
0000
0100
0000
0010
0000
0000
0010
0000
0000
0000
,
1000
0000
0001
0010
0000
0100
0010
0001
,
1000
0000
0100
0010
0100
1000
0100
0001
,
0100
0010
0001
1000
0000
0010
0100
0000
,
0010
0000
0010
0000
1001
0000
0000
0001
0000
0010
0000
0000
0100
0000
0000
0000
,
1000
0000
0010
0000
1000
0000
0000
0001
0000
0100
0000
0000
0010
0000
0100
0000
,
0001
0000
1000
0100
0001
0100
1000
0010
,
0100
0010
1000
0001
0000
0100
0010
0000
,
0100
0001
0010
0001
0000
1000
0001
0000
,
0100
0010
1000
0001
0000
1000
0100
0000
,
0011
0000
0001
0100
1000
0100
0001
0000
,
1000
0100
0001
0100
0000
1000
0010
0100
,
0002
0000
0000
0000
,
0003
0000
0000
0000
;

//---------------dance-single - ----------------
#NOTES:
     dance-single:
     :
     Challenge:
     9:
     0.562575,0.676458,0.183164,0.116559,0.474561,473.000000,451.000000,22.000000,14.000000,0.000000,1.000000,0.562575,0.676458,0.183164,0.116559,0.474561,473.000000,451.000000,22.000000,14.000000,0.000000,1.000000:
0000
0000
0000
0000
,
0000
0000
0000
0000
,
0000
0000
0000
0000
,
0000
0000
0000
0000
,
0002
0000
0013
0200
0000
0310
0001
1000
,
0010
0000
0000
0100
0000
0000
0010
0000
0000
0000
0000
0000
0100
0000
0010
0000
,
2000
0000
3010
0200
0000
0310
1000
0001
,
0010
0000
0000
0100
0000
0000
0010
0000
0000
0000
0000
0000
0001
0000
0010
0000
,
0011
0000
0000
1001
0000
0000
0000
0000
,
1100
0000
0000
1001
0000
0000
0000
0000
,
0110
0000
0010
1001
0000
0000
0000
0000
,
0110
0000
0100
1001
0000
0000
0000
0000
,
0011
0000
0000
1001
0000
0000
0000
0000
,
1010
0000
0000
1001
0000
0000
0000
0000
,
0101
0000
1000
1100
0000
0000
0000
0000
,
1010
0000
0001
0011
0000
0001
0110
0000
,
1001
0000
0001
0000
0000
0010
0000
0000
0001
0000
0001
0000
0100
0000
0010
0000
,
1000
0000
0001
0000
0000
1000
0000
0000
0100
0000
0100
0000
0010
0000
0010
0000
,
0100
0000
1000
0000
0000
0001
0000
0000
0010
0000
0010
0000
0001
0000
0001
0000
,
0100
0000
0010
0000
0000
1000
0000
0000
0010
0000
0010
0000
0100
0000
0100
0000
,
0001
1000
0100
1000
0001
1000
0100
1000
,
0010
0001
0010
0100
0010
0001
0010
0100
,
0010
1000
0001
0010
0100
1000
0001
0100
,
0010
1000
0001
1000
0100
0010
0001
1000
0001
0100
0010
1000
0200
0000
0000
0000
,
0310
0000
0001
0000
1000
0001
0000
0100
0000
0100
0000
0000
0010
0000
1000
0000
,
1000
0000
0001
0000
0010
0001
0000
1000
0000
1000
0000
0001
0010
0100
1000
0001
,
0100
0000
0010
0000
0100
0001
0000
1000
0000
1000
0000
0000
0001
0000
0100
0000
,
0010
0000
1000
0000
0001
0010
0000
0100
0000
0100
0000
0000
0020
0000
0032
0000
,
1103
0000
0001
0000
0010
0100
0000
1000
0000
0001
0000
0000
1000
0000
0100
0000
,
0010
0000
0001
0000
0100
0010
0000
1000
0000
0010
0000
0000
1000
0010
0100
0001
,
1000
0000
0100
0000
1000
0001
0000
0010
0000
0100
0000
0000
0010
0000
0001
0000
,
1000
0000
0010
0000
0100
0010
0000
1000
0000
0001
0000
0000
0100
0010
1000
0001
,
0100
0001
0010
0001
0100
1000
0100
0001
,
1000
0100
0001
0100
1000
0010
1000
0100
,
0010
0001
1001
0000
1000
0010
0100
1000
,
0100
0010
1000
0001
0010
0100
0011
0100
,
0020
0000
0031
0100
0010
0100
0001
1000
,
0100
0010
0100
1000
0001
0010
1000
0010
,
0001
0100
1000
0100
0010
1000
0100
0010
,
0001
0100
0010
0200
0000
0301
1000
0000
,
1001
0000
0001
0000
0000
0010
0000
0000
0001
0000
0001
0000
1000
0000
1000
0000
,
0100
0000
0010
0000
0000
0001
0000
0000
1000
0000
1000
0000
0010
0000
0010
0000
,
0100
0000
1000
0000
0000
0100
0000
0000
0001
0000
0001
0000
0010
0000
0010
0000
,
0100
0000
0001
0000
0000
0100
0000
0000
0010
0000
0010
0000
0001
0000
0001
0000
,
1000
0000
0010
0000
0100
0001
0000
1000
0000
0001
0000
0000
0100
0000
0010
0000
,
1000
0000
0001
0000
0010
0100
0000
1000
0000
0100
0000
0000
0010
0001
1000
0001
,
0100
0000
0010
0000
1000
0001
0000
1000
0000
0010
0000
0000
0100
0000
0001
0000
,
2000
0000
0000
0000
0000
0000
0002
0000
0000
0000
3003
0000
0001
0010
0100
1000
,
0001
0000
0100
0000
0010
0100
0000
0001
0000
1000
0000
0000
0001
0000
0100
0000
,
0010
0000
1000
0000
0100
0010
0000
0001
0000
0010
0000
0000
0100
1000
0001
1000
,
0100
0000
0010
0000
0001
1000
0000
0010
0000
0100
0000
0000
1000
0000
0100
0000
,
0010
0000
1000
0000
0001
0100
0000
0010
0000
0100
0000
0000
0001
1000
0100
1000
,
0001
0000
0010
0000
0001
1000
0000
0100
0000
1000
0000
0001
0010
0000
0100
0000
,
0010
0000
0001
0000
1000
0010
0000
0100
0000
0010
0000
1000
0001
0100
0010
1000
,
0001
0010
0100
0010
1000
0010
0001
1000
,
0100
0000
0001
0000
0100
0000
0010
0000
0100
0000
1000
0010
0100
0000
0001
0000
,
0100
0000
0100
0000
0100
0010
0000
1000
0000
0001
0000
0000
1000
0000
0100
0000
,
0010
0000
0100
0000
1000
0100
0000
0010
0000
0001
0000
1000
0010
0100
0001
1000
,
0001
0100
0010
0100
1000
0200
0000
0301
,
1000
0100
0001
0200
0000
0310
0001
1000
,
0001
0000
0100
0000
0010
1000
0000
0001
0000
1000
0000
0100
0010
0000
0100
0000
,
1000
0000
0001
0000
0010
0100
0000
0010
0000
0001
0000
1000
0010
0100
0001
0100
,
0010
0100
0001
1000
0100
1000
0001
0010
,
0100
1000
0010
1000
0100
0010
0001
0100
0001
0010
0100
1000
0001
0100
0010
1000
,
0020
0000
0000
0000
,
0030
0000
0000
0000
;

//---------------dance-double - ----------------
#NOTES:
     dance-double:
     :
     Easy:
     3:
     0.225981,0.270583,0.033303,0.141536,0.000000,190.000000,186.000000,4.000000,17.000000,0.000000,0.000000,0.225981,0.270583,0.033303,0.141536,0.000000,190.000000,186.000000,4.000000,17.000000,0.000000,0.000000:
00000000
00000000
00000000
00000000
,
00000000
00000000
00000000
00000000
,
00000000
00000000
00000000
00000000
,
00000000
00000000
00000000
00000000
,
00010000
00000000
00001000
00000000
,
00010000
00100000
01000000
00000000
,
00010000
00000000
10000000
00000000
,
01000000
00010000
00001000
00000000
,
00010000
00000000
00001000
00000000
,
00000010
00000100
00001000
00000000
,
00000001
00000100
00000001
00000000
,
00001000
00000100
00001000
00000000
,
00000100
00000100
00010000
00000000
,
00001000
00001000
01000000
00000000
,
00100000
10000000
00010000
00000000
,
00100000
01000000
10000000
00000000
,
00010000
10000000
00010000
10000000
,
00100000
10000000
00100000
10000000
,
00010000
10000000
00010000
10000000
,
00010000
00100000
00010000
00100000
,
00001000
00010000
00000100
00001000
,
00000001
00000100
00000010
00001000
,
00000001
00000001
00000020
00000030
,
00000200
00000300
00001000
00000001
,
00001001
00000001
00000200
00000300
,
00001000
00010000
01000000
10000000
,
00010000
10000000
02000000
03000000
,
00010000
00001000
00000100
00000001
,
00001000
00000001
00000020
00000030
,
00000001
00000010
00001000
00010000
,
00001000
00010000
00200000
00300000
,
10000000
00010000
10000000
01000000
,
00100000
00000000
00100000
00010000
,
01000000
00000000
01000000
00001000
,
00010000
00000000
00010000
00000100
,
00001000
00000000
00001000
00000010
,
00001001
00000000
00000001
00000100
,
00000001
00000000
00000100
00001000
,
00010000
01000000
10000000
00010000
,
10000000
10000000
00100000
01000000
,
00200000
00300000
00000000
00000000
,
02000000
03000000
00000000
00000000
,
00020000
00030000
00000000
00000000
,
00002000
00003000
00000000
00000000
,
00000200
00000300
00000020
00000030
,
00000002
00000003
00002000
00003000
,
00000010
00000100
00000001
00001000
,
00022000
00000000
00000000
00033000
,
00011000
00001000
00010000
00001000
,
00010000
00100000
00010000
00100000
,
01000000
00010000
10000000
00000000
,
01000000
10000000
00010000
00000000
,
00100000
00001000
00100000
00001000
,
00010000
00000010
00010000
00000010
,
00001000
00000000
00000010
00000100
,
00000001
00000000
00000010
00000100
,
00001000
00000000
00000001
00001000
,
00000100
00000000
00010000
00001000
,
01000000
00000000
00100000
01000000
,
00010000
10000000
00010000
00100000
,
01000000
01000000
00010000
00010000
,
00001000
00001000
00000100
00000100
,
00000010
00000000
00001000
00000001
,
00000010
00000000
00000100
00010000
,
00002000
00000000
00000000
00000000
,
00003000
00000000
00000000
00000000
;

//---------------dance-double - ----------------
#NOTES:
     dance-double:
     :
     Medium:
     4:
     0.243822,0.297641,0.033303,0.024977,0.000000,205.000000,201.000000,4.000000,3.000000,0.000000,0.000000,0.243822,0.297641,0.033303,0.024977,0.000000,205.000000,201.000000,4.000000,3.000000,0.000000,0.000000:
00000000
00000000
00000000
00000000
,
00000000
00000000
00000000
00000000
,
00000000
00000000
00000000
00000000
,
00000000
00000000
00000000
00000000
,
00010000
00000000
00000000
00001000
00000000
00000000
00000000
00000000
,
00000010
00000000
00000000
00000100
00000000
00000000
00000000
00000000
,
00000010
00000000
00000000
00000001
00000000
00000000
00000000
00000000
,
00001000
00000010
00000100
00000000
,
00000001
00000000
00000000
00000100
00000000
00000000
00000000
00000000
,
00001000
00000000
00000000
00010000
00000000
00000000
00000000
00000000
,
01000000
00000000
00000000
10000000
00000000
00000000
00000000
00000000
,
00010000
00100000
01000000
10000000
,
00010000
00000000
00000000
01000000
00000000
00000000
00000000
00000000
,
00001000
00000000
00000000
00010000
00000000
00000000
00000000
00000000
,
00001000
00000000
00000000
00000100
00000000
00000000
00000000
00000000
,
00000001
00000010
00000100
00001000
,
00000001
00000001
00000010
00000010
,
00000001
00000100
00000001
00000000
,
00001000
00001000
00000010
00000010
,
00001000
00000100
00001000
00000000
,
00010000
00010000
00100000
00100000
,
00010000
01000000
00010000
00000000
,
10000000
10000000
00100000
10000000
,
01000000
00000000
00100000
00000000
,
10010000
00010000
10000000
00010000
,
01000000
01000000
00001000
00001000
,
00010000
00000100
00001000
00001000
,
00000001
00001000
00000100
00000100
,
00000010
00000001
00000100
00000100
,
00000010
00001000
00000100
00000100
,
00010000
00001000
00100000
00100000
,
00010000
01000000
00100000
00100000
,
10000000
00000000
00010000
00000000
,
01000000
00000000
00000000
00000000
00001000
00000000
00010000
00010000
,
00010000
00000000
00001000
00000000
,
00000100
00000000
00000000
00000000
00000001
00000000
00000010
00000010
,
00000010
00000000
00000100
00000000
,
00010000
00000000
00001000
00000000
,
01000000
01000000
01000000
00000000
00100000
00000000
10000000
00000000
,
00010000
00010000
00010000
00000000
00100000
00000000
01000000
00000000
,
10000000
00000000
00000000
00010000
00000000
00000000
00000000
00000000
,
00001000
00000000
00000000
00000001
00000000
00000000
00000000
00000000
,
01000000
00000000
00000000
00100000
00000000
00000000
00000000
00000000
,
00000100
00000000
00000000
00000010
00000000
00000000
00000000
00000000
,
00001000
00010000
00100000
01000000
,
00010000
00001000
00000100
00000010
,
00001000
00010000
00001000
00010000
,
00022000
00000000
00000000
00033000
,
00011000
00001000
00010000
00001000
,
00010000
00100000
01000000
00010000
,
10000000
01000000
00100000
00010000
,
00001000
00000100
00000010
00000001
,
00001000
00000001
00000100
00000010
,
00010000
00000100
00010000
00000010
,
00000100
00000001
00000100
00000010
,
00001000
00010000
01000000
00100000
,
01000000
01000000
01000000
00000000
10010000
00000000
00010000
00000000
,
00100000
01000000
10000000
00010000
,
10000000
01000000
00100000
00010000
,
00001000
00000100
00000010
00000001
,
00001000
00000010
00000100
00000010
,
00001000
00000001
00000100
00000010
,
00000001
00000010
00000100
00000001
,
00000010
00000100
00001000
00010000
,
00200000
00000000
00000000
00000000
,
00300000
00000000
00000000
00000000
;

//---------------dance-double - ----------------
#NOTES:
     dance-double:
     :
     Hard:
     7:
     0.463857,0.487049,0.116559,0.066605,0.020814,390.000000,376.000000,14.000000,8.000000,0.000000,0.000000,0.463857,0.487049,0.116559,0.066605,0.020814,390.000000,376.000000,14.000000,8.000000,0.000000,0.000000:
// measure 0
00000000
00000000
00000000
00000000
,  // measure 1
00000000
00000000
00000000
00000000
,  // measure 2
00000000
00000000
00000000
00000000
,  // measure 3
00000000
00000000
00000000
00000000
,  // measure 4
00020000
00000000
00000000
00130000
00000000
00000000
00000000
00000000
,  // measure 5
20000000
00000000
00000000
31000000
00000000
00000000
00000000
00000000
,  // measure 6
00020000
00000000
00000000
00031000
00000000
00000000
00000000
00000000
,  // measure 7
00000010
00000000
00000000
00000001
00000000
00000000
00000100
00000000
00000000
00000000
00000000
00000000
00000000
00000000
00000000
00000000
,  // measure 8
00001001
00000000
00000000
00000101
00000000
00000001
00000100
00000000
,  // measure 9
00011000
00000000
00000000
01010000
00000000
00010000
01000000
00000000
,  // measure 10
00100000
00000000
10000000
01000000
10000000
00010000
10000000
00000000
,  // measure 11
00010000
00100000
01000000
10000000
00000000
01000000
00100000
00000000
,  // measure 12
00110000
00000000
00000000
00101000
00000000
00100000
00001000
00000000
,  // measure 13
00011000
00000000
00000000
00010010
00000000
00010000
00000010
00000000
,  // measure 14
00001010
00000000
00000010
00001000
00000001
00001000
00000100
00000000
,  // measure 15
00000010
00000001
00001000
00000001
00000000
00000100
00000001
00000000
,  // measure 16
00000010
00000100
00001000
00000100
00000010
00000001
00001000
00001000
,  // measure 17
00000010
00010000
00001000
00010000
00000100
00010000
00001000
00001000
,  // measure 18
00010000
00100000
01000000
00010000
00100000
01000000
10000000
10000000
,  // measure 19
01000000
00010000
01000000
00100000
01000000
10000000
00010000
00010000
,  // measure 20
10000000
00100000
00010000
00100000
10000000
01000000
00100000
00100000
,  // measure 21
00010000
01000000
00001000
00010000
00000100
00000010
00000001
00000001
,  // measure 22
00000100
00000010
00001000
00000001
00000010
00000100
00001000
00000001
,  // measure 23
00002000
00000000
00000200
00003300
,  // measure 24
00001100
00000000
00010100
00000000
00000100
00010000
00001000
00000000
,  // measure 25
00011000
00000000
00000000
00000000
01001000
00000000
00000000
00000000
00001000
00000000
01000000
00000000
00010000
01000000
00010000
00000000
,  // measure 26
01000000
00100000
10000000
00000000
00010000
00100000
01000000
00000000
,  // measure 27
00100000
00010000
10000000
01000000
00100000
00010000
01000000
01000000
,  // measure 28
00100000
01000000
00010000
00100000
00001000
00010000
00000100
00000000
,  // measure 29
00010000
00000000
00000100
00000000
00000010
00000000
00000100
00000000
00001000
00000000
00000001
00000000
00000100
00000001
00000100
00000000
,  // measure 30
00000001
00000100
00000010
00001000
00000001
00000010
00000011
00000000
,  // measure 31
00000001
00000000
00000010
00000000
00000100
00000000
00000000
00000000
00000010
00000000
00000100
00000000
00001000
00000001
00001000
00000000
,  // measure 32
00000001
00000000
00000010
00000001
00000100
00000001
00000010
00000001
,  // measure 33
00000100
00000001
00000010
00001000
00010000
00100000
10000000
01000000
,  // measure 34
00100000
00000000
01000000
00000000
10000000
00100000
10000000
01000000
,  // measure 35
10000000
00100000
10000000
01000000
10000000
00100000
00010000
00001000
,  // measure 36
00000010
00000001
00000100
00000000
00000010
00001000
00000100
00000000
,  // measure 37
00000010
00000001
00000100
00000000
00001000
00010000
01000000
00000000
,  // measure 38
00100000
00010000
01000000
10000000
01000000
00010000
00100000
00000000
,  // measure 39
00001000
00010000
00001000
00000000
00010000
00001000
00000100
00000000
,  // measure 40
00000010
00000000
00001000
00000001
00000000
00001000
00000100
00010000
,  // measure 41
00001000
00000000
00100000
00010000
00000000
10000000
00010000
01000000
,  // measure 42
00001000
00000000
00010000
00000010
00000000
00001000
00000001
00001000
,  // measure 43
00000100
00000000
00010000
00001000
00000000
00100000
00010000
10000000
,  // measure 44
01000000
00010000
00001000
00000100
00000001
00000100
00001000
00000100
,  // measure 45
00000001
00000010
00001000
00000010
00000001
00000010
00001000
00010000
,  // measure 46
00100000
10000000
00100000
00010000
00100000
10000000
01000000
00010000
,  // measure 47
00002000
00000000
00000000
00000000
00000000
00000000
00023000
00000000
00000000
00000000
00000000
00000000
00031000
00010000
00001000
00000000
,  // measure 48
00010000
00000000
00100000
01000000
00010000
10000000
00010000
01000000
,  // measure 49
00100000
00000000
00010000
00001000
00000010
00000100
00001000
00000001
,  // measure 50
00001000
00000000
00000100
00000001
00000100
00001000
00000100
00000000
,  // measure 51
00000010
00000001
00000100
00001000
00000000
00010000
01000000
10000000
,  // measure 52
00100000
00000000
10000000
00100000
00000000
10000000
00100000
00010000
,  // measure 53
00001000
00000000
00010000
00001000
00000000
00010000
00001000
00000010
,  // measure 54
00000001
00000000
00000100
00000010
00000100
00001000
00000100
00000001
,  // measure 55
00000010
00000100
00001000
00000100
00000000
00010000
00001000
00000000
,  // measure 56
00010000
00100000
10000000
00010000
00000000
10000000
01000000
00010000
,  // measure 57
01000000
00000000
00100000
00001000
00000000
00010000
00000010
00000100
,  // measure 58
00001000
00000000
00000100
00000001
00000000
00000010
00001000
00010000
,  // measure 59
00100000
00000000
00010000
00001000
00000000
00000100
00001000
00010000
,  // measure 60
01000000
00000000
00010000
00001000
00000000
00000010
00000100
00001000
,  // measure 61
00000001
00000000
00000100
00001000
00000000
00010000
01000000
10000000
,  // measure 62
00100000
00000000
00010000
00100000
10000000
01000000
00010000
00001000
,  // measure 63
00000100
00000010
00001000
00010000
01000000
00100000
00010000
00001000
,  // measure 64
00000200
00000000
00000000
00000000
,  // measure 65
00000300
00000000
00000000
00000000
;

//---------------dance-double - ----------------
#NOTES:
     dance-double:
     :
     Challenge:
     9:
     0.542355,0.622341,0.108233,0.033303,0.366328,456.000000,443.000000,13.000000,4.000000,0.000000,0.000000,0.542355,0.622341,0.108233,0.033303,0.366328,456.000000,443.000000,13.000000,4.000000,0.000000,0.000000:
// measure 0
00000000
00000000
00000000
00000000
,  // measure 1
00000000
00000000
00000000
00000000
,  // measure 2
00000000
00000000
00000000
00000000
,  // measure 3
00000000
00000000
00000000
00000000
,  // measure 4
10000000
00000000
00000000
11000000
00000000
00000000
00000000
00000000
,  // measure 5
00010000
00000000
00000000
01010000
00000000
00000000
00000000
00000000
,  // measure 6
00001000
00000000
00000000
00001100
00000000
00000000
00000000
00000000
,  // measure 7
00000001
00000000
00000000
00001000
00000000
00000000
00000010
00000000
00000000
00000000
00000100
00000000
00000010
00000000
00001000
00000000
,  // measure 8
00000001
00000000
00000010
00000001
00000000
00000010
00000100
00000010
,  // measure 9
00001000
00000000
00010000
00100000
00000000
00010000
00100000
01000000
,  // measure 10
00010000
00000000
00100000
01000000
10000000
01000000
00010000
00001000
,  // measure 11
00000100
00000010
00000100
00000001
00000000
00000010
00000100
00000000
,  // measure 12
00000010
00001000
00010000
00100000
00000000
00010000
00001000
00000000
,  // measure 13
00010000
00001000
00000100
00000010
00000000
00000100
00000010
00001000
,  // measure 14
00000001
00000000
00000010
00001000
00010000
01000000
00000000
00100000
,  // measure 15
01000000
10000000
00010000
10000000
00000000
01000000
00100000
00000000
,  // measure 16
00010000
00000000
00100000
00000000
10000000
00100000
00000000
00000000
00010000
00000000
01000000
00000000
00001000
00000000
00010000
00000000
,  // measure 17
00000100
00000000
00000010
00000000
00001000
00000010
00000000
00000000
00000001
00000000
00000100
00000000
00000010
00000000
00001000
00000000
,  // measure 18
00000010
00000000
00000100
00000000
00000010
00000001
00000000
00000000
00000010
00000000
00000100
00000000
00001000
00000000
00010000
00000000
,  // measure 19
00100000
00000000
01000000
00000000
00100000
00010000
00000000
00000000
00100000
00000000
01000000
00000000
00010000
00000000
10000000
00000000
,  // measure 20
01000000
00010000
00001000
00000100
00000010
00001000
00000010
00000100
,  // measure 21
00001000
00010000
01000000
00100000
00010000
00100000
01000000
00010000
,  // measure 22
00001000
00000100
00000001
00000010
00001000
00010000
00100000
10000000
,  // measure 23
00010000
10000000
01000000
10000000
00010000
10000000
01000000
10000000
00010000
00100000
00010000
01000000
00100000
00000000
00000000
00000000
,  // measure 24
10000000
00000000
00100000
00000000
01000000
00100000
00000000
10000000
00000000
01000000
00000000
00000000
00010000
00000000
00001000
00000000
,  // measure 25
00000100
00000000
00000001
00000000
00000010
00000100
00000000
00000010
00000000
00000001
00000000
00000000
00001000
00000100
00000010
00000001
,  // measure 26
00001000
00000000
00000010
00000000
00001000
00000100
00000000
00001000
00000000
00000010
00000000
00000000
00010000
00000000
00001000
00000000
,  // measure 27
00100000
00000000
00010000
00000000
01000000
00010000
00000000
10000000
00000000
00010000
00000000
00000000
01000000
00000000
01000000
00000000
,  // measure 28
00100000
00000000
10000000
00000000
00010000
10000000
00000000
01000000
00000000
00010000
00000000
00000000
00001000
00000000
00010000
00000000
,  // measure 29
00001000
00000000
00000100
00000000
00000001
00001000
00000000
00000001
00000000
00000010
00000000
00000000
00000100
00000010
00000001
00000010
,  // measure 30
00000100
00000000
00000010
00000000
00000001
00001000
00000000
00000010
00000000
00000100
00000000
00000000
00001000
00000000
00010000
00000000
,  // measure 31
00100000
00000000
01000000
00000000
00010000
00100000
00000000
01000000
00000000
10000000
00000000
00000000
00010000
00100000
01000000
10000000
,  // measure 32
00010000
10000000
00100000
00010000
00001000
00000010
00000001
00000100
,  // measure 33
00000010
00000100
00000001
00000010
00001000
00010000
00100000
10000000
,  // measure 34
10100000
00000000
10000000
01000000
00010000
00001000
00000100
00000001
,  // measure 35
00000010
00000001
00000100
00001000
00010000
01000000
10000000
00100000
,  // measure 36
10100000
00000000
10000000
00100000
00010000
00000000
00010000
00001000
,  // measure 37
00000010
00000000
00000010
00000001
00000100
00000000
00000100
00001000
,  // measure 38
00010000
00001000
00000100
00000001
00000010
00001000
00010000
00100000
,  // measure 39
00010000
00001000
00000010
00001000
00010000
01000000
10000000
00100000
,  // measure 40
10100000
00000000
00000000
10010000
00000000
00000000
10000000
00010000
,  // measure 41
00110000
00000000
00000000
00010100
00000000
00000000
00010000
00000100
,  // measure 42
00000110
00000000
00000000
00000011
00000000
00000000
00000010
00000001
,  // measure 43
00001001
00000000
00000000
00001100
00000000
00000000
00000100
00010000
,  // measure 44
00001000
00010000
00000100
00010000
00001000
00010000
00000100
00010000
,  // measure 45
00001000
01000000
00001000
00010000
00001000
01000000
00001000
00010000
,  // measure 46
00100000
10000000
00010000
10000000
01000000
00100000
00010000
01000000
,  // measure 47
00200000
00000000
00000000
00000000
00000000
00000000
00320000
00000000
00000000
00000000
00000000
00000000
00031000
00010000
00001000
00010000
,  // measure 48
00001000
00000000
00010000
00000000
00001000
00010000
00000000
00100000
00000000
01000000
00000000
00000000
00010000
00000000
10000000
00000000
,  // measure 49
01000000
00000000
00100000
00000000
00010000
01000000
00000000
00001000
00000000
00010000
00000000
00000000
00000100
00001000
00000100
00001000
,  // measure 50
00000100
00000000
00000010
00000000
00000001
00001000
00000000
00000010
00000000
00000100
00000000
00000000
00000001
00000000
00000010
00000000
,  // measure 51
00001000
00000000
00000010
00000000
00000001
00000100
00000000
00000010
00000000
00000100
00000000
00000000
00001000
00000100
00001000
00000100
,  // measure 52
00001000
00000000
00000100
00000000
00000010
00001000
00000000
00000001
00000000
00000010
00000000
00000000
00001000
00000000
00010000
00000000
,  // measure 53
00100000
00000000
01000000
00000000
00010000
00100000
00000000
01000000
00000000
00010000
00000000
00000000
01000000
00010000
01000000
00010000
,  // measure 54
01000000
10000000
00010000
01000000
00100000
10000000
00010000
10000000
,  // measure 55
01000000
00010000
00001000
00000100
00000000
00001000
00010000
00000000
,  // measure 56
01000000
01000000
00100000
00010000
00000000
10000000
00010000
00000000
,  // measure 57
01000000
00000000
00100000
00000000
00010000
00001000
00000000
00010000
00000000
00000100
00000000
00000000
00000010
00000000
00000100
00000000
,  // measure 58
00001000
00000000
00000001
00000000
00000100
00000010
00000000
00000100
00000000
00000001
00000000
00000000
00000010
00000000
00001000
00000000
,  // measure 59
00010000
00000000
00100000
00000000
10000000
00010000
00000000
10000000
00000000
01000000
00000000
00000000
00010000
00000000
00001000
00000000
,  // measure 60
00010000
00000000
00001000
00000000
00010000
00001000
00000000
00000100
00000000
00000010
00000000
00000000
00001000
00000000
00000001
00000000
,  // measure 61
00000010
00000000
00001000
00000000
00010000
00001000
00000000
00010000
00000000
00100000
00000000
00000000
01000000
00000000
00010000
00000000
,  // measure 62
10000000
01000000
10000000
00010000
01000000
00001000
00010000
00000100
,  // measure 63
00001000
00000001
00001000
00000100
00001000
00000001
00000010
00000100
00001000
00000001
00000100
00000010
00000100
00000000
00000002
00000000
,  // measure 64
00002000
00000000
00000000
00000000
,  // measure 65
00003003
00000000
00000000
00000000
;
