#TITLE:Conga Feeling;
#SUBTITLE:Radio Edit;
#ARTIST:Vivian;
#TITLETRANSLIT:;
#SUBTITLETRANSLIT:;
#ARTISTTRANSLIT:;
#GENRE:;
#CREDIT:;
#BANNER:Conga Feeling (Radio Edit)-Banner.png;
#BACKGROUND:Conga Feeling (Radio Edit)-Background.png;
#LYRICSPATH:;
#CDTITLE:;
#MUSIC:Conga Feeling (Radio Edit) - Vivian.ogg;
#OFFSET:0.000000;
#SAMPLESTART:29.530001;
#SAMPLELENGTH:23.089001;
#SELECTABLE:YES;
#DISPLAYBPM:130.000000;
#BPMS:0.000000=130.000000
,63.000000=126.839989
,65.000000=130.000000
;
#STOPS:
;
#BGCHANGES:;
#KEYSOUNDS:;
#ATTACKS:;

//---------------dance-single - K. Pearman----------------
#NOTES:
     dance-single:
     :
     Beginner:
     1:
     0.119096,0.157616,0.043420,0.086841,0.000000,96.000000,91.000000,5.000000,10.000000,0.000000,0.000000,0.119096,0.157616,0.043420,0.086841,0.000000,96.000000,91.000000,5.000000,10.000000,0.000000,0.000000:
// measure 0
0000
0000
0000
0000
,  // measure 1
0000
0000
0000
0000
,  // measure 2
0000
0000
0000
0000
,  // measure 3
0000
0000
0000
0000
,  // measure 4
1000
0000
0000
0000
,  // measure 5
0001
0000
0000
0000
,  // measure 6
0100
0000
0000
0000
,  // measure 7
0010
0000
0010
0000
,  // measure 8
1000
0000
0000
0000
,  // measure 9
0001
0000
0000
0000
,  // measure 10
0010
0000
0000
0000
,  // measure 11
0100
0000
0000
0000
,  // measure 12
2000
0000
3000
0000
,  // measure 13
0002
0000
0003
0000
,  // measure 14
0200
0000
0000
0000
,  // measure 15
0000
0000
0300
0000
,  // measure 16
1001
0000
0000
0000
,  // measure 17
0001
0000
0100
0000
,  // measure 18
1000
0000
0000
0000
,  // measure 19
1000
0000
0010
0000
,  // measure 20
0001
0000
0000
0000
,  // measure 21
0010
0000
1000
0000
,  // measure 22
0100
0000
0000
0000
,  // measure 23
0010
0000
0001
0000
,  // measure 24
0100
0100
0000
0000
,  // measure 25
0001
0001
0000
0000
,  // measure 26
1000
1000
0000
0000
,  // measure 27
0100
0100
0000
0000
,  // measure 28
0010
0010
0000
0000
,  // measure 29
0001
0000
1000
0000
,  // measure 30
0010
0010
0000
0000
,  // measure 31
0001
0000
1000
0000
,  // measure 32
1001
0000
0100
0000
,  // measure 33
0010
0000
0100
0000
,  // measure 34
1000
1000
0000
0000
,  // measure 35
0001
0001
0000
0000
,  // measure 36
0100
0000
0010
0000
,  // measure 37
1000
0000
0001
0000
,  // measure 38
0010
0010
0000
0000
,  // measure 39
0100
0100
0000
0000
,  // measure 40
1000
0000
0001
0000
,  // measure 41
0100
0000
0010
0000
,  // measure 42
1001
0000
0010
0000
,  // measure 43
0200
0000
0300
0000
,  // measure 44
0110
0000
0000
0000
,  // measure 45
0001
0000
1000
0000
,  // measure 46
0200
0000
0300
0000
,  // measure 47
1000
0000
0001
0000
,  // measure 48
0200
0000
0300
0000
,  // measure 49
0200
0000
0300
0000
,  // measure 50
0200
0000
0300
0000
,  // measure 51
0001
0000
0010
0000
,  // measure 52
0100
0000
1000
1000
,  // measure 53
0000
0000
0001
0001
,  // measure 54
0000
0000
0100
0000
,  // measure 55
0100
0000
0010
0010
,  // measure 56
0000
0000
1000
0000
,  // measure 57
0001
0000
0010
0010
,  // measure 58
0000
0000
0100
0100
,  // measure 59
0000
0000
1000
0000
,  // measure 60
2002
0000
3003
0000
;

//---------------dance-single - K. Pearman----------------
#NOTES:
     dance-single:
     :
     Easy:
     3:
     0.191050,0.262694,0.138946,0.060789,0.000000,154.000000,138.000000,16.000000,7.000000,0.000000,0.000000,0.191050,0.262694,0.138946,0.060789,0.000000,154.000000,138.000000,16.000000,7.000000,0.000000,0.000000:
// measure 0
0000
0000
0000
0000
,  // measure 1
0000
0000
0000
0000
,  // measure 2
0000
0000
0000
0000
,  // measure 3
0000
0000
0000
0000
,  // measure 4
0001
0000
0100
0000
,  // measure 5
0010
0000
1000
0000
,  // measure 6
0001
0000
0010
0000
,  // measure 7
0100
0100
1000
1000
,  // measure 8
1001
0000
0000
0010
,  // measure 9
0100
0000
0000
0001
,  // measure 10
1000
0000
0000
0000
,  // measure 11
0100
0000
0010
0000
,  // measure 12
0002
0100
0000
0003
,  // measure 13
2000
0100
0000
3000
,  // measure 14
0002
0010
0000
0000
,  // measure 15
0000
0000
0000
0003
,  // measure 16
1001
0000
0010
0000
,  // measure 17
1000
0000
0001
0100
,  // measure 18
1000
0000
0100
0000
,  // measure 19
0001
0000
1000
0001
,  // measure 20
1001
0000
0001
0000
,  // measure 21
1000
0000
0010
0000
,  // measure 22
0001
0000
0010
0000
,  // measure 23
1000
0000
0001
1000
,  // measure 24
1001
0000
0001
0000
,  // measure 25
0010
0100
0001
0100
,  // measure 26
1000
0000
0001
0000
,  // measure 27
0100
0000
0010
0000
,  // measure 28
1001
0000
0000
0010
,  // measure 29
1000
0000
0000
0010
,  // measure 30
0001
0000
0000
0100
,  // measure 31
1000
0000
0000
0100
,  // measure 32
1001
0000
0010
0000
,  // measure 33
0100
0000
0001
0000
,  // measure 34
1000
1000
0100
0100
,  // measure 35
0010
0001
0100
0000
,  // measure 36
1001
0000
0010
0100
,  // measure 37
0110
0000
0100
0001
,  // measure 38
1001
0000
1000
0100
,  // measure 39
0110
0000
0010
0001
,  // measure 40
1001
0000
1000
0010
,  // measure 41
0110
0000
0100
0001
,  // measure 42
1001
0000
0001
2000
,  // measure 43
0002
0000
3003
0000
,  // measure 44
0010
0001
1000
0000
,  // measure 45
0001
1000
0100
0000
,  // measure 46
1000
0100
0010
0000
,  // measure 47
0100
0010
0001
0000
,  // measure 48
0010
0001
0100
0000
,  // measure 49
0001
0100
0010
0000
,  // measure 50
0100
0010
1000
0000
,  // measure 51
0010
1000
0001
0000
,  // measure 52
1001
0000
0100
1000
,  // measure 53
0100
0000
0010
0000
,  // measure 54
0001
0000
0100
0001
,  // measure 55
0100
0000
0010
0000
,  // measure 56
1001
0000
0001
0010
,  // measure 57
0100
0000
1000
0000
,  // measure 58
0001
0000
1000
0010
,  // measure 59
0100
0000
0010
0000
,  // measure 60
2002
0000
3003
0000
;

//---------------dance-single - K. Pearman----------------
#NOTES:
     dance-single:
     :
     Medium:
     5:
     0.287816,0.341502,0.164998,0.060789,0.000000,232.000000,213.000000,19.000000,7.000000,0.000000,0.000000,0.287816,0.341502,0.164998,0.060789,0.000000,232.000000,213.000000,19.000000,7.000000,0.000000,0.000000:
// measure 0
0000
0000
0000
0000
,  // measure 1
0000
0000
0000
0000
,  // measure 2
0000
0000
0000
0000
,  // measure 3
0000
0000
0000
0000
,  // measure 4
1000
0001
1000
0001
,  // measure 5
0100
0010
0100
0010
,  // measure 6
1000
0001
1000
0001
,  // measure 7
0020
0000
0230
0000
,  // measure 8
1300
0001
1000
0001
,  // measure 9
0100
0010
0100
0010
,  // measure 10
1000
0100
1000
0100
,  // measure 11
0010
0000
0001
0000
,  // measure 12
0100
0001
0101
0000
,  // measure 13
0100
1000
1100
0000
,  // measure 14
0010
0100
1001
0000
,  // measure 15
0010
0000
0010
0100
,  // measure 16
1001
0000
0001
0010
,  // measure 17
0001
0001
1000
0100
,  // measure 18
0001
0100
1000
0010
,  // measure 19
1000
1000
0001
0100
,  // measure 20
1000
0100
0001
0010
,  // measure 21
0001
1000
0100
0010
,  // measure 22
0001
1000
0010
1000
,  // measure 23
0010
1000
0001
0100
,  // measure 24
1000
0100
0001
1000
,  // measure 25
0100
0000
0010
0001
,  // measure 26
1000
0001
0100
1000
,  // measure 27
0100
0000
0010
1000
,  // measure 28
0001
0001
1000
1000
,  // measure 29
0010
0000
0100
0000
0001
1000
0000
0000
,  // measure 30
1000
1000
0001
0001
,  // measure 31
0010
0000
0100
0000
1000
0001
0000
0000
,  // measure 32
1100
0000
0101
0000
,  // measure 33
0010
0100
0001
1000
,  // measure 34
0001
0001
0010
0010
,  // measure 35
0001
1000
0100
0000
,  // measure 36
1001
0010
1000
1000
,  // measure 37
0001
0000
0100
0000
0010
0010
0010
0000
,  // measure 38
0100
0001
1000
0100
,  // measure 39
0010
0000
0001
0000
0100
0100
0100
0000
,  // measure 40
0010
1000
0001
1000
,  // measure 41
0100
1000
0001
0010
,  // measure 42
0001
0100
0010
0100
,  // measure 43
2002
0000
0000
3003
,  // measure 44
1001
0010
1000
0001
,  // measure 45
0100
0000
0100
0000
0001
0100
0001
0000
,  // measure 46
0010
0010
0001
1000
,  // measure 47
0100
0000
0010
0000
0100
1000
0100
0000
,  // measure 48
1000
1000
0010
0010
,  // measure 49
0100
0000
0001
0000
0010
0001
0010
0000
,  // measure 50
0001
0001
0010
0100
,  // measure 51
1000
0000
0001
0000
1000
0010
1000
0000
,  // measure 52
0002
0000
0000
0000
0103
0001
1000
0000
,  // measure 53
1001
0000
0000
0000
0100
1000
0001
0000
,  // measure 54
1001
0000
0000
0000
0010
0001
1000
0000
,  // measure 55
1001
0000
0000
0000
0010
1000
0001
0000
,  // measure 56
0101
0000
0000
0000
0001
0100
0010
0000
,  // measure 57
1010
0000
0000
0000
1000
0100
0010
0000
,  // measure 58
0011
0000
0000
0000
0001
0010
0100
0000
,  // measure 59
0110
0000
1100
0101
,  // measure 60
0220
0000
0330
0000
;

//---------------dance-single - K. Pearman----------------
#NOTES:
     dance-single:
     :
     Hard:
     7:
     0.421799,0.472849,0.112893,0.095525,0.078157,340.000000,327.000000,13.000000,11.000000,0.000000,0.000000,0.421799,0.472849,0.112893,0.095525,0.078157,340.000000,327.000000,13.000000,11.000000,0.000000,0.000000:
// measure 0
0000
0000
0000
0000
,  // measure 1
0000
0000
0000
0000
,  // measure 2
0000
0000
0000
0000
,  // measure 3
0000
0000
0000
0000
,  // measure 4
1000
0100
0010
0000
0001
0000
1000
0000
,  // measure 5
0001
0100
0010
0000
1000
0000
0001
0000
,  // measure 6
1000
0100
0010
0000
0001
0000
1000
0000
,  // measure 7
0001
0100
0001
0000
1000
0100
1000
0000
,  // measure 8
0001
0010
0001
0010
0001
0010
0100
0000
,  // measure 9
1000
0010
1000
0010
1000
0010
0100
0000
,  // measure 10
0001
0100
0001
0100
0001
0100
0010
0000
,  // measure 11
1000
0000
0001
0000
0100
0000
0010
0100
,  // measure 12
0002
0000
1000
0000
0103
0000
0010
0100
,  // measure 13
2000
0000
0001
0000
3100
0000
0010
0100
,  // measure 14
0002
1000
0100
1003
,  // measure 15
0010
0000
0100
0000
0001
0000
1000
0001
,  // measure 16
1001
0000
0100
0000
0001
1000
0001
0000
,  // measure 17
0010
0000
0000
0000
0010
0000
0100
1000
,  // measure 18
0001
0000
0100
0000
0010
0000
1000
0010
,  // measure 19
0100
0000
0010
0000
1000
1000
0001
0001
,  // measure 20
1001
0000
0001
0000
0100
0010
1000
0000
,  // measure 21
0001
0000
1000
0000
0001
0100
0001
1000
,  // measure 22
0001
0000
0010
0000
0100
1000
0100
0000
,  // measure 23
0020
0000
0030
0000
0001
0001
1000
1000
,  // measure 24
1001
0000
0001
0000
0100
0010
0100
0000
,  // measure 25
1000
0000
0100
0000
0001
0001
0010
0010
,  // measure 26
0100
0000
1000
0000
0001
0000
0100
0010
,  // measure 27
0100
0000
0001
0000
1000
1000
0010
0010
,  // measure 28
0100
0000
0000
0010
0000
1000
0000
0000
0001
0000
0000
0000
1000
0000
0000
0000
,  // measure 29
0100
0010
0001
0000
0010
0100
1000
0000
,  // measure 30
0001
0000
0000
0100
0000
0010
0000
0000
0100
0000
0001
0000
1000
0000
0000
0000
,  // measure 31
0010
1000
0001
0000
0010
0100
1000
0000
,  // measure 32
2100
0000
0000
0000
3000
0000
0000
0000
0010
0002
0000
0000
0000
0000
0003
0000
,  // measure 33
0010
0000
1000
0000
0000
1000
0001
0010
0000
0010
0002
0000
0000
1000
0003
0000
,  // measure 34
0100
0010
0000
0000
0010
0000
0000
0000
1000
0000
0001
0000
0100
0000
0001
0000
,  // measure 35
1000
0001
0010
0100
1000
0001
1000
0000
,  // measure 36
1010
0010
0100
0010
1000
0010
0100
0000
,  // measure 37
0001
0100
0010
0100
0001
0100
0010
0000
,  // measure 38
1100
1000
0100
0010
0100
1000
0100
0000
,  // measure 39
0010
0001
0010
0100
0010
0001
0010
0000
,  // measure 40
0011
0001
1000
0001
0100
0001
1000
0000
,  // measure 41
1010
0001
1000
0010
1000
0001
1000
0000
,  // measure 42
0110
0001
1000
0000
0110
1000
0001
0000
,  // measure 43
2002
0000
0000
3003
,  // measure 44
1000
0001
0000
0000
0100
0000
0000
0000
0010
0000
1000
0000
0100
0000
0000
0000
,  // measure 45
0010
0001
0100
0000
0010
1000
0001
0000
,  // measure 46
0100
0001
0000
0000
0010
0000
0001
0000
1000
0000
0001
0000
0010
0000
0000
0000
,  // measure 47
0100
1000
0010
0000
0100
0001
0010
0000
,  // measure 48
0100
1000
0000
0000
0010
0000
0000
0000
0100
0000
0001
0000
1000
0000
0000
0000
,  // measure 49
0001
1000
0100
0000
1000
0100
0010
0000
,  // measure 50
0001
0010
0000
0000
0100
0000
0010
0000
0001
0000
0000
0000
1000
0000
0000
0000
,  // measure 51
0010
0100
0010
0000
1000
0001
0100
0010
,  // measure 52
1001
0000
0001
0000
0100
0000
0010
0100
,  // measure 53
0001
0000
0000
0000
1000
0000
0000
0000
0001
0010
0000
0000
0100
1000
0000
0000
,  // measure 54
0001
0000
0100
1000
0100
0001
0100
0010
,  // measure 55
1000
0001
0010
0000
0100
0100
0010
0000
,  // measure 56
0011
0000
0001
0000
0010
0000
0100
1000
,  // measure 57
0001
0000
0000
0000
0100
0000
0000
0000
0010
1000
0000
0000
0001
0010
0000
0000
,  // measure 58
0100
0000
0010
0001
1000
0100
0001
0100
,  // measure 59
1000
0010
0001
0010
1000
0001
0010
0200
,  // measure 60
2000
0000
3300
0000
;

//---------------dance-single - ----------------
#NOTES:
     dance-single:
     :
     Challenge:
     10:
     0.703412,0.900541,0.164998,0.034736,0.916172,567.000000,548.000000,19.000000,4.000000,0.000000,0.000000,0.703412,0.900541,0.164998,0.034736,0.916172,567.000000,548.000000,19.000000,4.000000,0.000000,0.000000:
// measure 0
0000
0000
0000
0000
,  // measure 1
0000
0000
0000
0000
,  // measure 2
0000
0000
0000
0000
,  // measure 3
0000
0000
0000
0000
,  // measure 4
0001
0100
1000
0100
0001
0100
1000
0100
,  // measure 5
0001
0010
0100
0010
0001
0010
0100
0010
,  // measure 6
0001
1000
0010
0001
0010
1000
0010
0001
,  // measure 7
0010
1000
0000
0001
0010
0100
0000
1000
0100
0010
0000
0001
0100
0010
0000
0000
,  // measure 8
1000
0001
0100
0001
1000
0001
0100
0001
,  // measure 9
0010
1000
0010
0001
0010
1000
0010
0001
,  // measure 10
0100
1000
0100
0010
1000
0001
0010
0100
,  // measure 11
1000
0010
0000
0000
0100
0001
0000
0000
0010
0100
0000
1000
0000
0001
0100
0000
,  // measure 12
0100
0010
1000
0001
1000
0010
1000
0001
0010
0000
0000
0100
0000
0100
1000
0000
,  // measure 13
0010
0100
0001
0010
0100
0010
0001
0010
0100
0010
0000
0001
0000
0100
0010
0000
,  // measure 14
0100
0001
0100
0010
1000
0001
0010
0100
1000
0001
1000
0100
1000
0001
0010
0100
,  // measure 15
1000
0001
0100
0010
0100
0001
0100
0010
1000
0001
0010
0100
1000
0100
0001
0100
,  // measure 16
1000
0000
0000
0000
0010
0100
0000
0001
0000
0100
0000
0000
0010
0000
1000
0001
,  // measure 17
0000
1000
0000
0000
0000
0000
0100
0000
0010
0001
0000
0000
1000
0010
0000
0100
,  // measure 18
0000
0000
0000
0000
0010
0000
1000
0001
0000
0100
0000
0000
0010
0000
0100
0001
,  // measure 19
0000
1000
0000
0000
0000
0000
0001
0000
0011
0000
1001
0000
1100
0000
0100
0000
,  // measure 20
1000
0000
0001
0010
0100
0010
0000
0001
0000
1000
0000
0000
0010
0000
0100
0010
,  // measure 21
0000
1000
0000
0000
0000
0000
0001
0000
0100
0010
0000
0000
1000
0001
0000
0010
,  // measure 22
0001
0000
0000
0000
1000
0000
0100
0010
0000
0100
0000
0000
1000
0000
0001
0010
,  // measure 23
0000
0100
0000
0000
0000
0000
0010
0000
0001
0000
0100
0000
0010
0000
0000
0000
,  // measure 24
0110
0000
0000
1000
0010
0000
1000
0001
0000
1000
0000
0000
0100
0000
0010
0001
,  // measure 25
0010
0000
0001
0000
1000
0000
0010
0000
0100
0010
0000
0000
1000
0001
0000
0100
,  // measure 26
0010
0000
1000
0000
0100
0000
0010
0001
0000
0010
0000
0000
0100
0000
0001
0100
,  // measure 27
0000
0010
0000
0000
0000
0000
0001
0000
0011
0000
1001
0000
1100
0000
1000
0000
,  // measure 28
0001
0010
0000
0001
0000
1000
0000
0000
0001
0000
0100
0000
0010
0000
0100
0000
,  // measure 29
0001
0000
1000
0000
0000
0001
0010
0100
0000
1000
0100
0000
0000
0011
0000
0000
,  // measure 30
0001
0100
0000
0010
0000
1000
0000
0000
0001
0000
1000
0000
0100
0000
0010
0000
,  // measure 31
0001
0000
0100
0000
0000
0010
0100
0001
0000
1000
0010
0000
0000
0101
0000
0000
,  // measure 32
1001
0000
0000
0000
0000
0000
0000
0000
0010
0100
0010
0000
0000
0000
0000
0000
,  // measure 33
1000
0000
0100
0000
0000
0010
0001
1000
0000
1000
0001
0000
0000
0100
0000
0000
,  // measure 34
0010
1000
0000
0001
0000
1000
0000
0000
0100
0000
0010
0000
0001
0000
0100
0000
,  // measure 35
1000
0000
0200
0000
0000
0000
0301
0000
0010
0100
1000
0001
0000
0100
0001
1000
,  // measure 36
0001
0100
0010
0100
0001
1000
0100
0010
0001
1000
0010
0100
0001
1000
0100
0010
,  // measure 37
0100
0000
0000
1000
0000
0000
0001
0000
0000
0100
0000
0000
0010
0000
0000
1000
0000
0000
0001
0000
0000
0010
0000
0000
0100
0000
0000
1000
0000
0000
0001
0000
0000
0100
0000
0000
0010
0000
0000
0100
0000
0000
0001
0000
0010
0000
0100
0000
,  // measure 38
1000
0001
0100
0001
1000
0010
1000
0001
0010
0100
1000
0001
0100
0010
0100
0001
,  // measure 39
1000
0000
0000
0010
0000
0000
0100
0000
0000
0010
0000
0000
1000
0000
0000
0001
0000
0000
0010
0000
0000
0100
0000
0000
1000
0000
0000
0001
0000
0000
1000
0000
0000
0100
0000
0000
0010
0000
0000
0001
0000
0000
1000
0000
0100
0000
0010
0000
,  // measure 40
0001
0100
0010
0100
0001
0100
0010
1000
0010
0100
0010
1000
0001
0010
0100
1000
,  // measure 41
0100
0010
0100
1000
0001
0010
0100
0010
0001
0100
0010
0100
0001
1000
0010
0100
,  // measure 42
0001
1000
0001
0100
0001
1000
0010
0100
0001
1000
0001
0100
0010
1000
0001
0010
,  // measure 43
0200
0000
0000
0300
,  // measure 44
1000
0001
0000
0100
0000
0010
0000
0000
0100
0000
0001
0000
0100
0000
1000
0000
,  // measure 45
0100
0000
0001
0000
0010
0001
1000
0100
0000
0010
0001
0000
1000
0000
0010
0000
,  // measure 46
0100
0010
0000
1000
0000
0001
0000
0000
0100
0000
1000
0000
0100
0000
0001
0000
,  // measure 47
1000
0100
0000
0010
0001
1000
0000
0010
0100
0001
0000
0100
0010
1000
0001
0010
,  // measure 48
0100
1000
0000
0001
0000
0010
0000
0000
0100
0000
0010
0000
0001
0000
1000
0000
,  // measure 49
0010
0000
0100
0000
0000
1000
0100
0010
0000
1000
0001
0000
0010
0000
0100
0000
,  // measure 50
1000
0100
0000
0001
0000
0100
0000
0000
0010
0000
0001
0000
1000
0000
0010
0000
,  // measure 51
0100
0000
0001
0000
0000
1000
0010
0100
0000
0001
0100
0000
0010
0000
1000
0000
,  // measure 52
0001
0010
0000
0100
0010
0001
1000
0010
0100
0000
0010
0000
1000
0000
0001
0100
,  // measure 53
0001
0000
1000
0000
0010
0000
0100
0000
0001
0010
0000
0100
1000
0100
0000
0010
,  // measure 54
0001
0000
1000
0000
0010
0100
0001
0100
0010
0000
1000
0000
0001
0000
1000
0100
,  // measure 55
1000
0001
0010
0100
1100
0110
0011
0001
,  // measure 56
1010
0000
0001
0100
0010
0100
0001
0100
0010
0000
1000
0000
0001
0010
0100
0000
,  // measure 57
0010
0000
0001
0000
1000
0000
0010
0000
1000
0001
0100
0000
0001
1000
0010
0000
,  // measure 58
0110
0000
0010
0000
1000
0001
0010
0100
1000
0000
0001
0000
0100
0010
0100
0000
,  // measure 59
0001
1000
0010
0100
0011
1100
0011
0000
,  // measure 60
2002
0000
0000
0000
,  // measure 61
3003
0000
0000
0000
;

//---------------dance-double - K. Pearman----------------
#NOTES:
     dance-double:
     K. Pearman:
     Easy:
     3:
     0.235711,0.264865,0.052105,0.086841,0.000000,190.000000,184.000000,6.000000,10.000000,0.000000,0.000000,0.235711,0.264865,0.052105,0.086841,0.000000,190.000000,184.000000,6.000000,10.000000,0.000000,0.000000:
00000000
00000000
00000000
00000000
,
00000000
00000000
00000000
00000000
,
00000000
00000000
00000000
00000000
,
00000000
00000000
00000000
00000000
,
00000010
00000001
00000000
00000000
,
00000100
00001000
00000000
00000000
,
00010000
00100000
00000000
00000000
,
10000000
01000000
00000000
00000000
,
00100000
00100000
00010000
00010000
,
01000000
01000000
00001000
00001000
,
00010000
00010000
00000100
00000100
,
00000010
00000001
00001000
00000001
,
00000200
00000000
00000300
00000010
,
00000200
00000000
00000300
00000010
,
00000200
00000000
00000000
00000000
,
00000000
00000000
00000000
00000310
,
00001001
00000000
00000001
00000010
,
00000100
00000100
00010000
00001000
,
01000000
00000000
00010000
01000000
,
00100000
10000000
00010000
10000000
,
10010000
00000000
10000000
01000000
,
00100000
00010000
01000000
00001000
,
00001000
00000000
00010000
00000100
,
00000010
00000001
00001000
00000001
,
00002000
00003000
00000200
00000300
,
00000010
00000001
00001000
00000010
,
00010000
00000000
00002000
00003000
,
00200000
00300000
00010000
00100000
,
01000000
01000000
10000000
10000000
,
00010000
01000000
10000000
01000000
,
00010000
00010000
10000000
10000000
,
00100000
01000000
00010000
00100000
,
00011000
00000000
00000100
00000000
,
00011000
00000000
01000000
00000000
,
00001000
00010000
00001000
00000100
,
00000010
00001000
00000001
00000010
,
00000100
00000100
00000010
00000010
,
00000001
00000001
00001000
00001000
,
00000010
00000010
00000100
00000100
,
00000001
00000001
00001000
00001000
,
00010000
00010000
10000000
10000000
,
00100000
00100000
01000000
01000000
,
00010000
00010000
10000000
10000000
,
02000000
00000000
00000000
00000000
,
03100000
00010000
01000000
00010000
,
00100000
10000000
00100000
00001000
,
00010000
00000100
00000010
00000100
,
00001000
00000001
00000010
00001000
,
00010000
00000010
00000100
00000010
,
00001000
00000010
00000001
00000010
,
00001000
00010000
00100000
01000000
,
10000000
00010000
01000000
00100000
,
10010000
00000000
00010000
10000000
,
01000000
00000000
10000000
00010000
,
01000000
00000000
00001000
00010000
,
00000100
00000000
00001000
00000100
,
00001001
00000000
00000001
00001000
,
00000100
00000000
00001000
00000001
,
00000100
00000000
00000001
00000100
,
00001000
00010000
01000000
20000000
,
00020000
00000000
00000000
00000000
,
30030000
00000000
00000000
00000000
;

//---------------dance-double - K. Pearman----------------
#NOTES:
     dance-double:
     :
     Medium:
     5:
     0.296500,0.317838,0.086841,0.156314,0.000000,239.000000,229.000000,10.000000,18.000000,0.000000,0.000000,0.296500,0.317838,0.086841,0.156314,0.000000,239.000000,229.000000,10.000000,18.000000,0.000000,0.000000:
00000000
00000000
00000000
00000000
,
00000000
00000000
00000000
00000000
,
00000000
00000000
00000000
00000000
,
00000000
00000000
00000000
00000000
,
10000000
00010000
00000000
00000000
,
01000000
00001000
00000000
00000000
,
00010000
00000100
00000000
00000000
,
00000010
00000000
00000010
00000000
00000001
00001000
00000001
00000000
,
00000100
00000100
00000000
00000000
,
00001000
00010000
00000000
00000000
,
01000000
10000000
00000000
00000000
,
00100000
00000000
01000000
00000000
00010000
00000000
10000000
00010000
,
20000000
00000000
01000000
00000000
31000000
00000000
00010000
10000000
,
00020000
00000000
01000000
00000000
01030000
00000000
10000000
00010000
,
20000000
00100000
30100000
10000000
,
01000000
00010000
00001000
00000100
,
00001001
00000001
00001000
00000100
,
00001000
00000000
00000001
00000000
00001000
00000000
00000100
00000100
,
00000100
00000010
00001000
00010000
,
00000010
00000000
00010000
00000000
00001000
00001000
00001000
00000000
,
00010000
00100000
01000000
00010000
,
00100000
00000000
01000000
00000000
10000000
10000000
10000000
00000000
,
01000000
00010000
00001000
00010000
,
01000000
00000000
00010000
00000000
00001000
00001000
00001000
00000000
,
00000200
00000301
00001000
00000001
,
00000010
00000000
00000100
00000000
00001000
00001000
00001000
00000000
,
00000010
00010000
00001000
00100000
,
01000000
00000000
10000000
00000000
00010000
00010000
00010000
00000000
,
02000000
03100000
10000000
00010000
,
00200000
00320000
20030000
32000000
,
03020000
00031000
00000100
00000001
,
00002000
00003002
00000203
00000310
,
00001001
00000000
00000100
00000000
,
00011000
00000000
01000000
00000000
,
10010000
00000000
00100000
00000000
,
00011000
00000000
00000010
00000000
,
00000001
00000100
00000001
00000000
00000001
00000100
00000001
00000000
,
00000001
00000100
00001000
00010000
,
10000000
01000000
10000000
00000000
10000000
01000000
10000000
00000000
,
10000000
01000000
00010000
00000100
,
00001000
00000001
00001000
00000000
00001000
00000001
00001000
00000000
,
00000100
00010000
01000000
10000000
,
00010000
10000000
00010000
00000000
00010000
10000000
00010000
00000000
,
00022000
00000000
00000000
00033000
,
00011000
00001000
00000100
00000001
,
00001000
00001000
00000001
00000000
00000010
00000000
00000100
00000000
,
00010000
00001000
01000000
00100000
,
10000000
10000000
00010000
00000000
00100000
00000000
01000000
00000000
,
21000000
00000000
00010000
00000000
31000000
00000000
00100000
00100000
,
00010000
01000000
00001000
00010000
,
00000102
00001000
00000100
00001003
,
00000001
00000001
00000010
00000000
00000100
00000000
00001000
00000000
,
00011000
00001000
00010000
00100000
,
01000000
00000000
00000000
00000000
00010000
00100000
00010000
00100000
,
00010000
10000000
01000000
00010000
,
00001000
00000000
00000000
00000000
00000100
00000001
00000100
00000001
,
00000100
00000000
00000001
00000010
,
00001000
00000000
00010000
00000000
00100000
10000000
00100000
10000000
,
00100000
10000000
01000000
00010000
,
00001000
00000000
00000100
00000000
00000001
00000010
00000001
00001000
,
00000200
00000000
00000000
00000000
,
00000300
00000000
00000000
00000000
;

//---------------dance-double - K. Pearman----------------
#NOTES:
     dance-double:
     :
     Hard:
     8:
     0.477625,0.503244,0.086841,0.060789,0.034736,385.000000,375.000000,10.000000,7.000000,0.000000,0.000000,0.477625,0.503244,0.086841,0.060789,0.034736,385.000000,375.000000,10.000000,7.000000,0.000000,0.000000:
00000000
00000000
00000000
00000000
,
00000000
00000000
00000000
00000000
,
00000000
00000000
00000000
00000000
,
00000000
00000000
00000000
00000000
,
00001000
00010000
00001000
00000000
00010000
00000000
00001000
00000000
,
00010000
00001000
00010000
00000000
00001000
00000000
00010000
00000000
,
00001000
00010000
00001000
00000000
00010000
00000000
00001000
00000000
,
00000100
00000001
00000010
00000000
00001000
00000000
00010000
00000000
,
01000000
10000000
00100000
10000000
01000000
10000000
00100000
00010000
,
00001000
00000100
00000001
00000010
00000001
00000100
00000001
00000010
,
00001000
00010000
01000000
10000000
00100000
10000000
01000000
10000000
,
00100000
00000000
01000000
00000000
00010000
10000000
01000000
10000000
,
00020000
00000000
00100000
00000000
00001000
00000000
00130000
00001000
,
00020000
00000000
00000100
00000000
01000000
00000000
00030100
00000010
,
00000002
00000100
00001000
00000103
,
00000010
00001000
00000001
00000010
00000100
00001000
00000001
00000100
,
00001001
00000000
00000001
00000000
00000100
00000010
00000100
00001000
,
00000100
00000001
00000100
00000000
00000010
00001000
00000100
00000000
,
00001000
00000100
00010000
00000000
00001000
00010000
00100000
00010000
,
00001000
00100000
01000000
00010000
01000000
10000000
00010000
00000000
,
10010000
00000000
01000000
00100000
01000000
00010000
10000000
01000000
,
00010000
01000000
10000000
00000000
00010000
00100000
00010000
00000000
,
10000000
01000000
10000000
00000000
01000000
00010000
00001000
00010000
,
01000000
00010000
00001000
00000100
00000010
00001000
00000001
00000000
,
00000010
00000001
00000100
00000000
00000001
00000100
00001000
00000000
,
00000100
00001000
00010000
01000000
10000000
00010000
10000000
00000000
,
10000000
00100000
00010000
00000000
00100000
00010000
00001000
00000000
,
00010000
00001000
00000010
00000001
00001000
00000001
00001000
00000000
,
00001000
00000001
00000000
00000000
00000001
00000000
00000100
00000000
00001000
00000000
00000000
00000000
00001000
00000000
00000000
00000000
,
00010000
01000000
10000000
00000000
00010000
10000000
00010000
00000000
,
10000000
00100000
00000000
00000000
01000000
00000000
00100000
00000000
10000000
00000000
00000000
00000000
01000000
00000000
00100000
00000000
,
00010000
00000000
01000000
00000000
00001000
00010000
00000100
00000000
,
00000011
00000000
00000000
00000000
00000100
00000000
00000000
00000000
00010000
00001000
00000000
00000000
01000000
00000000
00000000
00000000
,
00100000
10000000
01000000
00000000
00010000
00001000
00000100
00000000
,
00000001
00000010
00000100
00000000
00000010
00001000
00010000
00000000
,
00001000
00010000
00100000
01000000
00010000
00001000
00010000
01000000
,
00100000
10000000
01000000
00010000
01000000
10000000
01000000
00010000
,
01000000
10000000
01000000
00010000
01000000
10000000
01000000
00010000
,
00001000
00000010
00000001
00000010
00001000
00000010
00000001
00000010
,
00001000
00000010
00000001
00000010
00001000
00000010
00000001
00000010
,
00010000
00100000
10000000
00100000
00010000
00100000
10000000
00100000
,
00010000
00001000
00000100
00000001
00000100
00001000
00000100
00000001
,
00000100
00001000
01000000
10000000
00010000
01000000
10000000
01000000
,
00020000
20000000
00000000
00000000
00000000
00000000
00000000
00000000
00000000
00000000
00000000
00000000
30030000
00000000
00000000
00000000
,
10010000
00000000
11000000
00000000
10000000
01000000
00100000
00010000
,
01000000
00001000
00010000
00000100
00000010
00000001
00001000
00000000
,
00000101
00000000
00001001
00000000
00000001
00000100
00000010
00001000
,
00000001
00000010
00000100
00000001
00000100
00001000
00000001
00000010
,
00000100
00001000
00000000
00000000
00000010
00000000
00000000
00000000
00001000
00000000
00000100
00000000
00010000
00000000
00000000
00000000
,
00001000
01000000
00010000
00100000
01000000
10000000
00010000
00000000
,
01000000
00100000
00000000
00000000
10000000
00000000
00000000
00000000
00010000
00000000
01000000
00000000
10000000
00000000
00000000
00000000
,
01000000
00010000
00100000
10000000
00010000
01000000
10000000
00010000
,
01010000
00000000
00010000
01000000
00001000
00010000
00000100
00001000
,
00000001
00000010
00000100
00001000
00000001
00000100
00000001
00001000
,
00000010
00000000
00001000
00000010
00010000
00001000
00100000
00010000
,
01000000
00100000
10000000
01000000
00100000
01000000
10000000
00010000
,
10010000
00000000
10000000
01000000
10000000
00100000
00010000
00001000
,
00000100
00000010
00001000
00000001
00000010
00001000
00010000
01000000
,
10000000
00000000
00010000
00000000
01000000
00010000
01000000
00000000
00001000
00000000
00010000
00000000
00000100
00000000
00000010
00000000
,
00000001
00000000
00000100
00000000
00000010
00001000
00000001
00000000
00000100
00000000
00000010
00000000
00000100
00000000
00000000
00000000
,
00002002
00000000
00000000
00000000
,
00003003
00000000
00000000
00000000
;

//---------------dance-double - K. Pearman----------------
#NOTES:
     dance-double:
     :
     Challenge:
     9:
     0.631458,0.794595,0.104209,0.069473,0.746832,509.000000,497.000000,12.000000,8.000000,0.000000,0.000000,0.631458,0.794595,0.104209,0.069473,0.746832,509.000000,497.000000,12.000000,8.000000,0.000000,0.000000:
00000000
00000000
00000000
00000000
,
00000000
00000000
00000000
00000000
,
00000000
00000000
00000000
00000000
,
00000000
00000000
00000000
00000000
,
10000000
01000000
00000000
00000000
00010000
00001000
00000000
00000100
00000000
00000001
00000000
00001000
00000100
00000000
00000010
00000000
,
00001000
00010000
00000000
00000000
00100000
10000000
00000000
00010000
00000000
10000000
00000000
01000000
00100000
00000000
00001000
00000000
,
00010000
00000010
00000000
00000000
00000100
00000001
00000000
00000010
00000000
00000100
00000000
00001000
00000010
00000000
00000100
00000000
,
00000001
00000010
00000100
00000000
00000001
00000000
00000100
00000000
00000010
00000000
00001000
00000000
00100000
00000000
01000000
00000000
,
00010000
00001000
00010000
00000000
00001000
00000000
00010000
00000000
00100000
00000000
00010000
00000000
00001000
00000000
00000010
00000000
,
00001000
00010000
00001000
00000000
00010000
00000000
01000000
00000000
00010000
00000000
00001000
00000000
00000100
00000000
00001000
00000000
,
00010000
00001000
00010000
00000000
00001000
00000000
00000100
00000000
00000010
00000000
00001000
00000000
00100000
00000000
01000000
00000000
,
00001000
00010000
00200000
00000000
02300000
00000000
03001000
00000000
,
00001000
01000000
00001000
01000000
00001000
01000000
00001000
01000000
00001000
00000000
00010000
00000000
00000100
00000000
00000000
00000000
,
00000100
00010000
00000100
00010000
00000100
00010000
00000100
00010000
00000100
00000000
00010000
00000000
00001000
00000000
00000000
00000000
,
00001000
01000000
00001000
01000000
00001000
01000000
00001000
01000000
00001000
01000000
00001000
01000000
00001000
01000000
00001000
01000000
,
00001000
00100000
00010000
10000000
01000000
10000000
00010000
00100000
00001000
00010000
00001000
00000400
00000004
00000000
00000000
00000000
,
00000303
00000000
00000000
00000000
00000001
00000000
00000010
00000100
00000000
00001000
00000000
00000000
00000001
00000000
00000100
00000000
,
00001000
00000000
00010000
00000000
01000000
00000000
10000000
00000000
00100000
10000000
00000000
00000000
00010000
01000000
00000000
00000000
,
00011000
00000000
00000000
00000000
00010000
00000000
00100000
10000000
00000000
00000000
01000000
00000000
00010000
00000000
00001000
00000000
,
00010000
01000000
00010000
00001000
00000100
00000100
00001001
00000000
,
00000110
00000000
00000000
00000001
00000010
00000000
00000100
00001000
00000000
00000000
00000000
00000000
00000001
00000000
00000100
00000000
,
00001000
00000000
00010000
00000000
00100000
00000000
00010000
00000000
00001000
00000010
00001000
00000000
00010000
00000000
00100000
00000000
,
00010000
00100000
00010000
00000000
00100000
00000000
10000000
00010000
00000000
10000000
00000000
00000000
01000000
00000000
00010000
00000000
,
01000000
10000000
00100000
01000000
01100000
10010000
01100000
00000000
,
00011000
00000000
00000000
00010000
00001000
00000000
00001000
00000100
00000000
00000000
00000001
00000000
00000010
00000000
00000100
00000000
,
00001000
00000000
00000001
00000000
00000100
00000000
00000010
00000000
00001000
00000100
00001000
00000000
00000010
00010000
00000010
00000000
,
00010000
00000000
00000000
00001000
00010000
00000000
00010000
00100000
00000000
00000000
10000000
00000000
00010000
00000000
10000000
00000000
,
01000000
00100000
00010000
00000000
10000000
01000000
10000000
00000000
,
00010000
00100000
00000000
00010000
00000000
10000000
00000000
00000000
00100000
00000000
00010000
00000000
00001000
00000000
00000010
00000000
,
00000001
00000000
00001000
00000000
00000000
00000010
00000100
00000001
00000000
00000100
00000010
00000000
00000000
00001000
00000000
00000000
,
00000001
00000010
00000000
00000100
00000000
00001000
00000000
00000000
00000010
00000000
00010000
00000000
00001000
00000000
00100000
00000000
,
00010000
00000000
01000000
00000000
00000000
10000000
01000000
00010000
00000000
10000000
01000000
00000000
00000000
00100000
00000000
00000000
,
00220000
00000000
00000000
00000000
00330000
00000000
00000000
00000000
01000000
20000000
00000000
00000000
00000000
00000000
00000000
00000000
,
30010000
00000000
01000000
00000000
00000000
00001000
00010000
00001000
00000000
00000100
00000010
00000000
00000000
00001001
00000000
00000000
,
00000001
00000010
00000000
00000100
00000000
00000100
00000000
00000000
00000010
00000000
00000001
00000000
00000100
00000000
00001000
00010000
,
00001000
00000000
00010000
00000000
00000000
00000000
00100000
00000000
10000000
00010000
01000000
00100000
00000000
10000000
00010000
00000000
,
10000000
01000000
10000000
01000000
10000000
01000000
10000000
01000000
10000000
01000000
10000000
01000000
00010000
00000000
00000000
00000000
,
00010000
00001000
00010000
00001000
00010000
00001000
00010000
00001000
00010000
00001000
00010000
00001000
00000100
00000000
00000000
00000000
,
00000001
00000010
00000001
00000010
00000001
00000010
00000001
00000010
00000001
00000010
00000001
00000010
00001000
00000000
00000000
00000000
,
00000010
00001000
00000000
00001000
00010000
00000000
00000000
00000000
00010000
00100000
00000000
00100000
10000000
00000000
00000000
00000000
,
10000000
01000000
10000000
01000000
10000000
01000000
10000000
01000000
10000000
01000000
10000000
01000000
00010000
00000000
00000000
00000000
,
00001000
00010000
00001000
00010000
00001000
00010000
00001000
00010000
00001000
00010000
00001000
00010000
00100000
00000000
00000000
00000000
,
01000000
00010000
01000000
00010000
01000000
00010000
01000000
00010000
00001000
00000000
00000010
00000000
00000010
00000000
00000000
00000000
,
00002002
00000000
00000000
00003003
,
00000001
00000010
00000000
00000001
00000000
00001000
00000000
00000000
00000001
00000000
00000100
00000000
00001000
00000000
00010000
00000000
,
00100000
00000000
10000000
00000000
00000000
00010000
00100000
01000000
00000000
10000000
01000000
00000000
00000000
00100000
00000000
00000000
,
01000000
10000000
00000000
00010000
00000000
00100000
00000000
00000000
00010000
00000000
01000000
00000000
00001000
00000000
00010000
00000000
,
00000100
00000010
00000000
00000001
00001000
00000000
00000000
00000000
00000010
00000100
00000000
00000001
00001000
00000000
00000000
00000000
,
00000001
00000100
00000000
00001000
00000000
00010000
00000000
00000000
00100000
00000000
10000000
00000000
00010000
00000000
10000000
00000000
,
01000000
00000000
00010000
00000000
00000000
01000000
10000000
00100000
00000000
01000000
00010000
00000000
00000000
10000000
00000000
00000000
,
00010000
01000000
00000000
10000000
00000000
01000000
00000000
00000000
00010000
00000000
00100000
00000000
00001000
00000000
00010000
00000000
,
00000010
00000000
00000100
00000000
00000000
00000001
00001000
00000001
00000000
00000010
00000100
00000000
00000000
00001000
00000000
00000000
,
00001001
00000000
00000000
00000010
00000100
00000000
00000001
00001000
00000000
00000001
00000000
00000000
00000010
00000000
00000100
00000010
,
00000100
00000000
00000010
00000000
00000001
00000000
00001000
00000000
00000010
00010000
00000000
00000000
00001000
00100000
00000000
00000000
,
01000000
00000000
00000000
10000000
00010000
00000000
01000000
00100000
00000000
10000000
00000000
00000000
01000000
00000000
10000000
00010000
,
10000000
01000000
00100000
00010000
01000000
00100000
00010000
00001000
,
00000110
00000000
00000000
00000010
00000001
00000000
00001000
00000100
00000000
00000010
00000000
00000000
00001000
00000000
00010000
00000000
,
00100000
00010000
00001000
00000010
00001000
00010000
01000000
00010000
,
00001000
00000000
00000100
00000000
00001000
00000000
00010000
00000000
00100000
01000000
00010000
00000000
10000000
00000000
01000000
00000000
,
00100000
01000000
00100000
01000000
00010000
00001000
00010000
00001000
00000100
00000010
00000100
00000010
00010000
00001000
00010000
00001000
,
00200000
00000000
00000000
00000000
,
00300000
00000000
00000000
00000000
;
