#TITLE:Conga Feeling;
#SUBTITLE:Granada Club Mix;
#ARTIST:Vivian;
#TITLETRANSLIT:;
#SUBTITLETRANSLIT:;
#ARTISTTRANSLIT:;
#GENRE:;
#CREDIT:;
#BANNER:Conga Feeling (Granada Club Mix) -Banner.png;
#BACKGROUND:Conga Feeling (Granada Club Mix) -Background.png;
#LYRICSPATH:;
#CDTITLE:;
#MUSIC:Conga Feeling (Granada Club Mix) - Vivian.ogg;
#OFFSET:0.000000;
#SAMPLESTART:44.307999;
#SAMPLELENGTH:14.769000;
#SELECTABLE:YES;
#BPMS:0.000000=130.000000
;
#STOPS:
;
#BGCHANGES:;
#KEYSOUNDS:;
#ATTACKS:;

//---------------dance-single - K. Pearman----------------
#NOTES:
     dance-single:
     K. Pearman:
     Challenge:
     10:
     0.695388,0.911436,0.260107,0.111474,0.952841,917.000000,868.000000,49.000000,21.000000,19.000000,0.000000,0.695388,0.911436,0.260107,0.111474,0.952841,917.000000,868.000000,49.000000,21.000000,19.000000,0.000000:
0000
0000
0000
0000
,
0000
0000
0000
0000
,
0000
0000
0000
0000
,
2002
0000
0000
3003
,
1000
0100
0000
0010
0001
0100
0000
0010
0000
1000
0100
0010
0001
1000
0001
0100
,
0010
1000
0100
1000
0001
0010
0000
0001
0000
1000
0000
0001
0100
0000
0001
0000
,
1000
0100
0010
0001
0100
0001
0000
1000
0000
0100
0000
1000
0010
0000
0100
0000
,
0001
0010
0000
0100
1000
0010
0000
0100
0001
1000
0000
0100
1000
0001
0010
0001
,
1000
0010
0100
0010
1000
0001
0000
0100
0000
0010
0000
0100
0001
0000
1000
0000
,
0001
0010
0100
0010
0001
1000
0000
0010
0000
0100
0000
0010
1000
0000
0001
0000
,
0100
0010
0100
0001
1000
0100
0000
0010
0000
0100
0000
1000
0001
0000
0100
0000
,
0010
0000
1000
0000
0001
0000
0010
0000
0000
0100
0000
0000
1000
0000
0000
0001
0000
0000
0100
0000
0000
0010
0000
0000
0100
0000
0000
0001
0000
0000
1000
0000
0000
0001
0000
0000
1000
0000
0000
0000
0000
0000
0000
0000
0000
0000
0000
0000
,
0002
0010
1000
0010
,
2003
0100
0001
0100
,
3020
0100
1000
0100
,
0230
0001
0301
MMMM
,
1001
0000
0000
0001
0010
0100
1000
0001
0000
2000
0000
0000
3010
0000
0100
0010
,
0000
1000
0010
0000
0000
0000
0100
0000
0001
0010
0000
0100
1000
0001
0000
0100
,
0010
0000
1000
0000
0001
0010
0100
1000
0000
0001
0000
0000
1000
0000
0100
0010
,
0000
0002
0000
0000
0003
0000
0100
0000
0010
0000
0100
0000
1001
0000
0000
0001
,
0100
0010
1000
0001
0100
0001
1000
0100
0010
0001
1000
0001
0010
0100
1000
0010
,
1000
0100
0010
0001
0100
0010
0100
0001
1000
0010
1000
0100
0010
0100
0001
0100
,
0010
0100
1000
0001
0100
0010
0100
1000
0100
0010
0100
0001
1000
0010
0100
0001
,
0100
0001
1000
0200
0000
0000
0000
0000
0000
0000
0000
0000
0000
0000
0000
0300
0000
0000
0000
0000
0000
0000
0000
0000
,
1001
0000
0000
0001
0010
0001
0010
0100
0000
1000
0000
0001
1000
0000
0100
0000
,
1000
0001
1000
0000
0010
0000
0100
0000
0001
0010
0000
0010
1000
0010
0000
0010
,
0001
0000
0000
1000
0010
1000
0010
0100
0000
0001
0000
1000
0001
0000
0100
0000
,
0010
0100
0010
0000
1000
0000
0100
0000
0110
0000
1100
0000
0011
0000
0000
0000
,
1001
0000
0000
1000
0100
1000
0100
0010
0000
0001
0000
1000
0001
0000
0010
0000
,
0001
1000
0001
0000
0100
0000
0010
0000
1000
0100
0000
0100
0001
0100
0000
0100
,
1000
0000
0000
0001
0100
0001
0100
0010
0000
1000
0000
0001
1000
0000
0010
0000
,
0100
0010
0100
0000
0001
0000
0010
0000
0110
0000
0011
0000
1100
0000
0000
0000
,
1001
0001
0100
1000
0100
0001
0010
0100
,
0010
0001
0000
1000
0100
0010
0000
0001
0100
0010
0000
1000
0001
1000
0001
1000
,
0001
0100
1000
0100
0001
1000
0010
0100
,
0010
1000
0000
0001
0100
0010
0000
1000
0100
0010
0000
0001
1000
0001
1000
0001
,
4000
0000
0010
0000
0001
0000
0100
3000
,
0014
0000
1000
0000
0103
0010
0100
0001
,
0400
1000
0001
0010
,
0301
0000
0000
0000
0000
00M0
M000
0M00
000M
0000
0000
1000
0000
0010
0100
0000
,
0001
0010
0001
0010
0001
0010
0100
1000
0001
0000
0000
1000
0000
0010
0100
0000
,
0001
0010
0001
0010
0001
0010
0100
1000
0001
0000
0000
1000
0000
0010
0100
0000
,
0001
0010
0001
0010
0001
0010
0001
0010
0001
0010
0001
0010
0100
1000
0001
0100
,
0010
1000
0001
1000
0100
0010
0001
1000
0001
0100
0010
0100
0002
0000
0003
0000
,
1001
0010
0100
0010
1000
0001
1000
0000
,
1001
0100
0010
0100
0001
1000
0001
0000
,
1001
0000
0000
0010
0100
0000
0000
0000
1001
0000
0000
0100
0010
0000
0000
0000
,
1001
1010
0011
1001
,
0110
0000
0000
1000
0100
0010
0001
1000
0000
0002
0000
0000
0103
0000
0010
0100
,
0000
0001
0100
0000
0000
0000
0010
0000
1000
0100
0000
0010
0001
1000
0000
0010
,
0100
0000
0001
0000
1000
0100
0010
0001
0000
1000
0000
0000
0001
0000
0010
0100
,
0000
2000
0000
0000
3000
0000
0010
0000
0100
0000
0010
0000
1001
0000
0000
1000
,
0010
0100
0001
1000
0010
1000
0001
0010
0100
1000
0001
1000
0100
0010
0001
0100
,
0001
0010
0100
1000
0010
0100
0010
1000
0001
0100
0001
0010
0100
0010
1000
0010
,
0100
0010
0001
1000
0010
0100
0010
0001
0010
0100
0010
1000
0001
0100
0010
1000
,
0010
1000
0001
0020
0000
0000
0000
0000
0000
0000
0000
0000
0000
0000
0000
0030
0000
0000
0100
0000
0000
0000
0000
0000
,
1001
0000
0000
1000
0100
1000
0100
0010
0000
0001
0000
1000
0001
0000
0010
0000
,
0001
1000
0001
0000
0100
0000
0010
0000
1000
0100
0000
0100
0001
0100
0000
0100
,
1000
0000
0000
0001
0100
0001
0100
0010
0000
1000
0000
0001
1000
0000
0010
0000
,
0100
0010
0100
0000
0001
0000
0010
0000
0110
0000
0011
0000
1100
0000
0000
0000
,
1001
0000
0000
0001
0010
0001
0010
0100
0000
1000
0000
0001
1000
0000
0100
0000
,
1000
0001
1000
0000
0010
0000
0100
0000
0001
0010
0000
0010
1000
0010
0000
0010
,
0001
0000
0000
1000
0010
1000
0010
0100
0000
0001
0000
1000
0001
0000
0100
0000
,
0010
0100
0010
0000
1000
0000
0100
0000
0110
0000
1100
0000
0011
0000
0000
0000
,
1000
0010
0100
0001
0000
1000
0000
0000
0100
0000
1000
0000
0010
1000
0100
0000
,
0010
0000
0001
0000
0000
0100
0010
1000
0001
0000
0100
0000
0001
0010
0001
0000
,
1000
0010
0100
0001
0000
1000
0000
0000
0100
0000
1000
0000
0010
1000
0100
0000
,
0010
0000
0001
0000
0000
0100
0010
1000
0001
0000
0100
0000
0001
0010
0001
0000
,
1000
0001
0000
0001
0000
0010
0000
0000
0100
0000
1000
0000
0001
0000
1000
0000
,
0100
0000
0010
0000
0001
0100
0001
0100
0000
0010
1000
0000
0001
1000
0001
0000
,
1000
0001
0000
0001
0000
0010
0000
0000
0100
0000
1000
0000
0001
0000
1000
0000
,
0100
0010
0000
0001
0100
0010
0000
1000
0100
0010
0000
0001
1000
0001
1000
0000
,
0002
0000
0000
0003
,
2000
0000
0000
3000
,
000M
M000
00M0
0M00
,
000M
M000
00M0
0M00
000M
M000
0M00
0000
,
0010
0100
1001
0000
1000
0000
0011
0000
,
0010
0100
1001
0000
0001
0000
1010
0000
,
0100
0010
1001
0000
0010
0100
1001
0000
,
0001
0000
0000
0010
0000
0000
0001
0000
0000
1000
0000
0000
0100
0000
0000
1000
0000
0000
0010
0000
0000
0100
0000
0000
0001
0000
0000
0100
0000
0000
0010
0000
0000
1000
0000
0000
0100
0000
0010
0000
0001
0000
1000
0000
0010
0000
0100
0000
,
0001
0000
0000
0001
0010
0001
0010
0100
0000
1000
0000
0001
1000
0000
0100
0000
,
1000
0001
1000
0000
0010
0000
0100
0000
0001
0010
0000
0010
1000
0010
0000
0010
,
0001
0000
0000
1000
0010
1000
0010
0100
0000
0001
0000
1000
0001
0000
0100
0000
,
0010
0100
0010
0000
1000
0000
0100
0000
0110
0000
1100
0000
0011
0000
0000
0000
,
1001
0000
0000
1000
0100
1000
0100
0010
0000
0001
0000
1000
0001
0000
0010
0000
,
0001
1000
0001
0000
0100
0000
0010
0000
1000
0100
0000
0100
0001
0100
0000
0100
,
1000
0000
0000
0001
0100
0001
0100
0010
0000
1000
0000
0001
1000
0000
0010
0000
,
0100
0010
0100
0000
0001
0000
0010
0000
0110
0000
0011
0000
1100
0000
0000
0000
,
1001
0000
0000
1000
0100
1000
0100
0010
0000
0001
0000
1000
0001
0000
0010
0000
,
0001
1000
0001
0000
0100
0000
0010
0000
1000
0100
0000
0100
0001
0100
0000
0100
,
1000
0000
0000
0001
0100
0001
0100
0010
0000
1000
0000
0001
1000
0000
0010
0000
,
0100
0010
0100
0000
0001
0000
0010
0000
0110
0000
0011
0000
1100
0000
0000
0000
,
1001
0000
0000
0001
0010
0001
0010
0100
0000
1000
0000
0001
1000
0000
0100
0000
,
1000
0001
1000
0000
0010
0000
0100
0000
0001
0010
0000
0010
1000
0010
0000
0010
,
0001
0000
0000
0000
0000
0000
1000
0000
0000
0010
0000
0000
0100
0000
0000
0001
0000
0000
1000
0000
0000
0100
0000
0000
0010
0000
0001
0000
1000
0000
0010
0000
0100
0000
0001
0000
1000
0000
0100
0000
1000
0000
0001
0000
0100
0000
0010
0000
,
2000
0000
0000
0000
3001
0010
0100
0000
,
0020
0000
0030
0000
,
0002
0000
0000
1003
0100
0010
0001
0000
,
2000
0000
0000
3000
0000
0000
0000
0000
,
0002
0000
0003
0100
0010
1000
0001
0000
,
0200
0000
0000
0000
,
0300
0000
0000
0000
;

//---------------dance-double - K. Pearman----------------
#NOTES:
     dance-double:
     K. Pearman:
     Challenge:
     10:
     0.635480,0.875871,0.276032,0.084933,0.554718,838.000000,786.000000,52.000000,16.000000,0.000000,0.000000,0.635480,0.875871,0.276032,0.084933,0.554718,838.000000,786.000000,52.000000,16.000000,0.000000,0.000000:
// measure 0
00000000
00000000
00000000
00000000
,  // measure 1
00000000
00000000
00000000
00000000
,  // measure 2
00000000
00000000
00000000
00000000
,  // measure 3
20020000
00000000
00000000
30030000
,  // measure 4
10000000
00100000
01000000
00010000
00100000
00001000
00000000
00010000
00000000
00000010
00000000
00001000
00000001
00000000
00000010
00000000
,  // measure 5
00000100
00001000
00000001
00000100
00000010
00010000
00000000
00001000
00000000
00100000
00000000
01000000
10000000
00000000
00100000
00000000
,  // measure 6
01000000
00010000
10000000
00100000
01000000
00010000
00000000
00100000
00000000
00001000
00000000
00010000
00000010
00000000
00000100
00000000
,  // measure 7
00000001
00000000
00000100
00000000
00001000
00000000
00000100
00000000
00000001
00000000
00000010
00000000
00001000
00010000
00100000
00000000
,  // measure 8
10000000
01000000
10000000
00010000
10000000
01000000
00000000
00100000
00000000
00010000
00000000
01000000
00001000
00000000
00010000
00000000
,  // measure 9
00000001
00001000
00000100
00001000
00000001
00001000
00000000
00000100
00000000
00000010
00000000
00001000
00010000
00000000
00100000
00000000
,  // measure 10
10000000
00010000
10000000
01000000
10000000
00010000
00000000
10000000
00000000
00100000
00000000
00010000
00001000
00000000
00000010
00000000
,  // measure 11
00000001
00000100
00000010
00000100
00000001
00000100
00000010
00001000
00000001
00000000
00000010
00000000
00000100
00000000
00010000
00000000
,  // measure 12
00011000
00001000
00010000
00100000
,  // measure 13
10000000
01000000
00001000
00000100
,  // measure 14
00000010
00000001
00000100
00010000
,  // measure 15
01000000
00100000
10000000
11000000
,  // measure 16
00110000
00000000
00000000
10000000
01000000
00000000
00100000
00010000
00000000
01000000
00000000
00001000
00010000
00000000
00000100
00000010
,  // measure 17
00000000
00000001
00000000
00000000
00001000
00000000
00000010
00000000
00000100
00000001
00000000
00000000
00001000
00000010
00000000
00000000
,  // measure 18
00000100
00000000
00000001
00000000
00000010
00000000
00000100
00010000
00000000
00001000
00000000
00000000
00010000
00000000
00100000
01000000
,  // measure 19
00010000
10000000
01000000
00100000
00110000
10010000
11000000
10000000
,  // measure 20
01000000
00100000
00010000
10000000
00100000
01000000
00010000
00100000
00001000
00010000
00000100
00000010
00000001
00001000
00000010
00000100
,  // measure 21
00000001
00000100
00000010
00001000
00000001
00000010
00000100
00001000
00000100
00000010
00000100
00001000
00000010
00010000
00001000
00010000
,  // measure 22
00000100
00010000
00001000
00100000
00001000
00010000
00100000
00010000
00001000
00100000
00010000
01000000
00100000
10000000
01000000
00100000
,  // measure 23
00020000
00000000
00030000
00000000
,  // measure 24
10000000
01000000
10000000
00010000
10000000
01000000
00100000
00010000
00000000
01000000
00000000
00100000
00010000
00000000
00001000
00000000
,  // measure 25
00010000
00001000
00010000
00000000
00000100
00000000
00000010
00000000
00000001
00000100
00000010
00000000
00001000
00000100
00000010
00000000
,  // measure 26
00000001
00000010
00000100
00000000
00000010
00000001
00001000
00000001
00000100
00000000
00000010
00000000
00001000
00000001
00001000
00000000
,  // measure 27
00000100
00000010
00000001
00001000
00001100
00011000
01001000
01000000
,  // measure 28
00010000
00000000
10000000
00000000
01000000
10000000
00010000
10000000
01000000
00000000
10000000
00000000
00100000
00000000
01000000
00000000
,  // measure 29
00010000
10000000
00010000
00000000
01000000
00000000
00100000
00000000
01000000
00001000
00010000
00000000
00001000
00010000
00000100
00000000
,  // measure 30
00000010
00000100
00001000
00000000
00000001
00000010
00000100
00001000
00000001
00000000
00000100
00000000
00000010
00000000
00000100
00000000
,  // measure 31
00000001
00001000
00000001
00000000
00000100
00000000
00000010
00000000
00001010
00000000
00000110
00000000
00000101
00000000
00000001
00000000
,  // measure 32
00001000
00000100
00010000
00000100
00010000
00001000
01000000
00010000
,  // measure 33
10000000
01000000
00100000
00010000
10000000
00100000
01000000
10000000
,  // measure 34
01000000
00010000
10000000
01000000
00010000
00001000
00000100
00000001
,  // measure 35
00001000
00000100
00000010
00000001
00001000
00000010
00000100
00000010
,  // measure 36
00001000
00000001
00000010
00001000
00010000
00100000
10000000
00010000
,  // measure 37
10000000
01000000
00100000
00010000
10000000
00100000
01000000
10000000
,  // measure 38
01000000
00100000
10000000
00010000
00100000
01000000
10000000
01000000
,  // measure 39
00010000
00000000
00001000
00000000
00000100
00000000
00000001
00000000
00001000
00000000
00000100
00000000
00000010
00000001
00000010
00000001
,  // measure 40
00000020
00000000
00001000
00000000
00000100
00000000
00000000
00000000
00000130
00000000
00001000
00000000
00000010
00010000
00000010
00000000
,  // measure 41
00020000
00000000
00001000
00000000
00100000
00000000
00000000
00000000
00130000
00000000
00010000
00000000
00100000
10000000
00010000
00000000
,  // measure 42
20000000
01000000
00010000
00000000
30010000
00100000
01000000
00000000
,  // measure 43
01000000
00000000
00010000
00000000
00001000
00000000
00000100
00000000
00000001
00001000
00000001
00001000
00000001
00000000
00000000
00000000
,  // measure 44
00001001
00000100
00010000
00001000
,  // measure 45
10010000
01000000
00001000
00010000
,  // measure 46
00001001
00000100
10010000
01000000
,  // measure 47
00011000
00010100
01001000
00011000
,  // measure 48
01000100
00000000
00000000
00000000
00000100
00000000
00000010
00000100
00001000
00000000
00000001
00000000
00000100
00000000
00000010
00000000
,  // measure 49
00001000
00000001
00000010
00000100
00001000
00001000
00000010
00000010
,  // measure 50
00000001
00000000
00000010
00000000
00001000
00000000
00000100
00010000
00001000
00000000
00010000
00000000
00100000
00000000
01000000
00000000
,  // measure 51
00010000
10000000
00010000
00000000
10000000
00000000
01000000
00000000
00110000
00000000
10010000
00000000
11000000
00000000
00000000
00000000
,  // measure 52
01000000
10000000
00010000
10000000
01000000
00100000
00010000
10000000
00010000
01000000
00100000
01000000
00010000
00100000
00001000
00010000
,  // measure 53
00000100
00001000
00000001
00001000
00000100
00000010
00000001
00001000
00000001
00000100
00000010
00001000
00000001
00000100
00000010
00001000
,  // measure 54
00000001
00000010
00000100
00001000
00000100
00000010
00000100
00010000
00001000
00000010
00001000
00010000
00001000
00010000
00100000
01000000
,  // measure 55
00002000
00000000
00000000
00003000
,  // measure 56
01001000
00000000
00000000
00000000
00001000
00000000
10000000
01000000
10000000
00000000
01000000
00000000
00100000
00000000
01000000
00000000
,  // measure 57
00010000
00000000
00001000
00000000
00000100
00000000
00000001
00000000
00000010
00000001
00001000
00000000
00000100
00001000
00000001
00000000
,  // measure 58
00000100
00000000
00000000
00000000
00000010
00000000
00000100
00000001
00000100
00000000
00000010
00000000
00001000
00000000
00000001
00000000
,  // measure 59
00000010
00001000
00010000
00100000
00110000
01100000
10100000
00000000
,  // measure 60
10010000
00000000
00000000
00000000
10000000
01000000
00100000
00000000
01000000
00000000
10000000
00000000
01000000
00000000
00010000
00000000
,  // measure 61
00001000
00000000
00010000
00000000
00000100
00000000
00000010
00000000
00000001
00001000
00000010
00000000
00001000
00000001
00000010
00000000
,  // measure 62
00000100
00000000
00001000
00000000
00000010
00000100
00000001
00000000
00000100
00000000
00000010
00000000
00001000
00000000
00010000
00000000
,  // measure 63
00100000
01000000
10000000
00000000
11000000
01100000
00110000
00000000
,  // measure 64
10000000
01000000
10000000
00010000
00100000
01000000
10000000
00010000
01000000
00000000
00100000
00000000
00010000
00000000
00001000
00000000
,  // measure 65
00010000
00000100
00010000
00000000
00001000
01000000
00001000
00000000
00010000
00000100
00010000
00000000
00001000
01000000
00001000
00000000
,  // measure 66
00010000
00000100
00001000
00000001
00000010
00000100
00001000
00000010
00000100
00000001
00001000
00000100
00000010
00000000
00000001
00000000
,  // measure 67
00001000
00000010
00001000
00000000
00000010
00010000
00000010
00000000
00001000
00000010
00001000
00000000
00000010
00010000
00000010
00000000
,  // measure 68
00010000
00001000
00100000
00010000
01000000
00100000
10000000
00010000
00100000
01000000
10000000
00010000
01000000
00000000
00100000
00000000
,  // measure 69
01000000
00001000
00010000
00000000
00001000
01000000
00001000
00000000
00010000
00001000
00010000
00000000
00000100
00010000
00000100
00000000
,  // measure 70
00001000
00000001
00000010
00000100
00001000
00000001
00000100
00000010
00000100
00000001
00000010
00000100
00001000
00000001
00000010
00000000
,  // measure 71
00000100
00000010
00000100
00000000
00001000
00000001
00001000
00000000
00000010
00000100
00000010
00000000
00001000
00000001
00001000
00000000
,  // measure 72
00000002
00000000
00000000
00000000
,  // measure 73
00002003
00000000
00000000
00000000
,  // measure 74
00023000
00000000
00000000
00000000
,  // measure 75
20030000
00000000
00000000
00000000
,  // measure 76
31000000
10010000
00000000
00011000
,  // measure 77
00000000
00001001
00000000
00011000
,  // measure 78
00000000
01100000
00000000
00011000
,  // measure 79
00000000
00000110
00000000
00011000
,  // measure 80
01000100
00000000
00000000
00010000
00001000
00000000
00100000
00001000
00000000
00010000
00000000
00000000
00100000
00000000
01000000
00000000
,  // measure 81
00010000
00001000
00000100
00000010
00010000
00001000
01000000
00100000
,  // measure 82
00001000
00000000
01000000
00000000
00100000
00000000
01000000
00010000
00000000
10000000
00000000
00000000
01000000
00000000
00100000
00010000
,  // measure 83
10000000
00100000
01000000
00001000
00011000
00010100
00011000
00000000
,  // measure 84
00011000
00000000
00000000
00010000
00001000
00000000
00000100
00000010
00000000
00001000
00000000
00000000
00000001
00000000
00000010
00000100
,  // measure 85
00001000
00000001
00000010
00000100
00010000
00001000
00100000
01000000
,  // measure 86
00010000
00000000
00001000
00000000
00000100
00000000
00000010
00001000
00000001
00000000
00000100
00000000
00000010
00000000
00001000
00000000
,  // measure 87
00000001
00000010
00000001
00000000
00001000
00000000
00000100
00000000
00001100
00000000
00000001
00000000
00000101
00000000
00000000
00000000
,  // measure 88
00011000
00000000
00000000
00001000
00010000
00000000
00010000
00100000
00000000
00100000
00000000
00000000
10000000
00000000
01000000
00000000
,  // measure 89
00010000
00000000
00001000
00000000
00000100
00000000
00000001
00000000
00001000
00000100
00001000
00000000
00000001
00000100
00000001
00000000
,  // measure 90
00001000
00000000
00000000
00000000
00000011
00000000
00000001
00000010
00000000
00000010
00000100
00000000
00000100
00000000
00001000
00000000
,  // measure 91
00000010
00000100
00001000
00010000
00001000
00010000
00011000
00000000
,  // measure 92
01000100
00000000
00000000
00001000
00010000
00000000
00010000
00001000
00000000
00010000
00000000
00000000
00100000
00000000
01000000
00010000
,  // measure 93
10000000
01000000
00010000
00001000
00000100
00000001
00000010
00001000
,  // measure 94
00100000
00010000
10000000
00010000
01000000
00100000
01000000
00010000
00100000
00001000
00000010
00000001
00001000
00000010
00000001
00000010
,  // measure 95
00000200
00000000
00000000
00000000
,  // measure 96
00000320
00000000
00000000
00000000
,  // measure 97
00020030
00000000
00000000
00000000
,  // measure 98
00032000
00000000
00000000
00000000
,  // measure 99
00203000
00000000
00000000
00000000
,  // measure 100
01300000
00000000
00000000
00000000
;
