#VERSION:0.83;
#TITLE:Beautiful Man;
#SUBTITLE:Radio Edit;
#ARTIST:Radiorama;
#TITLETRANSLIT:;
#SUBTITLETRANSLIT:;
#ARTISTTRANSLIT:;
#GENRE:;
#ORIGIN:;
#CREDIT:;
#BANNER:Beautiful Man-Banner.png;
#BACKGROUND:Beautiful Man-Background.png;
#PREVIEWVID:;
#JACKET:;
#CDIMAGE:;
#DISCIMAGE:;
#LYRICSPATH:;
#CDTITLE:;
#MUSIC:Radiorama - Beautiful Man.ogg;
#OFFSET:0.013728;
#SAMPLESTART:49.364998;
#SAMPLELENGTH:14.118000;
#SELECTABLE:YES;
#BPMS:0.000=136.000;
#STOPS:;
#DELAYS:;
#WARPS:;
#TIMESIGNATURES:0.000=4=4;
#TICKCOUNTS:0.000=4;
#COMBOS:0.000=1;
#SPEEDS:0.000=1.000=0.000=0;
#SCROLLS:0.000=1.000;
#FAKES:;
#LABELS:0.000=Song Start;
#BGCHANGES:;
#KEYSOUNDS:;
#ATTACKS:
;

//---------------dance-single - ----------------
#NOTEDATA:;
#CHARTNAME:;
#STEPSTYPE:dance-single;
#DESCRIPTION:;
#CHARTSTYLE:;
#DIFFICULTY:Beginner;
#METER:2;
#RADARVALUES:0.132447,0.195271,0.041023,0.049228,0.000000,113.000000,108.000000,5.000000,6.000000,0.000000,0.000000,0.000000,0.000000,0.000000,0.132447,0.195271,0.041023,0.049228,0.000000,113.000000,108.000000,5.000000,6.000000,0.000000,0.000000,0.000000,0.000000,0.000000;
#CREDIT:K. Pearman;
#NOTES:
0000
0000
0000
0000
,
0000
0000
0000
0000
,
0000
0000
0000
0000
,
0000
0000
0000
0000
,
1000
0000
0000
0000
,
0001
0000
0000
0000
,
0100
0000
0100
0000
,
0000
0000
0000
0000
,
0001
0000
0000
0000
,
1000
0000
0000
0000
,
0100
0000
0100
0000
,
0000
0000
0000
0000
,
1001
0000
0000
0000
,
0010
0000
0010
0000
,
1000
0000
0000
0000
,
0010
0000
0010
0000
,
0001
0000
0000
0000
,
0100
0000
0100
0000
,
0200
0000
0300
0000
,
0010
0000
0000
0000
,
1001
0000
0000
0000
,
0001
0000
0100
0000
,
0110
0000
0000
0000
,
1000
0000
0010
0000
,
0110
0000
0000
0000
,
0000
0000
0001
0000
,
2000
0000
3000
0000
,
0002
0000
0003
0000
,
0010
0010
0010
0000
,
0001
0000
0001
0000
,
0010
0010
0010
0000
,
1000
0000
1000
0000
,
0010
0010
0010
0000
,
0100
0000
0100
0000
,
0010
0010
0010
0000
,
1000
0000
0001
0000
,
1001
0000
0000
0100
,
0100
0000
0000
0000
,
1000
0000
0000
0000
,
0001
0000
0000
0100
,
0100
0000
0000
0000
,
0010
0000
0000
0000
,
1000
0000
0000
0000
,
0001
0000
0000
0010
,
0010
0000
0000
0000
,
0100
0000
0000
0000
,
1000
0000
0000
0000
,
0001
0000
0000
0000
,
0100
0000
0100
0000
,
0010
0000
0010
0000
,
2000
0000
3000
0000
,
0002
0000
0003
0000
,
0010
0010
0010
0000
,
0100
0000
0100
0000
,
0010
0010
0010
0000
,
0001
0000
0001
0000
,
0010
0010
0010
0000
,
1000
0000
1000
0000
,
0010
0010
0010
0000
,
0100
0000
0100
0000
,
0010
0000
1000
0000
,
0001
0000
0100
0000
,
0100
0000
0001
0000
,
1000
0000
0010
0000
,
0100
0100
0100
0000
,
0010
0000
0010
0000
,
0100
0100
0100
0000
,
0001
0000
2000
0000
,
3000
0000
0000
0000
;

//---------------dance-single - ----------------
#NOTEDATA:;
#CHARTNAME:;
#STEPSTYPE:dance-single;
#DESCRIPTION:;
#CHARTSTYLE:;
#DIFFICULTY:Easy;
#METER:3;
#RADARVALUES:0.203944,0.251986,0.024614,0.106661,0.000000,174.000000,171.000000,3.000000,13.000000,0.000000,0.000000,0.000000,0.000000,0.000000,0.203944,0.251986,0.024614,0.106661,0.000000,174.000000,171.000000,3.000000,13.000000,0.000000,0.000000,0.000000,0.000000,0.000000;
#CREDIT:K. Pearman;
#NOTES:
0000
0000
0000
0000
,
0000
0000
0000
0000
,
0000
0000
0000
0000
,
0000
0000
0000
0000
,
0001
0010
0001
0000
,
1000
0000
0001
0000
,
0100
0100
0010
0000
,
1000
1000
0001
0000
,
1000
0100
1000
0000
,
0010
0000
0100
0000
,
0001
0001
1000
0000
,
0100
0100
0010
0000
,
0002
0000
0100
0000
,
1003
0000
0010
0100
,
0001
0000
0010
0000
,
0100
0000
1000
0001
,
2000
0000
0010
0000
,
3001
0000
0100
0010
,
2000
0000
0000
3000
,
0002
0000
0000
0003
,
1001
0001
0001
0000
,
0100
0010
1000
0000
,
0001
0000
1000
0000
,
0001
0100
0010
0000
,
0200
0000
0300
0000
,
0001
0000
1000
0000
,
0200
0000
0300
0000
,
0020
0030
0000
0000
,
0001
0100
0001
0100
,
1000
0100
0001
0000
,
1000
0100
1000
0100
,
0001
0100
1000
0000
,
0001
0010
0001
0010
,
1000
0010
0001
0000
,
1000
0010
1000
0010
,
0001
0010
1000
0000
,
1001
0000
0100
0000
,
1000
0001
0010
0000
,
0001
0000
0010
0000
,
0001
0100
0010
0000
,
1000
0000
0001
0000
,
0010
0100
1000
0000
,
0001
0000
1000
0000
,
0010
0100
0001
1000
,
0002
0000
0013
0000
,
0001
0010
0100
0000
,
2000
0000
3010
0000
,
1000
0010
0100
0000
,
0200
0000
0300
0000
,
0100
0000
0010
0000
,
2000
0000
3000
0000
,
0002
0000
0003
0000
,
0010
0001
1000
0000
,
0001
1000
0001
0000
,
1000
0001
0100
0000
,
0010
0100
0010
0000
,
1000
0100
0010
0000
,
0001
0001
1000
0000
,
0001
0100
0010
0000
,
1000
1000
0001
0000
,
1001
0001
0010
0000
,
0100
1000
0001
1000
,
0010
0010
0100
0000
,
0001
0100
0010
1000
,
0001
0001
0010
0000
,
0100
1000
0001
1000
,
0100
0100
0010
0000
,
0001
0100
0010
2000
,
0000
3000
0000
0000
;

//---------------dance-single - ----------------
#NOTEDATA:;
#CHARTNAME:;
#STEPSTYPE:dance-single;
#DESCRIPTION:;
#CHARTSTYLE:;
#DIFFICULTY:Medium;
#METER:5;
#RADARVALUES:0.297712,0.307982,0.106661,0.041023,0.004102,254.000000,241.000000,13.000000,5.000000,0.000000,0.000000,0.000000,0.000000,0.000000,0.297712,0.307982,0.106661,0.041023,0.004102,254.000000,241.000000,13.000000,5.000000,0.000000,0.000000,0.000000,0.000000,0.000000;
#CREDIT:K. Pearman;
#NOTES:
0000
0000
0000
0000
,
0000
0000
0000
0000
,
0000
0000
0000
0000
,
0000
0000
0000
0000
,
0010
0100
0010
0000
0001
0000
0001
0000
,
1000
0010
0100
0001
,
1000
0100
1000
0000
0000
0000
0000
0000
,
0001
0100
0001
0000
0000
0000
0000
0000
,
0100
0010
0100
0000
0010
0000
1000
0000
,
0001
1000
0100
0010
,
0001
0010
0001
0000
0000
0000
0000
0000
,
1000
0010
1000
0000
0000
0000
0010
0100
,
0010
0010
1000
1000
,
0100
0100
0010
0001
,
0101
0000
0100
0100
,
0010
0010
1000
0100
,
1100
0000
1000
0000
,
0001
0000
0100
0100
,
0020
0000
0001
1000
,
0200
0330
0110
1001
,
1001
0000
0001
0010
,
0100
0000
1000
0000
0001
0000
0100
0100
,
0100
0000
0010
1000
,
0001
1000
0100
0100
,
0010
0010
0010
0000
0000
0000
0001
0000
,
0000
1000
0000
0010
,
0100
0001
1000
0001
,
0100
0010
1000
0000
,
0001
0100
0001
0000
1000
0000
0000
0000
,
0001
0010
0100
0000
,
1000
0100
1000
0000
0001
0000
0000
0000
,
1000
0010
0100
0000
,
0001
1000
0001
0000
0110
0000
0000
0000
,
0100
0001
1000
0000
,
0100
0010
0100
0000
1001
0000
0000
0000
,
0010
1000
0001
0001
,
0100
0100
1000
1000
,
0100
0001
0010
0000
,
0100
0100
0001
0001
,
0100
1000
0010
0000
,
0100
0100
0010
0010
,
1000
0100
1100
0000
,
0100
0100
0010
0010
,
0001
0100
0101
0000
,
0001
0100
0010
0100
,
0001
0010
0100
1000
,
1100
0000
1000
0001
,
1000
0100
0010
0001
,
0011
0000
0001
1000
,
0010
0000
1000
0001
,
0200
0000
0000
0310
,
1000
0000
0001
0000
1000
0001
1000
0000
,
0001
0100
0001
0000
1000
0000
0000
0000
,
0001
0010
0100
0000
,
1000
0100
1000
0000
0001
0000
0000
0000
,
1000
0010
0100
0000
,
0001
1000
0001
0000
0110
0000
0000
0000
,
0100
0001
1000
0000
,
0100
0010
0100
0000
1001
0000
0000
0000
,
0010
1000
0001
0001
,
1000
0100
1000
0100
1000
0000
0001
0000
,
0100
0100
0010
1000
,
0001
0010
0001
0010
0001
0000
1000
0000
,
0100
0100
0010
0001
,
1000
0010
1000
0010
1000
0000
0001
0000
,
0100
0010
1000
0001
,
0100
0001
0100
0001
0100
0000
0010
0000
,
0100
0000
0000
0000
0001
0000
0000
0000
2000
0000
0000
0001
0000
0000
0002
0000
,
0000
3003
0000
0000
;

//---------------dance-single - ----------------
#NOTEDATA:;
#CHARTNAME:;
#STEPSTYPE:dance-single;
#DESCRIPTION:;
#CHARTSTYLE:;
#DIFFICULTY:Hard;
#METER:7;
#RADARVALUES:0.428986,0.419207,0.082047,0.065637,0.008205,366.000000,356.000000,10.000000,8.000000,0.000000,0.000000,0.000000,0.000000,0.000000,0.428986,0.419207,0.082047,0.065637,0.008205,366.000000,356.000000,10.000000,8.000000,0.000000,0.000000,0.000000,0.000000,0.000000;
#CREDIT:K. Pearman;
#NOTES:
0000
0000
0000
0000
,
0000
0000
0000
0000
,
0000
0000
0000
0000
,
0000
0000
0000
0000
,
0001
0100
0010
0000
1000
0000
0001
0000
,
1000
0100
0010
0000
0001
0000
1000
0000
,
0010
1001
0100
0010
,
1001
0100
0010
0100
,
1000
0010
1000
0000
0001
0000
0100
0000
,
0001
0010
0001
0000
1000
0000
0001
0000
,
1001
0010
0100
0010
,
1001
0100
0010
0100
,
1001
0000
0001
0010
0000
0100
1000
0001
,
0000
1000
0010
0100
0000
0010
0100
0001
,
1000
0000
0001
0000
0100
0010
0100
0001
,
1000
0000
0001
0010
0100
0000
1000
0100
,
0020
0001
0100
0031
,
0200
1000
0010
1300
,
0010
0000
0001
0100
0010
0000
1000
0100
,
0010
0001
1100
0101
,
1001
0000
0010
0000
1000
0000
0100
1000
,
0010
0000
0100
0001
0010
0000
0100
1000
,
0001
0000
0100
0000
0010
1000
0001
0000
,
0100
0000
0001
0010
0100
1000
0001
0000
,
1000
0100
1000
0000
0001
0010
0001
0000
,
1000
0010
1000
0000
0001
0100
0001
0000
,
2000
0010
0100
3002
,
0010
0100
1003
1001
,
0010
1000
0010
1000
0001
0000
0010
0001
,
0100
0000
0010
1000
0100
0000
0010
0000
,
0001
0100
0001
0100
0010
0000
0100
0001
,
0010
0000
0100
1000
0010
0000
1000
0000
,
0001
0100
0001
0100
0010
0000
1000
0100
,
0010
0000
0001
0010
0100
0000
1000
0000
,
0010
1000
0010
1000
0001
0000
0100
0001
,
1000
0000
0000
0000
0001
0000
1000
0000
0100
0000
0000
0010
0000
0000
1001
0000
,
0001
0000
1000
0000
0010
1000
0001
0000
,
0100
0000
0010
0000
0100
0001
1000
0000
,
0100
1000
0010
0000
1000
0000
0001
0000
,
0010
0001
0100
0000
0001
0000
1000
0000
,
0001
0100
0001
0000
0100
0000
0010
0000
,
1000
0100
1000
0000
0100
0000
0010
0000
,
0001
0010
0001
0000
0100
0000
0010
0000
,
1000
0010
1000
0000
0100
0000
0010
0001
,
1000
0000
0001
1000
0000
0100
1000
0001
,
0010
0000
0100
0010
0000
0001
0100
0010
,
1000
0000
0001
0000
0100
0010
0100
0001
,
1000
0000
0001
0010
0100
0000
1000
0100
,
0020
0001
0100
0031
,
2000
0000
0100
0000
0001
0000
3100
0010
,
0001
0000
0100
0010
1000
0000
0001
0000
,
1000
0010
0100
0000
0001
0100
0010
0000
,
1000
0100
1000
0100
0010
0000
0100
1000
,
0010
0000
0100
0001
0010
0000
0001
0000
,
0010
0001
0010
0001
1000
0000
0001
0100
,
0010
0000
1000
0100
0010
0000
0001
0000
,
1000
0010
1000
0010
0100
0000
0001
0100
,
0010
0000
1000
0100
0010
0000
0001
0000
,
1000
0001
1000
0001
0100
0000
0010
1000
,
0100
0000
0010
0001
0100
0010
1000
0001
,
1000
0100
0010
0100
1000
0000
0001
0010
,
0100
0000
1000
0001
1000
0010
0100
0000
,
0001
0100
0010
0100
0001
0000
1000
0001
,
1000
0000
0010
0100
0001
1000
0001
0000
,
0010
0100
1000
0100
0010
0000
0001
0100
,
0001
0000
1000
0010
1000
0001
0010
0000
,
0100
1000
0010
1000
0100
0000
0010
0001
,
1000
0000
0000
0000
0010
0000
1000
0000
0001
0000
0000
0200
0000
0000
0020
0000
,
0000
0330
0000
0000
0000
0000
0000
0000
;

//---------------dance-single - ----------------
#NOTEDATA:;
#CHARTNAME:;
#STEPSTYPE:dance-single;
#DESCRIPTION:;
#CHARTSTYLE:;
#DIFFICULTY:Challenge;
#METER:10;
#RADARVALUES:0.684503,0.807492,0.278958,0.123070,0.332289,584.000000,549.000000,34.000000,15.000000,0.000000,2.000000,0.000000,0.000000,0.000000,0.684503,0.807492,0.278958,0.123070,0.332289,584.000000,549.000000,34.000000,15.000000,0.000000,2.000000,0.000000,0.000000,0.000000;
#CREDIT:K. Pearman;
#NOTES:
0000
0000
0000
0000
,
0000
0000
0000
0000
,
0000
0000
0000
0000
,
0000
0000
0000
0000
,
0001
0100
0010
0000
0100
0000
0001
0000
1000
0000
0010
0000
1000
0000
0001
0000
,
0010
0100
1000
0000
0001
0000
0100
0000
0010
0000
0100
0000
0001
0000
1000
0000
,
0010
0100
0010
0000
1000
0100
1000
0000
0010
0100
0010
0000
1000
0000
0100
0000
,
0010
0001
0010
0000
0001
0100
0001
0000
0100
0010
0100
0000
0001
0000
1000
0000
,
0100
0010
0001
0000
1000
0000
0100
0000
1000
0000
0001
0000
0010
0000
0100
0000
,
0010
0001
1000
0000
0010
0000
0100
0000
1000
0000
0100
0000
0010
0000
1000
0000
,
0001
0100
0001
0000
1000
0010
0100
0000
0001
0010
0001
0100
0001
0000
1000
0000
,
1000
0010
1000
0000
0001
0100
0010
0000
1000
0100
1000
0010
1000
0000
0001
0100
,
0010
1000
0100
1000
0010
0100
0001
0010
,
0001
1000
0010
0100
0001
0100
0010
1000
,
0101
0000
1000
0100
1000
0001
1001
1100
,
0000
0011
0000
1001
0000
0110
0001
0001
,
1100
1000
0010
0001
1000
0100
0001
1100
,
0000
1001
0001
0010
0001
0100
0001
0000
,
0001
0100
0001
0100
0001
0100
0001
0100
0001
0000
1000
0000
0100
0000
1001
0000
,
0001
0010
0100
1000
0001
0010
0100
1000
0002
0000
0000
0000
2000
0000
3013
0000
,
1011
0000
0001
0100
0010
0100
0001
1000
,
1100
0000
1000
0100
0010
0001
0100
0110
,
0000
0000
0100
0001
1000
0001
0100
1100
,
0000
1100
0100
0001
0000
0001
0010
1000
,
1010
0000
0010
0001
1000
0100
0010
0110
,
0000
0000
0100
0000
1000
0000
1001
0000
0000
0000
0001
0000
0100
0000
0010
1000
,
0001
0000
0100
0001
0000
0000
1000
0000
0001
0000
1000
0100
0000
0000
0010
0000
,
0001
0100
0010
0100
0001
0100
1000
0100
0001
0100
0010
1000
0100
0010
0001
1000
,
0010
0010
1000
1000
0012
0000
1003
0001
,
0100
0010
0100
0000
0001
0000
0010
0000
0100
0000
1000
0000
0001
0000
0000
0000
,
0100
0100
0001
0001
2010
0000
3001
1000
,
0010
0100
0010
0000
1000
0000
0100
0000
0010
0000
0001
0100
0001
0000
1000
0000
,
0100
0100
0010
0010
2001
0000
3100
0010
,
0001
0100
0010
0000
0001
0000
0010
0000
1000
0000
0001
0000
1000
0000
0000
0000
,
0010
0010
0100
0100
1002
0000
0013
0100
,
1000
0010
0100
0000
1000
0000
0100
0000
0101
0000
0000
1100
0000
0000
1001
0000
,
0001
0100
0001
0100
1000
0100
1000
0100
,
0010
1000
0010
1000
0001
0010
0100
1000
,
0001
0010
0001
0010
1000
0010
1000
0010
,
0100
0001
0100
0001
0100
1000
0010
0100
,
0001
0010
0001
1000
0001
0100
0010
1000
,
0100
0001
0100
1000
0010
0100
0010
0001
,
0010
1000
0001
0100
0010
1000
0100
1000
,
0001
0010
0001
1000
0100
0010
0001
1000
0100
1000
0010
0100
0001
1000
0001
0100
,
0020
0000
1030
0001
0010
0001
1000
0200
,
0000
0310
0001
2000
0000
3001
0100
0010
,
1000
0100
1000
0000
0001
0010
0100
2000
,
0000
3001
0100
2000
0000
3100
0001
0010
,
0100
0001
0100
1000
0100
0001
0100
0010
,
0001
0010
1000
0010
0001
0100
0010
1000
,
0001
0100
0001
0100
0001
0100
0001
0100
0001
0000
1000
0000
0100
0000
0010
0000
,
0001
0100
0010
0100
0001
1000
0100
0010
0100
1000
0001
0100
0010
1000
0001
0010
,
0100
1000
0001
0001
2100
0000
3001
1000
,
0010
0100
0010
0000
1000
0000
0100
0000
0010
0000
0001
0000
1000
0000
0000
0000
,
0010
0010
1000
1000
0102
0000
1003
0001
,
0100
0010
0100
0000
0001
0000
0010
0000
0100
0000
1000
0010
1000
0000
0001
0000
,
0010
0010
0100
0100
1002
0000
0013
0100
,
1000
0010
0100
0000
1000
0000
0100
0000
0001
0000
1000
0000
0001
0000
0000
0000
,
0100
0100
0010
0010
2001
0000
3100
0010
,
0001
0100
0010
0000
0001
0000
0010
0000
1000
0000
0001
1000
0100
0000
0010
0000
,
0001
0001
1000
1000
0110
0000
0010
1000
,
0100
1000
0100
0000
1000
0000
0010
0000
0100
0001
0100
0000
0010
0000
1000
0000
,
0001
0001
1000
1000
0110
0000
0010
0001
,
1000
0010
1000
0000
0100
0000
0010
0000
0001
0010
0001
0000
0100
0000
0010
0000
,
1000
1000
0001
0001
0110
0000
0010
1000
,
0001
0100
0010
0000
0100
0000
0001
0000
1000
0100
0010
0000
0100
0000
1000
0000
,
0001
0001
0010
0010
1100
0000
1000
0001
,
0100
0010
1000
0001
0010
0100
1000
0001
1000
0000
0000
0001
0000
0000
0110
0000
;

//---------------dance-double - ----------------
#NOTEDATA:;
#CHARTNAME:;
#STEPSTYPE:dance-double;
#DESCRIPTION:;
#CHARTSTYLE:;
#DIFFICULTY:Easy;
#METER:2;
#RADARVALUES:0.160577,0.251062,0.041023,0.090251,0.000000,137.000000,132.000000,5.000000,11.000000,0.000000,0.000000,0.000000,0.000000,0.000000,0.160577,0.251062,0.041023,0.090251,0.000000,137.000000,132.000000,5.000000,11.000000,0.000000,0.000000,0.000000,0.000000,0.000000;
#CREDIT:;
#NOTES:
00000000
00000000
00000000
00000000
,
00000000
00000000
00000000
00000000
,
00000000
00000000
00000000
00000000
,
00000000
00000000
00000000
00000000
,
00010000
00100000
00010000
00000000
,
01000000
00000000
00001000
00000000
,
00020000
00000000
00030000
00000000
,
00000200
00000000
00000300
00000000
,
00000010
00000001
00000010
00000000
,
00000001
00001000
00000001
00000000
,
00002000
00000000
00003000
00000000
,
00000200
00000000
00000300
00000000
,
00011000
00000000
00000000
00010000
,
00100000
00000000
00000000
00000000
,
10000000
00000000
00000000
01000000
,
00020000
00030000
00000000
00000000
,
00001000
00000000
00000000
00000100
,
00000002
00000003
00000000
00000000
,
00000010
00000000
00000000
00001000
,
00010000
00000000
00011000
00011000
,
00011000
00000000
00000000
00001000
,
00000100
00000000
00000000
00000010
,
00001000
00000000
00000000
00000001
,
00000010
00000000
00000000
00000100
,
00000010
00000000
00000000
00000000
,
00001000
00000000
00000000
00000000
,
00010000
00000000
00100000
00000000
,
10000000
00000000
00000000
00000000
,
00010000
00100000
00010000
00000000
,
10000000
00000000
00010000
00000000
,
10000000
01000000
10000000
00000000
,
00010000
00000000
00100000
00000000
,
00001000
00010000
00001000
00000000
,
00010000
00000000
00000100
00000000
,
00000010
00000100
00000010
00000000
,
00000001
00000000
00001000
00000000
,
00000001
00000001
00000001
00000000
,
00000100
00000000
00001000
00000000
,
00010000
00010000
00010000
00000000
,
01000000
00000000
10000000
00000000
,
00100000
00100000
00100000
00000000
,
00010000
00000000
00001000
00000000
,
00000010
00000010
00000010
00000000
,
00000001
00000000
00001000
00000000
,
00011000
00000000
00000000
00010000
,
00200000
00300000
00000000
00000000
,
10000000
00000000
00000000
01000000
,
00020000
00030000
00000000
00000000
,
00001000
00000000
00000000
00000100
,
00000002
00000003
00000000
00000000
,
00000010
00000000
00000000
00001000
,
00020000
00030000
00000000
00000000
,
00001000
00010000
00001000
00000000
,
00010000
00000000
00100000
00000000
,
10000000
00010000
10000000
00000000
,
01000000
00000000
00010000
00000000
,
00001000
00010000
00001000
00000000
,
00000100
00000000
00000001
00000000
,
00001000
00000001
00001000
00000000
,
00000010
00000000
00000100
00000000
,
00000001
00000001
00000001
00000000
,
00000010
00000000
00000100
00000000
,
00001000
00000000
00010000
00000000
,
00100000
00000000
01000000
00000000
,
10000000
10000000
10000000
00000000
,
01000000
00000000
00100000
00000000
,
00010000
00000000
00001000
00000000
,
00000100
00000000
00000020
00000000
,
00000030
00000000
00000000
00000000
;

//---------------dance-double - ----------------
#NOTEDATA:;
#CHARTNAME:;
#STEPSTYPE:dance-double;
#DESCRIPTION:;
#CHARTSTYLE:;
#DIFFICULTY:Medium;
#METER:5;
#RADARVALUES:0.312949,0.334135,0.057433,0.114865,0.004102,267.000000,260.000000,7.000000,14.000000,0.000000,0.000000,0.000000,0.000000,0.000000,0.312949,0.334135,0.057433,0.114865,0.004102,267.000000,260.000000,7.000000,14.000000,0.000000,0.000000,0.000000,0.000000,0.000000;
#CREDIT:K. Pearman;
#NOTES:
00000000
00000000
00000000
00000000
,
00000000
00000000
00000000
00000000
,
00000000
00000000
00000000
00000000
,
00000000
00000000
00000000
00000000
,
00000001
00000001
00001000
00001000
,
00010000
00010000
10000000
10000000
,
01000000
00010000
00001000
00000100
,
00000010
00001000
00000001
00000000
,
00000010
00000010
00001000
00001000
,
00010000
00010000
00100000
00100000
,
01000000
00010000
00001000
00000100
,
00001000
00010000
01000000
00010000
,
00110000
00100000
00010000
00010000
,
01000000
00001000
00010000
00000000
00000100
00000000
00000100
00000000
,
00000110
00000000
00000010
00000001
,
00001000
00000100
00001000
00000000
00000001
00000000
00000001
00000010
,
00000100
00000100
00001000
00000000
,
00001000
00010000
01000000
00100000
,
10000000
00010000
20000000
00000000
01000000
00000000
31000000
00000000
,
00020000
01000000
01030000
01010000
,
10010000
10000000
01000000
00010000
,
00001000
00000000
00000000
00000100
00000000
00000001
00000000
00000100
,
00000000
00001000
00010000
01000000
,
10000000
00010000
00100000
00010000
,
01000000
10000000
01000000
00000000
,
01000000
00000000
00010000
00000000
01000000
00000000
00100000
10000000
,
00020000
00100000
10030000
20000000
,
00100000
30010000
10010000
00000000
,
10000000
00010000
00001000
00000010
,
00000100
00000010
00000100
00000000
,
00000001
00001000
00010000
00100000
,
01000000
00100000
01000000
00000000
,
00100000
00001000
00010000
00000010
,
00010000
00001000
00010000
00000000
00000100
00000000
00010000
00000000
,
00000100
00010000
00001000
01000000
,
00001000
00010000
00001000
00000000
00100000
00000000
00001000
00000000
,
00010000
00001000
00000100
00000001
,
00001000
00000001
00001000
00000000
00000001
00001000
00000001
00000000
,
00001000
00010000
00100000
01000000
,
10000000
00010000
10000000
00000000
00010000
10000000
00010000
00000000
,
10000000
00100000
00010000
00010000
,
00001000
00000010
00000001
00000001
,
00001000
00000001
00000100
00001000
,
00010000
00000000
01000000
00000000
10000000
00000000
00010000
10000000
,
02000000
00000000
13000000
00010000
,
02000000
00000000
03001000
00010000
,
00000200
00000000
00001300
00000001
,
00000200
00000000
00000310
00001000
,
00000001
00000000
00000001
00000010
00000100
00000000
00001000
00000000
,
00000010
00000000
00010000
00000000
00001000
00100000
00010000
00000000
,
01020000
10000000
01000000
10030000
,
21000000
00010000
01000000
30010000
,
10000000
00010000
00001000
00000001
,
00000100
00000010
00000100
00000010
,
00000001
00001000
00010000
10000000
,
00100000
01000000
00100000
01000000
,
10000000
00100000
00010000
00001000
,
00000100
00000001
00000010
00000001
,
00000010
00001000
00010000
01000000
,
10000000
00000000
00100000
00000000
00010000
00000000
00100000
10000000
,
00010000
00010000
20000000
00000000
,
31000000
00100000
01000000
00000000
00010000
00000000
00001000
00000000
,
00000100
00000001
00002000
00000000
,
00003010
00000100
00000010
00000000
00001000
00000000
00000001
00000000
,
00000010
00001000
00020000
00000000
,
00130000
01000000
00100000
00000000
10000000
00000000
00010000
00000000
,
00001000
00000100
00000020
00000000
,
00000031
00000000
00001000
00000000
00000001
00000000
00000000
00000000
00000100
00000000
00000000
00000100
00000000
00000000
00000100
00000000
;

//---------------dance-double - ----------------
#NOTEDATA:;
#CHARTNAME:;
#STEPSTYPE:dance-double;
#DESCRIPTION:;
#CHARTSTYLE:;
#DIFFICULTY:Hard;
#METER:7;
#RADARVALUES:0.434847,0.445513,0.098456,0.065637,0.008205,371.000000,359.000000,12.000000,8.000000,0.000000,0.000000,0.000000,0.000000,0.000000,0.434847,0.445513,0.098456,0.065637,0.008205,371.000000,359.000000,12.000000,8.000000,0.000000,0.000000,0.000000,0.000000,0.000000;
#CREDIT:K. Pearman;
#NOTES:
00000000
00000000
00000000
00000000
,
00000000
00000000
00000000
00000000
,
00000000
00000000
00000000
00000000
,
00000000
00000000
00000000
00000000
,
00001000
00010000
00001000
00000000
00000100
00000000
00000001
00000000
,
00001000
00000001
00001000
00000000
00000001
00000000
00000010
00000000
,
00001000
00000000
00010000
00000000
00100000
01000000
00100000
00000000
,
00010000
00000000
00001000
00000000
00000100
00000010
00000100
00000000
,
00000001
00001000
00000001
00000000
00000010
00000000
00001000
00000000
,
00010000
00100000
00010000
00000000
00100000
00000000
10000000
00000000
,
01000000
00100000
01000000
00000000
00010000
00000000
00001000
00000000
,
00000100
00000010
00000100
00000000
00001000
00000000
00010000
00000000
,
01200000
00000000
10000000
00000000
00010000
00000000
10300000
01000000
,
00010000
00000000
01000000
00000000
10000000
00000000
00100000
01000000
,
10010000
00000000
10000000
00000000
01000000
00000000
00010000
00001000
,
00000200
00000000
00000001
00000000
00001000
00000000
00000301
00000010
,
00000110
00000000
00000010
00000000
00000100
00000000
00001000
00000010
,
00001000
00000000
00000001
00000000
00000100
00000000
00000001
00000100
,
00000020
00000000
00000001
00000000
00001000
00000000
00000031
00000010
,
00001000
00000001
00000011
00001100
,
00011000
00000000
00001000
00010000
00000000
00100000
10000000
00010000
,
00000000
10000000
01000000
00100000
00000000
01000000
00100000
00010000
,
01000000
00000000
00001000
00000000
00010000
00000100
00001000
00000000
,
00000001
00000100
00000010
00001000
00000000
00000001
00000010
00000100
,
00002000
00000010
00000100
00003002
,
00000010
00000000
00000100
00000000
00001003
00000000
00000010
00000100
,
00001001
00000000
00000100
00000000
00000100
00000000
00000010
00000100
,
00001001
00000001
00001000
00000001
,
00001000
00000010
00000001
00000010
00001000
00000000
00000100
00001000
,
00000100
00000000
00010000
00001000
00010000
00000000
00001000
00000000
,
01000000
10000000
01000000
00010000
01000000
00000000
00100000
10000000
,
00010000
00100000
01000000
10010000
,
10000000
01000000
00010000
01000000
10000000
00000000
01000000
00000000
,
00010000
00001000
00010000
00000000
00001000
00000100
00000001
00000000
,
00000100
00000010
00000100
00000001
00001000
00000000
00000001
00000010
,
00001000
00000000
00000000
00000000
00000010
00000000
00000000
00000000
00000011
00000000
00000000
00001100
00000000
00000000
00000010
00000000
,
00001001
00000000
00000001
00000000
00000100
00000010
00000100
00000000
,
00001000
00000000
00010000
00000000
01000000
00100000
01000000
00000000
,
10000000
00000000
00100000
00000000
00010000
00001000
00000010
00000000
,
00001000
00000000
00010000
00000000
00100000
00010000
00001000
00000000
,
00000100
00000000
00000001
00000000
00001000
00000001
00000010
00000000
,
00000100
00000000
00010000
00000000
00001000
00010000
01000000
00000000
,
00100000
00000000
00010000
00000000
10000000
00100000
01000000
00000000
,
00001000
00000000
00010000
00000000
00000100
00010000
00001000
00000100
,
00000001
00000000
00001000
00000001
00000000
00000010
00000001
00001000
,
00000000
00000100
00001000
00000010
00000000
00010000
00001000
00100000
,
00020000
00000000
10030000
00000000
00100000
01000000
00000000
00010000
,
10000000
01000000
00000000
00010000
00001000
00000100
00000001
00001000
,
00000200
00000000
00000001
00000000
00001000
00000000
00000310
00000001
,
00001000
00000000
00000010
00000000
00000100
00000010
00001000
00000001
,
00000020
00000000
00000001
00000000
00001000
00000000
00000031
00000010
,
00000100
00001000
00000100
00000010
00000100
00010000
00001000
00010000
,
00100000
01000000
00010000
01000000
00100000
00000000
10000000
00000000
,
00010000
10000000
00010000
00000000
00100000
01000000
00100000
00000000
,
01000000
10000000
00100000
10000000
01000000
00000000
00010000
00000000
,
00001000
00010000
00000100
00010000
00001000
00000100
00000001
00000000
,
00001000
00000100
00000010
00000100
00001000
00000000
00000001
00000000
,
00000010
00000100
00000001
00000000
00000100
00000010
00000001
00000000
,
00000010
00000001
00000100
00001000
00010000
00000000
00001000
00010000
,
00100000
00000000
01000000
00010000
10000000
00010000
01000000
00000000
,
00100000
10000000
01000000
10000000
00010000
10000000
01000000
00000000
,
00010000
00001000
00010000
00000000
00001000
00010000
00001000
00000000
,
00000100
00000001
00000010
00001000
00000010
00000001
00000100
00000000
,
00000010
00001000
00000100
00000000
00010000
00001000
00100000
00000000
,
00001000
00010000
00000010
00010000
00001000
00000000
00010000
00100000
,
01000000
00000000
00010000
10000000
01000000
00000000
00010000
00000000
,
00001000
00010000
00001000
00000100
00000001
00000000
00001000
00000001
,
00000010
00000000
00000100
00000000
00001000
00000000
00010000
00000000
00100000
00000000
00000000
01000000
00000000
00000000
10000000
00000000
;

//---------------dance-double - ----------------
#NOTEDATA:;
#CHARTNAME:;
#STEPSTYPE:dance-double;
#DESCRIPTION:;
#CHARTSTYLE:;
#DIFFICULTY:Challenge;
#METER:9;
#RADARVALUES:0.568466,0.612580,0.147684,0.287163,0.106661,485.000000,467.000000,18.000000,35.000000,0.000000,0.000000,0.000000,0.000000,0.000000,0.568466,0.612580,0.147684,0.287163,0.106661,485.000000,467.000000,18.000000,35.000000,0.000000,0.000000,0.000000,0.000000,0.000000;
#CREDIT:K. Pearman;
#NOTES:
00000000
00000000
00000000
00000000
,
00000000
00000000
00000000
00000000
,
00000000
00000000
00000000
00000000
,
00000000
00000000
00000000
00000000
,
00100000
00010000
10000000
00000000
00100000
00000000
01000000
00000000
00100000
00000000
10000000
00000000
01000000
00000000
00010000
00000000
,
00000100
00001000
00000001
00000000
00000100
00000000
00000010
00000000
00010000
00000000
00001000
00000000
01000000
00000000
10000000
00000000
,
01000000
00010000
00100000
00000000
01000000
10000000
00100000
00000000
01000000
00000000
00001000
00000000
00010000
00000000
00000100
00000000
,
00000010
00000001
00000100
00000000
00000010
00001000
00000100
00000000
00000010
00000000
00001000
00000000
00010000
00000000
00100000
00000000
,
10000000
01000000
00100000
00000000
01000000
00000000
10000000
00000000
10000000
00000000
01000000
00000000
00010000
00000000
00000010
00000000
,
00000100
00000001
00001000
00000000
00000001
00000000
00000010
00000000
00000100
00000000
00010000
00000000
00100000
00000000
01000000
00000000
,
00100000
10000000
01000000
00000000
00100000
00010000
01000000
00000000
00100000
00000000
00010000
00000000
00001000
00000000
00000010
00000000
,
00000100
00001000
00000010
00000000
00000100
00000001
00000010
00000000
00000100
00000000
00010000
00000000
00001000
00000000
01000000
00100000
,
10000000
02000000
00000000
03020000
00001000
00030200
00000000
00000320
,
00001000
00020030
00000000
00230000
01000000
00302000
00000000
00013000
,
00001100
00000000
00000000
00000010
00000001
00000200
00000010
00002300
,
00000000
00023000
00001000
02030000
00000000
23000000
00000000
30010000
,
00110000
00000000
00010000
01000000
00001000
00010000
00000100
00000011
,
00000000
00001100
00000100
00010000
00001000
00100000
01000000
00000000
,
02200000
00000000
00000000
00000000
03300000
00000000
20000000
00020000
,
00000000
30030000
00110000
00001100
,
00011000
00002000
00000000
00003200
00000000
00000301
00000020
00001000
,
00000000
00001030
00020000
00100000
00000000
00130000
10000000
02000000
,
00010000
00000000
13000000
00100000
00010000
00001000
00100000
02000000
,
00000000
03010000
00001000
00000200
00000000
00000301
00000010
00001000
,
00020000
00000000
00000100
00000000
00001000
00000000
00030100
00001000
,
00020000
00000000
00001000
00000000
00100000
00000000
00031000
00000100
,
00020000
00000000
02030000
00000000
03200000
00000000
00310000
10000000
,
00100000
01000000
00010000
00000000
10000000
00100000
01000000
00000000
00010000
00100000
01000000
00000000
00100000
01000000
10000000
00000000
,
10000000
10000000
00010000
00010000
00001000
00001000
00000001
00000010
,
00000100
00001000
00000001
00000100
00000010
00001000
00001001
00000000
,
00000001
00000001
00001000
00001000
00010000
00010000
10000000
00100000
,
01000000
00010000
10000000
01000000
00100000
00010000
10010000
00000000
,
10000000
10000000
01000000
01000000
00001000
00001000
00000100
00000010
,
00000001
00000100
00001000
00000100
00000001
00001000
00000001
00000000
,
00000001
00000001
00000100
00000100
00010000
00010000
01000000
00100000
,
10000000
00000000
00010000
00000000
10000000
00000000
01000000
00000000
00100000
00000000
00000000
01010000
00000000
00000000
11000000
00000000
,
10000000
01000000
10000000
01000000
00010000
01000000
00010000
01000000
,
10000000
00100000
00010000
00001000
00000010
00000001
00001000
00000000
,
00000001
00000100
00000001
00000100
00001000
00000100
00001000
00000100
,
00000001
00000010
00001000
00010000
00100000
10000000
00010000
00000000
,
10000000
01000000
00100000
00000000
01000000
00000000
00010000
00000000
00001000
00000000
00000100
00000000
00000001
00000000
00001000
00000000
,
00000001
00000100
00000010
00000000
00001000
00000000
00000001
00000000
00000010
00000000
00001000
00000000
00010000
00000000
00100000
00000000
,
10000000
01000000
00100000
00000000
01000000
00000000
10000000
00000000
01000000
00000000
00010000
00000000
00001000
00000000
00000100
00000000
,
00000001
00000100
00000010
00000000
00000100
00000000
00000001
00000000
00000010
00000000
00001000
00000000
00010000
00000000
00001000
00000000
,
00011000
00020000
00000000
00130000
10000000
02000000
00000000
03010000
,
01000000
20000000
00000000
30100000
00010000
00001000
00000010
00000001
,
00000200
00000000
00001000
00000000
00000301
00000010
00001000
00020000
,
00000000
00100000
00000000
00001000
00000000
00130000
00001000
00000100
,
00000020
00000000
00010000
00000000
00000100
00000000
00010030
00000010
,
00002000
00000000
00000100
00000000
00010000
00000000
00003100
00001000
,
00010000
00100000
10000000
00010000
10000000
01000000
00010000
00001000
,
00000100
00000000
00000001
00000000
00001000
00000000
00000001
00000000
00000010
00000100
00001000
00000001
00000100
00000010
00000100
00000000
,
00000001
00000001
00001000
00001000
00010000
00010000
10000000
00100000
,
00010000
10000000
01000000
00010000
10000000
00000000
10010000
00000000
,
10000000
10000000
00010000
00010000
00001000
00001000
00000001
00000010
,
00001000
00000001
00000100
00001000
00000001
00000000
00001001
00000000
,
00000001
00000001
00000100
00000100
00010000
00010000
01000000
00100000
,
10000000
01000000
00010000
01000000
10000000
00100000
10000000
00000000
,
10000000
10000000
01000000
01000000
00001000
00001000
00000010
00000001
,
00000100
00001000
00000100
00000001
00000010
00000100
00001100
00000000
,
00000001
00000001
00001000
00001000
00010000
00010000
00100000
01000000
,
10000000
01000000
00010000
01000000
00100000
00010000
10000000
00000000
,
10000000
10000000
00010000
00010000
00001000
00001000
00000001
00000100
,
00000010
00000100
00001000
00000100
00000001
00001000
00000001
00000000
,
00000001
00000001
00000010
00000010
00010000
00100000
01000000
10000000
,
00100000
00010000
00100000
10000000
01000000
00010000
01000000
00000000
,
10000000
10000000
00010000
00010000
00000010
00000001
00000100
00001000
,
00000100
00000000
00000001
00000000
00001000
00000000
00000100
00000000
00000010
00000000
00000000
00001100
00000000
00000000
00000101
00000000
;
