#VERSION:0.83;
#TITLE:1,2,3,4 007;
#SUBTITLE:;
#ARTIST:NiNi;
#TITLETRANSLIT:;
#SUBTITLETRANSLIT:;
#ARTISTTRANSLIT:;
#GENRE:;
#ORIGIN:;
#CREDIT:;
#BANNER:1234-007-bn.png;
#BACKGROUND:1234-007-bg.png;
#PREVIEWVID:;
#JACKET:1234-007-jacket.png;
#CDIMAGE:;
#DISCIMAGE:;
#LYRICSPATH:;
#CDTITLE:;
#MUSIC:1234 007 - NiNi.ogg;
#OFFSET:0.009000;
#SAMPLESTART:54.620998;
#SAMPLELENGTH:13.241000;
#SELECTABLE:YES;
#BPMS:0.000=145.000;
#STOPS:;
#DELAYS:;
#WARPS:;
#TIMESIGNATURES:0.000=4=4;
#TICKCOUNTS:0.000=4;
#COMBOS:0.000=1;
#SPEEDS:0.000=1.000=0.000=0;
#SCROLLS:0.000=1.000;
#FAKES:;
#LABELS:0.000=Song Start;
#BGCHANGES:;
#KEYSOUNDS:;
#ATTACKS:
;

//---------------dance-single - K. Pearman----------------
#NOTEDATA:;
#CHARTNAME:K. Pearman;
#STEPSTYPE:dance-single;
#DESCRIPTION:K. Pearman;
#CHARTSTYLE:;
#DIFFICULTY:Beginner;
#METER:1;
#RADARVALUES:0.108453,0.209770,0.047947,0.047947,0.000000,95.000000,89.000000,6.000000,6.000000,0.000000,0.000000,0.000000,0.000000,0.000000,0.108453,0.209770,0.047947,0.047947,0.000000,95.000000,89.000000,6.000000,6.000000,0.000000,0.000000,0.000000,0.000000,0.000000;
#CREDIT:K. Pearman;
#NOTES:
0000
0000
0000
0000
,
0000
0000
0000
0000
,
0000
0000
0000
0000
,
0000
0000
0000
0000
,
0000
0000
0000
0000
,
0000
0000
0000
0000
,
0000
0000
0000
0000
,
0000
0000
0000
0000
,
1001
0000
0000
0000
,
0010
0000
0010
0000
,
0010
0000
0000
0000
,
0100
0000
0000
0000
,
0001
0000
0000
0000
,
0010
0000
0010
0000
,
0010
0000
0000
0000
,
0100
0000
0000
0000
,
1000
0000
0000
0000
,
0001
0001
0000
0000
,
0100
0000
0000
0000
,
1000
1000
0000
0000
,
0100
0000
0000
0000
,
0001
0001
0000
0000
,
0010
0000
0000
0000
,
1000
1000
0000
0000
,
0010
0000
0000
0000
,
1000
0000
0000
0000
,
0001
0000
0000
0000
,
0100
0000
0100
0000
,
0000
0000
0000
0000
,
0001
0000
0000
0000
,
1000
0000
0000
0000
,
0100
0000
0100
0000
,
0000
0000
0000
0000
,
1001
0000
0000
0000
,
0010
0010
0010
0000
,
1000
0000
0000
0000
,
0001
0000
0000
0000
,
1001
0000
0000
0000
,
0100
0100
0100
0000
,
1000
0000
0000
0000
,
0001
0000
0000
0000
,
0110
0000
0000
0000
,
0001
0000
0010
0000
,
1000
0000
0000
0000
,
1000
0000
0100
0000
,
0001
0000
0000
0000
,
1000
0000
0100
0000
,
1000
0000
0000
0000
,
0001
0000
0010
0000
,
0001
0000
0000
0000
,
0100
0100
0000
0000
,
0010
0000
0010
0000
,
0000
0000
0000
0000
,
1000
1000
0000
0000
,
1000
1000
0000
0000
,
0001
0000
0001
0000
,
0000
0000
0000
0000
,
0020
0000
0000
0000
,
0030
0000
0000
0000
,
0200
0000
0000
0000
,
0300
0000
0000
0000
,
0002
0000
0000
0000
,
0003
0000
0000
0000
,
2000
0000
0000
0000
,
3000
0000
0000
0000
,
1001
0000
0010
0000
,
0001
0001
0001
0000
,
0010
0000
1000
0000
,
0100
0000
0100
0000
,
0010
0000
0100
0000
,
1000
1000
1000
0000
,
0010
0000
0100
0000
,
0001
0000
1000
0000
,
2002
0000
0000
0000
,
0000
0000
0000
0000
,
3003
0000
0000
0000
;

//---------------dance-single - K. Pearman----------------
#NOTEDATA:;
#CHARTNAME:K. Pearman;
#STEPSTYPE:dance-single;
#DESCRIPTION:K. Pearman;
#CHARTSTYLE:;
#DIFFICULTY:Easy;
#METER:3;
#RADARVALUES:0.202064,0.266108,0.135851,0.111877,0.000000,177.000000,160.000000,17.000000,14.000000,0.000000,0.000000,0.000000,0.000000,0.000000,0.202064,0.266108,0.135851,0.111877,0.000000,177.000000,160.000000,17.000000,14.000000,0.000000,0.000000,0.000000,0.000000,0.000000;
#CREDIT:K. Pearman;
#NOTES:
0000
0000
0000
0000
,
0000
0000
0000
0000
,
0000
0000
0000
0000
,
0000
0000
0000
0000
,
0000
0000
0000
0000
,
0000
0000
0000
0000
,
0000
0000
0000
0000
,
0000
0000
0000
0000
,
1001
0000
0000
0000
,
1001
0001
0100
0000
,
0010
0000
0000
0000
,
2000
0000
3001
0000
,
0002
0000
1003
0000
,
1000
1000
0100
0000
,
0010
0000
0100
0000
,
2000
0000
3001
0000
,
0002
0000
1003
0000
,
1001
0000
0010
0000
,
1000
0100
1000
0000
,
0010
0000
0100
0000
,
0100
0000
0001
1000
,
0001
0000
0010
0000
,
0100
0000
0010
0000
,
0001
0100
0001
0000
,
1000
0000
0100
0100
,
1001
0000
0010
0000
,
0100
0000
0010
0100
,
0110
0000
1001
0000
,
0000
0000
0000
0000
,
0001
0000
0010
0000
,
0100
0000
1000
0001
,
1001
0000
0110
0000
,
0000
0000
0000
0010
,
1000
0100
1000
0100
,
0010
0010
1001
0000
,
0001
0000
0100
0000
,
1000
0000
0100
0000
,
0001
0100
0001
0100
,
0000
0110
1001
0000
,
0001
0010
0001
0000
,
1000
0010
1000
0000
,
0002
0013
0100
0000
,
1000
0001
1000
0000
,
2000
3010
0100
0000
,
0001
1000
0001
0000
,
0200
0300
0010
1000
,
0002
0003
0010
0100
,
2000
3000
0010
0100
,
0010
1000
0001
0010
,
0100
0100
0010
0010
,
0001
1000
0001
1000
,
0020
0000
0130
0000
,
0100
0001
1000
0000
,
0001
1000
0100
1000
,
0001
0010
0100
1000
,
0002
0000
1003
0000
,
0000
0000
0000
0000
,
1001
0000
0000
0000
,
0010
0100
0001
0000
,
1000
0000
0000
0000
,
0001
0000
0000
0000
,
0010
0000
0010
0000
,
0000
0110
1001
0000
,
0001
0000
1000
0000
,
0200
0000
0000
0300
,
1000
0100
1000
0100
,
0010
0010
0001
0000
,
0001
0000
0100
0000
,
1000
0000
0100
0000
,
0001
0100
0001
0100
,
0000
0110
1001
0000
,
0001
0000
1000
0000
,
0100
0010
0100
0000
,
2002
0000
0000
0000
,
3003
0000
0000
0000
;

//---------------dance-single - K. Pearman----------------
#NOTEDATA:;
#CHARTNAME:K. Pearman;
#STEPSTYPE:dance-single;
#DESCRIPTION:K. Pearman;
#CHARTSTYLE:;
#DIFFICULTY:Medium;
#METER:4;
#RADARVALUES:0.269419,0.325244,0.167816,0.151834,0.000000,236.000000,215.000000,21.000000,19.000000,0.000000,0.000000,0.000000,0.000000,0.000000,0.269419,0.325244,0.167816,0.151834,0.000000,236.000000,215.000000,21.000000,19.000000,0.000000,0.000000,0.000000,0.000000,0.000000;
#CREDIT:K. Pearman;
#NOTES:
0000
0000
0000
0000
,
0000
0000
0000
0000
,
0000
0000
0000
0000
,
0000
0000
0000
0000
,
0000
0000
0000
0000
,
0000
0000
0000
0000
,
0000
0000
0000
0000
,
0000
0000
0000
0000
,
2200
0000
0000
3300
,
1000
0001
1000
0100
,
0001
0100
1000
0000
,
0000
0001
0010
0000
0001
0000
1000
0000
,
0000
1000
0010
0000
1000
0000
0001
0000
,
0100
0010
0100
0001
,
0100
0010
0100
0001
,
0000
1000
0100
0000
0010
0000
0100
0000
,
0000
0001
0100
0000
0010
0000
0100
0000
,
1001
0000
0001
0100
,
0010
0100
0001
1000
,
0000
1000
0100
0010
,
0100
1000
0001
0000
,
0010
0001
0100
1000
,
0100
0001
0010
0000
,
0010
0100
1000
0100
,
0001
0100
0010
0001
,
1001
1001
0010
0000
,
1000
0000
0100
0000
,
0012
0000
2003
0000
,
3010
0100
0001
1000
,
0001
0001
0100
0100
,
0001
0100
0010
1000
,
2100
0000
3002
0000
,
0203
0000
0310
0000
,
0100
0010
1000
0001
,
1100
0101
1001
0000
,
0001
0001
1000
1000
,
0010
0100
0010
0000
,
1000
1000
0001
0001
,
0000
1100
0101
0000
,
0100
0010
1000
0100
,
0001
0010
1000
0001
,
0100
0100
0010
0010
,
1000
0100
0010
0001
,
0000
1000
0100
0000
1000
0000
0001
0000
,
0000
0001
0100
0000
0001
0000
1000
0000
,
0000
1000
1000
0010
,
0100
0001
0001
0010
,
0000
0100
1000
0000
0010
0000
0100
0000
,
0000
0100
0001
0000
0010
0000
0100
0000
,
1001
1000
0001
0100
,
0100
0001
1000
0001
,
0200
0000
0320
0000
,
1030
0001
1000
0100
,
0010
0100
1000
0001
,
0010
0100
0010
0001
,
0200
0000
0320
0000
,
1030
0000
0001
0000
1000
0001
1000
0000
,
2002
0000
3003
0000
,
0200
0000
0300
0000
,
0020
0000
0030
0000
,
2000
0000
3000
0000
,
0002
0000
0003
0000
,
0000
1100
0101
0000
,
0100
0010
0100
0010
,
1000
0001
1000
0000
,
0010
0010
1000
1000
,
0101
1100
1001
0000
,
0001
0001
0010
0010
,
0100
1000
0001
1000
,
0100
0010
0001
1000
,
0000
1100
0101
0000
,
0010
1000
0001
0100
,
1000
0100
0001
0010
,
2002
0000
0000
0000
,
3003
0000
0000
0000
;

//---------------dance-single - K. Pearman----------------
#NOTEDATA:;
#CHARTNAME:K. Pearman;
#STEPSTYPE:dance-single;
#DESCRIPTION:K. Pearman;
#CHARTSTYLE:;
#DIFFICULTY:Hard;
#METER:6;
#RADARVALUES:0.424677,0.502649,0.471483,0.063930,0.000000,372.000000,313.000000,59.000000,8.000000,0.000000,0.000000,0.000000,0.000000,0.000000,0.424677,0.502649,0.471483,0.063930,0.000000,372.000000,313.000000,59.000000,8.000000,0.000000,0.000000,0.000000,0.000000,0.000000;
#CREDIT:K. Pearman;
#NOTES:
0000
0000
0000
0000
,
0000
0000
0000
0000
,
0000
0000
0000
0000
,
0000
0000
0000
0000
,
1000
0000
0001
0000
0100
0010
0100
0000
,
0000
1001
0110
0000
,
0001
0000
0010
0100
0000
0010
0001
0000
,
1000
0000
0010
0100
0000
0010
1000
0000
,
0202
0000
0000
0303
,
0001
0100
0001
0000
1000
0000
0010
0000
,
1000
0100
1000
0000
0001
0000
0010
0000
,
0000
0100
1000
0000
0001
0000
1000
0001
,
0000
1000
0010
0000
0100
0000
0001
1000
,
0001
0100
0001
0000
1000
0000
0100
0000
,
1000
0010
1000
0000
0001
0000
0010
0000
,
0000
0100
1000
0000
0001
0000
0100
0010
,
0000
1000
0001
0000
0010
0000
0100
1000
,
0001
0101
1000
1100
,
0001
0000
0011
0000
1000
0010
0100
0000
,
0000
1000
1010
0001
,
0101
1100
1001
0000
,
0001
0011
1000
1100
,
0001
0000
0101
0000
1000
0010
0100
0000
,
0000
1000
1010
0001
,
0011
1000
1100
0101
,
1001
0000
0001
0000
0010
0000
0100
1000
,
0100
0000
0010
0000
0001
0100
0010
0000
,
0200
1000
0001
1300
,
0100
0001
1000
0000
0100
1000
0001
0000
,
0010
0000
0001
0000
1000
0000
0100
0010
,
0100
0000
1000
0000
0001
1000
0100
0000
,
0020
1000
0001
1030
,
0010
0001
0100
0000
0010
1000
0100
0000
,
1100
0101
0011
1010
,
0110
1001
0110
0100
,
0010
0000
0001
1000
0001
1000
0001
0000
,
0100
0000
0010
1000
0001
1000
0100
0000
,
1100
0000
0011
0000
0001
0100
1000
0000
,
0100
0101
1010
0010
,
1000
0001
0100
0000
0010
0000
1000
0000
,
0001
0010
0100
0000
1000
0000
0001
0000
,
1000
0100
1000
0001
0010
0000
0100
0000
,
0010
0001
1000
0001
0100
0000
0010
0000
,
1000
0100
1000
0000
0011
0000
1100
0000
,
0001
0100
0001
0000
1010
0000
0101
0000
,
1000
0010
1000
0001
1000
0000
0100
0000
,
0010
0001
1000
0001
0100
0000
0010
0000
,
1000
0100
1000
0000
0011
0000
1100
0000
,
0001
0100
0001
0000
1010
0000
0101
0000
,
1000
0000
0001
0000
0100
0000
1000
0100
,
0001
0000
1000
0000
0001
0010
1000
0000
,
0020
0001
1000
0031
,
0011
1100
0101
1010
,
0001
0000
0100
0000
1000
0000
0100
0001
,
0010
0000
0100
0000
1000
0100
0001
0000
,
0200
1000
0001
1300
,
0011
1100
0101
1010
,
0001
1000
0001
1000
,
0010
0000
0010
0000
0100
0010
0000
0000
,
1000
0000
0001
0000
,
0100
0010
1000
0000
,
0001
0010
0100
1000
,
0000
1100
0011
0000
,
1000
0000
0001
0100
0000
0100
0000
0000
,
0001
0000
1000
0100
1000
0000
0000
0000
,
0011
0101
1010
1100
,
0110
1001
0110
0010
,
1000
0000
0001
0100
0001
0000
1000
0000
,
0001
0000
0010
0100
0010
0000
0001
0000
,
1100
0000
0011
0000
0001
0100
1000
0000
,
0100
0101
1010
1000
,
0001
0010
0100
0000
0010
0000
0001
0000
,
1000
0010
0100
0000
0010
0000
1000
0000
,
2200
0000
0000
0000
,
3300
0000
0000
0000
;

//---------------dance-single - K. Pearman----------------
#NOTEDATA:;
#CHARTNAME:K. Pearman;
#STEPSTYPE:dance-single;
#DESCRIPTION:K. Pearman;
#CHARTSTYLE:;
#DIFFICULTY:Challenge;
#METER:8;
#RADARVALUES:0.567378,0.591352,0.359606,0.023974,0.135851,497.000000,452.000000,45.000000,3.000000,0.000000,0.000000,0.000000,0.000000,0.000000,0.567378,0.591352,0.359606,0.023974,0.135851,497.000000,452.000000,45.000000,3.000000,0.000000,0.000000,0.000000,0.000000,0.000000;
#CREDIT:K. Pearman;
#NOTES:
0000
0000
0000
0000
,
0000
0000
0000
0000
,
0000
0000
0000
0000
,
0000
0000
0000
0000
,
0001
0010
0001
0000
1000
0100
1000
0000
,
0000
0110
1001
0000
,
0001
0000
0100
0010
1000
0001
1000
0000
,
0100
0000
0010
0001
1000
0001
0100
0000
,
0220
0000
0000
0330
,
1001
0001
0100
0000
0010
1000
0100
0000
,
0010
0001
1000
0001
0010
0100
1000
0000
,
0001
0000
0100
0000
0010
0000
0100
0000
0001
0000
1000
0100
0000
1000
0100
0000
,
0000
0000
0010
0000
0001
0000
1000
0000
0100
0000
0010
0001
0000
0010
0001
0000
,
1000
0010
0100
0000
0001
1000
0001
0000
,
0010
0100
1000
0000
0001
0100
0001
0000
,
1000
0000
0100
0000
0010
0000
0001
0000
1000
0000
0010
0100
0000
0010
1000
0000
,
0000
0000
0001
0000
0100
0000
0010
0000
1000
0000
0001
0100
0000
0010
0100
0000
,
0101
0000
0001
0000
1000
0100
1000
0000
,
0001
0010
0100
1000
0010
0010
0100
0100
,
0010
0000
1000
0001
0100
0001
0000
0011
,
0000
0000
1001
0000
0000
0000
1000
0000
0100
0000
0010
0000
0100
0000
1000
0001
,
1000
0000
0010
1000
0001
0100
0000
0101
,
0000
0110
0000
1010
0000
0010
1000
0001
,
0100
1000
0100
0001
1000
0100
0001
0100
,
1000
0000
0001
0000
0010
0000
0100
0000
1000
0000
0010
0000
0100
0000
0001
1000
,
0010
0000
1010
0000
0101
0000
0001
0100
,
0000
0010
0100
0001
0000
1000
0100
0010
,
0001
0000
0000
0001
0100
0000
0010
0000
1000
0000
0000
1000
0100
0000
0010
0000
,
0001
1000
0010
1000
0001
0010
0100
1000
,
0001
0000
0101
0000
1100
0000
1000
0100
,
0000
0010
0100
1000
0100
0001
0100
0000
,
0010
0000
0000
0010
0001
0000
1000
0000
0010
0000
0000
0010
1000
0000
0001
0000
,
0100
0000
0010
0000
1000
0000
0001
0000
1000
0001
1000
0001
1000
0000
0000
0000
,
1001
1100
1001
0101
,
0010
1000
0100
0001
0010
1000
0001
0000
,
0001
0010
0001
0000
1000
0100
1000
0000
,
0001
0100
0001
0000
1000
0010
1000
0000
,
1001
1100
0101
1001
,
0010
0110
1001
0001
,
1000
0001
0100
1000
0100
0001
1000
0100
,
0010
0000
0001
0000
1000
0000
0010
0000
0001
0000
0010
0000
1000
0100
0010
0001
,
1000
0000
0100
0000
1000
0000
0100
0000
0010
0000
0000
0001
0000
0000
1000
0000
,
0010
0000
0100
0000
0001
0000
0100
0000
0010
0000
0000
1000
0000
0000
0001
0000
,
1000
0000
0100
0000
0010
0000
0001
0000
1000
0000
0010
0100
0000
0010
1000
0000
,
0001
0000
0010
0000
0100
0000
1000
0000
0001
0000
0100
0010
0000
0100
0001
0000
,
1000
0000
0100
0000
0010
0000
0100
0000
1000
0000
0000
0001
0000
0000
0010
0000
,
0100
0000
0010
0000
0001
0000
1000
0000
0010
0000
0000
0100
0000
0000
0010
0000
,
1000
0000
0001
0000
0100
0000
1000
0000
0100
0000
0001
1000
0000
0001
0100
0000
,
0010
0000
1000
0000
0001
0000
0010
0000
0100
0000
1000
0001
0000
1000
0100
0000
,
0011
0000
1001
0000
1100
0000
0100
1000
,
0010
0000
0100
0000
0010
1000
0100
0000
,
0010
0001
0010
0001
1000
0001
1000
0010
,
0100
0001
0100
1000
0100
0001
1000
0100
,
0010
0000
0001
0000
0100
0000
0010
0100
,
0001
0000
1000
0000
0001
1000
0010
0000
,
1000
0010
1000
0010
0100
0010
0100
0010
,
1000
0000
0100
0000
0010
0000
0001
0000
1000
0001
1000
0001
1000
0000
0000
0000
,
1100
0101
1010
0011
,
0110
0000
1001
0000
0001
1000
0000
0000
,
0010
0000
0100
0001
0000
0100
0010
0000
,
1000
0000
0100
0010
0000
0100
1000
0000
,
0011
0000
1100
0000
0001
0100
1000
0000
,
0100
0011
1100
0001
,
1000
0100
0010
0100
1000
0001
0010
0100
,
0010
0001
1000
0010
0100
0010
1000
0001
,
0101
1010
1100
0011
,
1000
0100
0001
0010
1000
0001
0010
0000
,
0010
0001
1000
0001
0100
0010
1000
0000
,
1000
0100
0010
0100
1000
0100
0001
0100
,
1100
0000
0011
0000
0001
0100
1000
0100
,
0001
1010
0101
0010
,
0100
0010
0100
0001
1000
0001
0010
0000
,
0100
0000
0010
0000
0100
0000
1000
0000
0001
0000
1000
0000
0010
1000
0001
1000
,
0020
0000
0000
0000
,
0030
0000
0000
0000
;

//---------------dance-double - ----------------
#NOTEDATA:;
#CHARTNAME:;
#STEPSTYPE:dance-double;
#DESCRIPTION:;
#CHARTSTYLE:;
#DIFFICULTY:Easy;
#METER:2;
#RADARVALUES:0.152975,0.205575,0.039956,0.079912,0.000000,134.000000,129.000000,5.000000,10.000000,0.000000,0.000000,0.000000,0.000000,0.000000,0.152975,0.205575,0.039956,0.079912,0.000000,134.000000,129.000000,5.000000,10.000000,0.000000,0.000000,0.000000,0.000000,0.000000;
#CREDIT:K. Pearman;
#NOTES:
00000000
00000000
00000000
00000000
,
00000000
00000000
00000000
00000000
,
00000000
00000000
00000000
00000000
,
00000000
00000000
00000000
00000000
,
00100000
00000000
00000000
00000000
,
00010000
00000000
00000000
00000000
,
01000000
00000000
00000000
00000000
,
10010000
00000000
00000000
00000000
,
00011000
00000000
00000000
00000000
,
00000010
00000000
00000001
00000000
,
00001000
00001000
00001000
00000000
,
00000010
00000000
00010000
00000000
,
00001000
00000000
00100000
00000000
,
00010000
00000000
10000000
00000000
,
01000000
01000000
01000000
00000000
,
00100000
00000000
00001000
00000000
,
00010000
00000000
00000100
00000000
,
00001001
00000000
00000000
00000000
,
00000010
00001000
00000000
00000000
,
00001000
00010000
00000000
00000000
,
00010000
00100000
00000000
00000000
,
01000000
00000000
00000000
00000000
,
00010000
00000000
00000000
00000000
,
00001000
00000000
00000000
00000000
,
00000100
00000000
00000000
00000000
,
00000100
00001000
00000001
00000000
,
00001000
00000000
00000000
00000000
,
00020000
00030000
00002000
00003000
,
00000000
00000000
00000000
00000000
,
00100000
00010000
00000000
00000000
,
10000000
01000000
00000000
00000000
,
00200000
00300000
02000000
03000000
,
00000000
00000000
00000000
00000000
,
10000000
00000000
00010000
00000000
,
01000000
00100000
01000000
00000000
,
00001000
00000000
00010000
00000000
,
00000100
00000000
00000000
00000000
,
00001000
00000000
00000001
00000000
,
00000100
00000100
00000100
00000000
,
00000001
00000000
00001000
00000000
,
00000100
00000000
00010000
00000000
,
00011000
00000000
00000000
00100000
,
01000000
00000000
00000000
00001000
,
00010000
00000000
00000000
00000010
,
00000100
00000000
00000000
00001000
,
00010000
00000000
00000000
01000000
,
00100000
00000000
00000000
00001000
,
00010000
00000000
00000000
00000100
,
00000010
00000000
00000000
00001000
,
00010000
00000000
00001000
00000000
,
00010000
00000000
00100000
01000000
,
00020000
00030000
20000000
30000000
,
00000000
00000000
01000000
00000000
,
00010000
00000000
00001000
00000000
,
00000100
00000000
00000001
00001000
,
00000200
00000300
00000020
00000030
,
00000000
00000000
00000000
00000000
,
00000001
00000000
00001000
00000000
,
00000010
00000010
00000010
00000000
,
00000100
00000000
00000000
00000000
,
00010000
00000000
00000000
00000000
,
00001000
00000000
01000000
00000000
,
00010000
00010000
00010000
00000000
,
10000000
00000000
01000000
00000000
,
00100000
00000000
00000000
00000000
,
00010000
00000000
01000000
00000000
,
00010000
10000000
00010000
00000000
,
00100000
00000000
00001000
00000000
,
00010000
00000000
00000100
00000000
,
00000010
00000000
00000001
00000000
,
00001000
00000001
00001000
00000000
,
00000010
00000000
00010000
00000000
,
00001000
00000000
01000000
00100000
,
20020000
00000000
30030000
00000000
;

//---------------dance-double - ----------------
#NOTEDATA:;
#CHARTNAME:;
#STEPSTYPE:dance-double;
#DESCRIPTION:;
#CHARTSTYLE:;
#DIFFICULTY:Medium;
#METER:4;
#RADARVALUES:0.287685,0.381782,0.191790,0.135851,0.000000,252.000000,228.000000,24.000000,17.000000,0.000000,0.000000,0.000000,0.000000,0.000000,0.287685,0.381782,0.191790,0.135851,0.000000,252.000000,228.000000,24.000000,17.000000,0.000000,0.000000,0.000000,0.000000,0.000000;
#CREDIT:;
#NOTES:
00000000
00000000
00000000
00000000
,
00000000
00000000
00000000
00000000
,
00000000
00000000
00000000
00000000
,
00000000
00000000
00000000
00000000
,
00100000
00000000
00010000
01000000
,
00000000
00001000
00010000
00000000
,
00000100
00000100
00000000
00000000
,
00000010
00000001
00000000
00000000
,
00002002
00000000
00003003
00000000
,
00000002
00000000
00000013
00000100
,
00001000
00000000
00000001
00000000
,
00001000
00000100
00010000
00000000
,
00001000
01000000
00010000
00000000
,
00200000
00000000
00310000
10000000
,
01000000
00000000
10000000
00000000
,
00010000
01000000
00001000
00000000
,
00010000
00000100
00001000
00000000
,
00000010
00000010
00000100
00000100
,
00000001
00001000
00001001
00000110
,
00000000
00000100
00001000
00000010
,
00001000
00000100
00010000
00000000
,
00001000
01000000
00100000
01000000
,
00010000
00100000
10010000
01100000
,
00000000
00100000
10000000
01000000
,
00010000
01000000
00100000
00010000
,
20010000
01000000
00010000
31000000
,
00100000
00010000
01000000
00001000
,
00020000
00000000
00032000
00000000
,
00003100
00000001
00001000
00000100
,
00001002
00000100
00001000
00000100
,
00001003
00000100
00000010
00001000
,
00020000
00000000
00230000
00000000
,
10300000
00010000
01000000
00000000
,
10010000
10010000
01100000
01100000
,
10000000
00000000
01000000
00000000
00010000
00001000
00000000
00000000
,
00010000
00001000
00000100
00000001
,
00000010
00000100
00001000
00000000
,
00001001
00001001
00000110
00001001
,
00000000
00001000
00000100
00000000
,
00010000
00001000
01000000
01000000
,
00100000
10000000
00010000
00000000
,
00100000
00010000
01000000
00000000
,
01000000
00010000
00100000
00000000
,
00100000
00001000
00010000
00000100
,
00000010
00000001
00001000
00000000
,
00000001
00001000
00000010
00000000
,
00001000
00000001
00000100
00000000
,
00000010
00010000
00001000
01000000
,
00010000
00100000
01000000
00000000
,
20000000
00100000
01000000
30100000
,
10000000
00100000
00010000
00001000
,
00020000
00000000
00032000
00000000
,
00003100
00000001
00001000
00000100
,
00002000
00000010
00000001
00000010
,
00003001
00000010
00000100
00001000
,
00000002
00000000
00000203
00000000
,
00000310
00001000
00000001
00000000
,
00001001
00001001
00000110
00001001
,
00000001
00000000
00000010
00000000
00001000
00010000
00000000
00000000
,
00100000
00100000
10000000
00000000
,
00010000
00010000
00100000
00000000
,
01000000
10000000
00010000
01000000
,
00000000
10010000
01100000
00000000
,
00100000
00010000
01000000
10000000
,
01000000
00100000
10000000
00000000
,
00010000
10000000
01000000
00010000
,
00001000
00000000
00000100
00000000
00000001
00001000
00000000
00000000
,
00000001
00000100
00001000
00000100
,
00000010
00000100
00001001
00000000
,
00000001
00000010
00001000
00010000
,
00100000
10010000
01100000
00000000
,
01000000
10000000
00100000
10000000
,
01000000
00000000
00010000
00000000
00001000
00000000
00010000
00001000
,
00020000
00000000
00030000
00000000
;

//---------------dance-double - ----------------
#NOTEDATA:;
#CHARTNAME:;
#STEPSTYPE:dance-double;
#DESCRIPTION:;
#CHARTSTYLE:;
#DIFFICULTY:Hard;
#METER:7;
#RADARVALUES:0.421253,0.469885,0.247728,0.175807,0.031965,369.000000,338.000000,31.000000,22.000000,0.000000,0.000000,0.000000,0.000000,0.000000,0.421253,0.469885,0.247728,0.175807,0.031965,369.000000,338.000000,31.000000,22.000000,0.000000,0.000000,0.000000,0.000000,0.000000;
#CREDIT:K. Pearman;
#NOTES:
// measure 0
00000000
00000000
00000000
00000000
,  // measure 1
00000000
00000000
00000000
00000000
,  // measure 2
00000000
00000000
00000000
00000000
,  // measure 3
00000000
00000000
00000000
00000000
,  // measure 4
00200000
00000000
10300000
00000000
01000000
00100000
02000000
00000000
,  // measure 5
03000000
10010000
00011000
00000000
,  // measure 6
00002000
00000000
00003010
00000100
00000010
00000000
00001000
00000000
,  // measure 7
00000002
00000000
00000103
00000010
00000100
00000000
00000010
00000000
,  // measure 8
00002002
00000000
00000000
00003003
,  // measure 9
00001001
00000000
00000001
00000100
00000010
00000000
00000100
00000000
,  // measure 10
00001000
00000000
00010000
01000000
00100000
00000000
00010000
00000000
,  // measure 11
10000000
00000000
00100000
00000000
10000000
00000000
00100000
00000000
01000000
00000000
00000000
01000000
00000000
00000000
01000000
00000000
,  // measure 12
00010000
00000000
00100000
00000000
00010000
00000000
00100000
00000000
01000000
00000000
00000000
01000000
00000000
00000000
01000000
00000000
,  // measure 13
10000000
00000000
00100000
01000000
00001000
00000000
00010000
00000000
,  // measure 14
00000010
00000000
00000100
00000010
00001000
00000000
00000001
00000000
,  // measure 15
00001000
00000000
00000100
00000000
00001000
00000000
00000100
00000000
00000010
00000000
00000000
00000010
00000000
00000000
00000010
00000000
,  // measure 16
00000001
00000000
00000100
00000000
00000001
00000000
00000100
00000000
00000010
00000000
00000000
00000010
00000000
00000000
00000010
00000000
,  // measure 17
00002000
00000000
00003100
00000000
00010000
00001000
01000000
00000000
,  // measure 18
00001000
00010000
00000100
00000000
00010000
00001000
01000000
00000000
,  // measure 19
00100000
10000000
01000000
00010000
,  // measure 20
00001000
00000100
00000001
00000000
00000020
00000000
00000130
00000000
,  // measure 21
00000110
00000000
00000100
00001000
00000010
00000000
00000100
00000000
,  // measure 22
00001000
00000000
00010000
00000000
01000000
10000000
00100000
10000000
,  // measure 23
01000000
00100000
00010000
01000000
,  // measure 24
10000000
00000000
01000000
00000000
00001000
00010000
00001000
00000000
,  // measure 25
00021000
00000100
00001000
00030100
,  // measure 26
00000010
00000000
00000001
00000000
00000100
00000010
00000100
00000000
,  // measure 27
00000020
00000000
00000000
00001030
00000002
00000000
00000000
00000013
,  // measure 28
00000100
00010000
00000100
00000010
00000001
00000100
00001000
00010000
,  // measure 29
00001000
00012000
01000000
00010000
,  // measure 30
01003000
00000000
00010000
00000000
00100000
01000000
10000000
00000000
,  // measure 31
00020000
00000000
00000000
00130000
02000000
00000000
00000000
00000000
,  // measure 32
13000000
00000000
00100000
00000000
00010000
00001000
00010000
00000000
,  // measure 33
00011000
00010100
00011000
00010100
,  // measure 34
00010000
00000000
00000010
00000000
00000100
00000001
00001000
00000000
,  // measure 35
00000001
00000010
00000001
00000000
00001000
00000100
00001000
00000000
,  // measure 36
00000010
00000000
00000100
00000000
00000001
00001000
00000001
00000000
,  // measure 37
00000011
00001100
00000011
00001100
,  // measure 38
00000001
00000110
00001001
00001000
,  // measure 39
00000100
00010000
00001000
00000000
01000000
00001000
00010000
00000000
,  // measure 40
00100000
00000000
01000000
00000000
00010000
10000000
00010000
00000000
,  // measure 41
10000000
01000000
00100000
00000000
00010000
00000000
01000000
00000000
,  // measure 42
10000000
00000000
01000000
00000000
00001000
00010000
00001000
00000000
,  // measure 43
00010000
00000000
00000000
00000000
00000100
00000000
00000000
00000000
00000010
00000000
00000000
00000001
00000000
00000000
00001000
00000000
,  // measure 44
00000001
00000000
00000000
00000000
00000010
00000000
00000000
00000000
00000100
00000000
00000000
00001000
00000000
00000000
00000010
00000000
,  // measure 45
00000100
00000001
00000100
00000001
00000010
00000000
00000010
00000000
,  // measure 46
00000100
00001000
00000100
00001000
00000001
00000000
00000001
00000000
,  // measure 47
00000010
00000000
00000000
00000000
00000100
00000000
00000000
00000000
00010000
00000000
00000000
00001000
00000000
00000000
00010000
00000000
,  // measure 48
01000000
00000000
00000000
00000000
10000000
00000000
00000000
00000000
00010000
00000000
00000000
00100000
00000000
00000000
00010000
00000000
,  // measure 49
21000000
00000000
00010000
00000000
01000000
00000000
30010000
00100000
,  // measure 50
00010000
00000000
01000000
00000000
00001000
00010000
00001000
00000000
,  // measure 51
00020000
00000000
00000000
00030100
00000020
00000000
00000000
00000000
,  // measure 52
00000031
00000100
00000001
00001000
00000001
00000100
00000001
00000000
,  // measure 53
00000012
00001000
00000010
00001003
,  // measure 54
00000100
00000010
00000100
00000000
00010000
00001000
00010000
00000000
,  // measure 55
00002000
00000000
00000000
01003000
00200000
00000000
00000000
00000000
,  // measure 56
01300000
00010000
10000000
00010000
01000000
00000000
00100000
00000000
,  // measure 57
10000000
01000000
00010000
00001000
,  // measure 58
00000100
00000000
00000001
00000000
00001000
00000001
00001000
00000000
,  // measure 59
00000001
00000000
00000000
00000010
00000000
00000100
00000000
00000000
,  // measure 60
00010000
00000000
00000000
00001000
00000000
01000000
00000000
00000000
,  // measure 61
00100000
00000000
00100000
00000000
10000000
00010000
10000000
00000000
,  // measure 62
00010000
00110000
10010000
10000000
,  // measure 63
01000000
00000000
00100000
01000000
10000000
00000000
01000000
00000000
,  // measure 64
00010000
00000000
00001000
00010000
00000100
00000000
00000000
00000000
,  // measure 65
00001100
00000011
00001100
00000011
,  // measure 66
00000001
00000000
00000100
00000000
00001000
00010000
01000000
00000000
,  // measure 67
00100000
00000000
00010000
10000000
00010000
00000000
00100000
00000000
,  // measure 68
01000000
00000000
10000000
00010000
10000000
00000000
00100000
00000000
,  // measure 69
10100000
01010000
10100000
01010000
,  // measure 70
00100000
01100000
10010000
10000000
,  // measure 71
01000000
00000000
00010000
00001000
00010000
00000000
00001000
00000000
,  // measure 72
00000100
00000001
00001000
00000001
00000010
00000100
00001000
00000002
,  // measure 73
00000200
00000000
00000303
00000000
;

//---------------dance-double - ----------------
#NOTEDATA:;
#CHARTNAME:;
#STEPSTYPE:dance-double;
#DESCRIPTION:;
#CHARTSTYLE:;
#DIFFICULTY:Challenge;
#METER:9;
#RADARVALUES:0.568520,0.616724,0.447510,0.103886,0.111877,498.000000,442.000000,56.000000,13.000000,0.000000,0.000000,0.000000,0.000000,0.000000,0.568520,0.616724,0.447510,0.103886,0.111877,498.000000,442.000000,56.000000,13.000000,0.000000,0.000000,0.000000,0.000000,0.000000;
#CREDIT:K. Pearman;
#NOTES:
// measure 0
00000000
00000000
00000000
00000000
,  // measure 1
00000000
00000000
00000000
00000000
,  // measure 2
00000000
00000000
00000000
00000000
,  // measure 3
00000000
00000000
00000000
00000000
,  // measure 4
10000000
00000000
00010000
00000000
00001000
00000100
00001000
00000000
,  // measure 5
00000000
00000011
00011000
00000000
,  // measure 6
00100000
00010000
01000000
10000000
01000000
00001000
00010000
00000100
,  // measure 7
00000001
00000000
00000100
00000000
00001000
00000000
00000010
00000000
00000100
00000010
00000100
00000010
00001000
00000001
00001000
00000001
,  // measure 8
00000020
00000000
00000000
00000030
,  // measure 9
00000011
00000001
00000100
00001000
00000100
00000010
00010000
00001000
,  // measure 10
00100000
01000000
00010000
01000000
10000000
00100000
00010000
00001000
,  // measure 11
00000100
00000000
00000002
00000000
00000010
00000000
00000013
00000000
00000100
00000000
00000000
00010000
00000000
00000000
01000000
00000000
,  // measure 12
00000000
00000000
20000000
00000000
00100000
00000000
30100000
00000000
01000000
00000000
00000000
00001000
00000000
00000000
00000100
00000000
,  // measure 13
00000001
00000010
00000001
00000100
00001000
00010000
01000000
00100000
,  // measure 14
00010000
10000000
00100000
01000000
00010000
10000000
01000000
00000000
,  // measure 15
00000000
00000000
20000000
00000000
00100000
00000000
30100000
00000000
01000000
00000000
00000000
00001000
00000000
00000000
00000100
00000000
,  // measure 16
00000000
00000000
00000002
00000000
00000010
00000000
00000013
00000000
00000100
00000000
00000000
00010000
00000000
00000000
01000000
00000000
,  // measure 17
10000000
00100000
10000000
01000000
00100000
01000000
00001000
00010000
,  // measure 18
00100000
00010000
00001000
00000100
00001000
00000001
00000100
00000010
,  // measure 19
00000100
00001000
00010000
00001000
00000010
00001000
00010000
00100000
,  // measure 20
01000000
00010000
10000000
01000000
00100000
00010000
10000000
00000000
,  // measure 21
00010000
01000000
00100000
00010000
00000010
00000100
00001000
01000000
,  // measure 22
00010000
00100000
01000000
00010000
00000100
00000010
00001000
00010000
,  // measure 23
00000010
00001000
00000010
00010000
00001000
00100000
01000000
10000000
,  // measure 24
00010000
01000000
00001000
00010000
00000100
00001000
00000001
00000000
,  // measure 25
00001001
00000000
00011000
00000000
20010000
00000000
30100000
01000000
,  // measure 26
00000000
10000000
01000000
00010000
00000000
00100000
10000000
00100000
,  // measure 27
00020000
00000000
10030000
01000000
00010000
00000000
00001000
00010000
,  // measure 28
00001000
00000100
00000010
00001000
00000001
00000010
00000110
00000000
,  // measure 29
00001001
00000000
00011000
00000000
10020000
00000000
00130000
01000000
,  // measure 30
00000000
10000000
00100000
00010000
00000000
00001000
00000010
00000001
,  // measure 31
00000000
00000100
00001000
00010000
00001000
00000010
00001000
00100000
,  // measure 32
00001000
00000000
00010000
00000000
00001000
00000000
00010000
00000000
00001000
00010000
00001000
00010000
00001000
00000000
00000000
00000000
,  // measure 33
11000000
01010000
00001100
00000101
,  // measure 34
00000110
00000000
00011000
00000000
01100000
10000000
00010000
00000000
,  // measure 35
10000000
00100000
00010000
00001000
00010000
01000000
00100000
00001000
,  // measure 36
00010000
00000010
00000100
00001000
00000100
00000001
00000010
00000000
,  // measure 37
00000011
00001010
00110000
10100000
,  // measure 38
00000000
01001000
00010100
00000000
,  // measure 39
00010000
00010000
00100000
01000000
00010000
10000000
01000000
00010000
,  // measure 40
00001000
00000000
00000100
00000000
00000001
00000000
00001000
00000000
00000001
00000010
00000001
00000010
00000100
00001000
00000100
00001000
,  // measure 41
00000001
00000000
00000010
00000000
00000001
00000000
00000100
00000000
00001000
00000000
00000000
00010000
00000000
00000000
01000000
00000000
,  // measure 42
00000000
00000000
10000000
00000000
00100000
00000000
10000000
00000000
01000000
00000000
00000000
00010000
00000000
00000000
00000100
00000000
,  // measure 43
00000000
00000000
00000010
00000000
00000001
00000000
00001000
00000000
00000100
00000000
00010000
00000100
00000000
00010000
00001000
00000000
,  // measure 44
00100000
00000000
00010000
00000000
01000000
00000000
00010000
00000000
00100000
00000000
01000000
10000000
00000000
00010000
01000000
00000000
,  // measure 45
00000000
00000000
00100000
00000000
10000000
00000000
01000000
00000000
00010000
00000000
00000000
00001000
00000000
00000000
00010000
00000000
,  // measure 46
00000100
00000000
00001000
00000000
00000010
00000000
00000001
00000000
00000010
00000000
00000000
00001000
00000000
00000000
00000100
00000000
,  // measure 47
00000000
00000000
00000010
00000000
00000001
00000000
00001000
00000000
00000001
00000000
00000100
00000010
00000000
00001000
00000100
00000000
,  // measure 48
00000000
00000000
00010000
00000000
00001000
00000000
01000000
00000000
00100000
00000000
01000000
00010000
00000000
10000000
00010000
00000000
,  // measure 49
10010000
00000000
00011000
00000000
00001002
00000000
00000103
00000010
,  // measure 50
00000000
00000001
00000010
00001000
00000000
00000100
00000001
00000100
,  // measure 51
00002000
00000000
00003001
00000010
00001000
00000000
00010000
00001000
,  // measure 52
00010000
00100000
01000000
00010000
10000000
01000000
01100000
00000000
,  // measure 53
10010000
00000000
00011000
00000000
00002001
00000000
00003100
00000010
,  // measure 54
00000000
00000001
00000100
00001000
00000000
00010000
01000000
10000000
,  // measure 55
00000000
00100000
00010000
00001000
00010000
01000000
00010000
00000100
,  // measure 56
00010000
00000000
00001000
00000000
00010000
00000000
00001000
00000000
00010000
00001000
00010000
00001000
00010000
00000000
00000000
00000000
,  // measure 57
00000011
00001010
00110000
10100000
,  // measure 58
01100000
00000000
00011000
00000000
00000110
00000001
00001000
00000000
,  // measure 59
00000001
00000100
00001000
00010000
00001000
00000010
00000100
00010000
,  // measure 60
00001000
01000000
00100000
00010000
00100000
10000000
01000000
00000000
,  // measure 61
11000000
01010000
00001100
00000101
,  // measure 62
00000000
00010010
00101000
00000000
,  // measure 63
00001000
00001000
00000100
00000010
00001000
00000001
00000010
00000100
,  // measure 64
00020000
00000000
00030000
00000000
,  // measure 65
00011000
00101000
00010010
00011000
,  // measure 66
01010000
00011000
00001100
00000000
,  // measure 67
00000010
00000001
00000100
00001000
00010000
01000000
10000000
00100000
,  // measure 68
10000000
01000000
00010000
00001000
00000100
00000001
00000010
00000000
,  // measure 69
00000011
00001100
00110000
11000000
,  // measure 70
00100000
01010000
00001100
00000000
,  // measure 71
00000010
00000001
00001000
00000001
00000100
00001000
00010000
00100000
,  // measure 72
10000000
00010000
10000000
00100000
00010000
00001000
01000000
00100000
,  // measure 73
00020000
00000000
00030000
00000000
;
