#VERSION:0.83;
#TITLE:What It Sounds Like;
#SUBTITLE:;
#ARTIST:HUNTR/X;
#TITLETRANSLIT:;
#SUBTITLETRANSLIT:;
#ARTISTTRANSLIT:;
#GENRE:K-POP DEMON HUNTERS;
#CREDIT:Sony & Netflix & Republic;
#MUSIC:What It Sounds Like.ogg;
#BANNER:What It Sounds Like.png;
#BACKGROUND:BG.png;
#JACKET:What It Sounds Like-jacket.png;
#DISCIMAGE:;
#CDIMAGE:;
#SELECTABLE:YES;
#LYRICSPATH:;
#CDTITLE:K-POP DEMON HUNTERS.png;
#SAMPLESTART:67.155;
#SAMPLELENGTH:15;
#BPMS:0.000000=117.600000,
12.000000=120.000000,
76.000000=124.000000,
234.000000=104.000000,
235.000000=85.000000,
236.000000=79.000000
;
#STOPS:;
#WARPS:;
#DELAYS:;
#SPEEDS:;
#SCROLLS:;
#TICKCOUNTS:;
#TIMESIGNATURES:;
#LABELS:;
#COMBOS:;
#FAKES:;
#BGCHANGES:0.000=What It Sounds Like.mp4=0.000=0=0=0=StretchNoLoop====,
99999=-nosongbg-=1.000=0=0=0 // don't automatically add -songbackground-
;
#FGCHANGES:;
#ATTACKS:;
#DISPLAYBPM:120.000;

//---------------dance-single - Wrland---------------
#NOTEDATA:;
#CHARTNAME:;
#CHARTSTYLE:Pad;
#CREDIT:Wrland;
#STEPSTYPE:dance-single;
#DESCRIPTION:Wrland;
#DIFFICULTY:Beginner;
#METER:1;
#METERF:1;
#RADARVALUES:0,0,0,0,0;
#NOTES:
// measure 0
0000
0000
0000
0000
,  // measure 1
0000
0000
0000
0000
,  // measure 2
0000
0000
0000
0000
,  // measure 3
0100
0000
0000
0000
,  // measure 4
0010
0000
0000
0000
,  // measure 5
0001
0000
0000
0000
,  // measure 6
1000
0000
0000
0000
,  // measure 7
0100
0000
0000
0000
,  // measure 8
0010
0000
0000
0000
,  // measure 9
0100
0000
0000
0000
,  // measure 10
0010
0000
0000
0000
,  // measure 11
1000
0000
0000
0000
,  // measure 12
0001
0000
0000
0000
,  // measure 13
0001
0000
0000
0000
,  // measure 14
0100
0000
0000
0000
,  // measure 15
0010
0000
0000
0000
,  // measure 16
0010
0000
0000
0000
,  // measure 17
0100
0000
0000
0000
,  // measure 18
0100
0000
0000
0000
,  // measure 19
0200
0000
0000
0000
,  // measure 20
0000
0000
0000
0300
,  // measure 21
0020
0000
0000
0000
,  // measure 22
0000
0000
0000
0030
,  // measure 23
0002
0000
0000
0000
,  // measure 24
0000
0000
0000
0003
,  // measure 25
2000
0000
0000
0000
,  // measure 26
0000
0000
0000
3000
,  // measure 27
0200
0000
0000
0000
,  // measure 28
0000
0000
0000
0300
,  // measure 29
0020
0000
0000
0000
,  // measure 30
0000
0000
0000
0030
,  // measure 31
0002
0000
0000
0000
,  // measure 32
0000
0000
0000
0003
,  // measure 33
0200
0000
0000
0000
,  // measure 34
0000
0000
0000
0000
,  // measure 35
0000
0300
0001
0000
,  // measure 36
0000
0000
1000
0000
,  // measure 37
0000
0000
1000
0000
,  // measure 38
0000
0000
0001
0000
,  // measure 39
0000
0000
0100
0000
,  // measure 40
0000
0000
0010
0000
,  // measure 41
0000
0000
0001
0000
,  // measure 42
0000
0000
0100
0000
,  // measure 43
0000
0000
0010
0000
,  // measure 44
0000
0000
0100
0000
,  // measure 45
0000
0000
1000
0000
,  // measure 46
0000
0000
0100
0000
,  // measure 47
0000
0000
0010
0000
,  // measure 48
0000
0000
0100
0000
,  // measure 49
0000
0000
1000
0000
,  // measure 50
0000
0000
0100
0000
,  // measure 51
0000
0000
0100
0000
,  // measure 52
0000
0000
0010
0000
,  // measure 53
0000
0000
0001
0000
,  // measure 54
0000
0000
1000
0000
,  // measure 55
0000
0000
0100
0000
,  // measure 56
0000
0000
0010
0000
,  // measure 57
0000
0000
0100
0000
,  // measure 58
0000
0000
0220
0000
,  // measure 59
0000
0000
0000
0000
,  // measure 60
0330
0000
0000
0000
;

//---------------dance-single - Wrland---------------
#NOTEDATA:;
#CHARTNAME:;
#CHARTSTYLE:Pad;
#CREDIT:Wrland;
#STEPSTYPE:dance-single;
#DESCRIPTION:Wrland;
#DIFFICULTY:Easy;
#METER:4;
#METERF:4;
#RADARVALUES:0,0,0,0,0;
#NOTES:
// measure 0
0000
0000
0000
0000
,  // measure 1
0000
0000
0000
0000
,  // measure 2
0000
0000
0000
0000
,  // measure 3
0100
0000
0100
0000
,  // measure 4
0010
0000
0000
0000
,  // measure 5
0001
0000
0001
0000
,  // measure 6
1000
0000
0000
0000
,  // measure 7
0100
0000
0100
0000
,  // measure 8
0010
0000
0010
0000
,  // measure 9
0100
0000
0100
0000
,  // measure 10
0010
0000
0001
0000
,  // measure 11
1000
0000
1000
0000
,  // measure 12
0001
0000
0000
0000
,  // measure 13
0001
0000
0001
0000
,  // measure 14
0100
0000
0000
0000
,  // measure 15
0010
0000
0100
0000
,  // measure 16
0010
0000
0000
0000
,  // measure 17
0100
0000
0010
0000
,  // measure 18
0100
0000
0010
0000
,  // measure 19
0200
0000
0000
0000
,  // measure 20
0000
0000
0000
0300
,  // measure 21
0020
0000
0000
0000
,  // measure 22
0000
0000
0000
0030
,  // measure 23
0002
0000
0000
0000
,  // measure 24
0000
0000
0000
0003
,  // measure 25
2000
0000
0000
0000
,  // measure 26
0000
0000
0000
3000
,  // measure 27
0200
0000
0000
0000
,  // measure 28
0000
0000
0000
0300
,  // measure 29
0020
0000
0000
0000
,  // measure 30
0000
0000
0000
0030
,  // measure 31
0002
0000
0000
0000
,  // measure 32
0000
0000
0000
0003
,  // measure 33
0200
0000
0000
0000
,  // measure 34
0000
0000
0000
0000
,  // measure 35
0000
0300
0001
0000
,  // measure 36
0001
0000
1000
0000
,  // measure 37
0000
0000
1000
0000
,  // measure 38
1000
0000
0001
0000
,  // measure 39
0000
0000
0100
0000
,  // measure 40
0100
0000
0010
0000
,  // measure 41
0000
0000
0001
0000
,  // measure 42
0001
0000
0100
0000
,  // measure 43
0000
0000
0010
0000
,  // measure 44
0010
0000
0100
0000
,  // measure 45
0000
0000
1000
0000
,  // measure 46
1000
0000
0100
0000
,  // measure 47
0000
0000
0010
0000
,  // measure 48
0001
0000
0100
0000
,  // measure 49
0000
0000
1000
0000
,  // measure 50
1000
0000
0100
0000
,  // measure 51
0000
0000
0100
0000
,  // measure 52
0100
0000
0010
0000
,  // measure 53
0000
0000
0001
0000
,  // measure 54
0001
0000
1000
0000
,  // measure 55
0000
0000
0100
0000
,  // measure 56
0100
0000
0010
0000
,  // measure 57
0010
0000
0100
0000
,  // measure 58
0100
0000
0220
0000
,  // measure 59
0000
0000
0000
0000
,  // measure 60
0330
0000
0000
0000
;

//---------------dance-single - Wrland---------------
#NOTEDATA:;
#CHARTNAME:;
#CHARTSTYLE:Pad;
#CREDIT:Wrland;
#STEPSTYPE:dance-single;
#DESCRIPTION:Wrland;
#DIFFICULTY:Medium;
#METER:8;
#METERF:8;
#RADARVALUES:0,0,0,0,0;
#NOTES:
// measure 0
0000
0000
0000
0000
,  // measure 1
0000
0000
0000
0000
,  // measure 2
0000
0000
0000
0000
,  // measure 3
0100
0010
0100
0010
,  // measure 4
0001
0000
0000
0000
0100
0000
0000
0000
1000
0000
0000
0100
0000
0000
1000
0000
,  // measure 5
0000
0100
0010
0001
,  // measure 6
0100
0000
0000
0000
0010
0000
0000
0000
0100
0000
0000
0010
0000
0000
0001
0000
,  // measure 7
0000
0100
0010
0000
0100
0000
0010
0000
,  // measure 8
0000
0001
0100
0000
0010
0000
0100
0000
,  // measure 9
0000
1000
0100
0000
1000
0000
0100
0000
,  // measure 10
0100
0010
0001
0100
,  // measure 11
0000
0010
0100
0000
0010
0000
0001
0000
,  // measure 12
0100
0000
0000
0000
0010
0000
0000
0000
0100
0000
0000
0100
0000
0000
1000
0000
,  // measure 13
0100
0100
0010
0000
,  // measure 14
0001
0000
0000
0000
0100
0000
0000
0000
0010
0000
0000
0100
0000
0000
0010
0000
,  // measure 15
0001
0100
0010
0000
,  // measure 16
0100
1000
0100
0000
,  // measure 17
0100
0010
0001
0000
,  // measure 18
0100
0010
0001
0100
,  // measure 19
0200
0300
1000
0100
,  // measure 20
0020
0030
0001
0100
,  // measure 21
0020
0030
0100
0010
,  // measure 22
0100
1000
0100
0010
,  // measure 23
1002
0003
0100
1000
,  // measure 24
0200
0300
0100
0010
,  // measure 25
0002
0003
0100
0010
,  // measure 26
0001
0100
1000
0100
,  // measure 27
0210
0300
0001
0010
,  // measure 28
0200
0300
1000
0100
,  // measure 29
0020
0030
0001
0100
,  // measure 30
0010
0100
1000
0100
,  // measure 31
2100
3000
0100
0010
,  // measure 32
0102
0003
0010
0100
,  // measure 33
1200
0300
0100
0010
,  // measure 34
0001
0000
0101
2002
,  // measure 35
0000
3003
0100
0010
,  // measure 36
0100
0000
0100
0010
,  // measure 37
0001
0000
0000
0000
0000
0100
0010
0000
,  // measure 38
0001
0100
0010
0100
,  // measure 39
1000
0000
0000
0100
0000
0000
1000
0000
0100
0000
0000
0000
0010
0000
0000
0000
,  // measure 40
0100
0010
0100
0000
0000
0001
0100
0000
,  // measure 41
0010
0000
0100
0000
0000
1000
0100
0000
,  // measure 42
0100
0010
0001
0100
,  // measure 43
0010
0000
0100
0000
0000
0100
0010
0000
,  // measure 44
0001
0100
0010
0100
,  // measure 45
1000
0000
0000
0100
0000
0000
1000
0000
0000
0000
0100
0000
0010
0000
0000
0000
,  // measure 46
0001
0100
0010
0001
,  // measure 47
0100
0000
0000
0010
0000
0000
0100
0000
0010
0000
0000
0000
0001
0000
0000
0000
,  // measure 48
0100
0000
1000
0000
0000
1000
0100
0000
,  // measure 49
1000
0000
0100
0000
0000
0100
0010
0000
,  // measure 50
0001
0100
0010
0001
,  // measure 51
0100
0000
0010
0000
0000
0100
0010
0000
,  // measure 52
0100
1000
0100
1000
,  // measure 53
0100
0010
0001
0000
0100
0000
0010
0000
,  // measure 54
0001
0000
0100
0000
0000
0100
0010
0000
,  // measure 55
0001
0000
0100
0000
0000
1000
0100
0000
,  // measure 56
0010
0000
0001
0000
0000
0100
0010
0000
,  // measure 57
0100
0000
1000
0000
0000
0100
1000
0000
,  // measure 58
0100
0010
0001
1000
,  // measure 59
0001
2002
0000
0000
,  // measure 60
3003
0000
0000
0000
;

//---------------dance-single - Wrland---------------
#NOTEDATA:;
#CHARTNAME:;
#CHARTSTYLE:Pad;
#CREDIT:Wrland;
#STEPSTYPE:dance-single;
#DESCRIPTION:Wrland;
#DIFFICULTY:Hard;
#METER:11;
#METERF:11;
#RADARVALUES:0,0,0,0,0;
#NOTES:
// measure 0
0000
0000
0000
0000
,  // measure 1
0000
0000
0000
0000
,  // measure 2
0000
0000
0000
0000
,  // measure 3
0001
0000
1000
0000
0001
1000
0001
0000
,  // measure 4
0100
0000
0000
0000
1000
0000
0000
0000
0100
0000
0000
1000
0000
0000
0100
0000
,  // measure 5
0000
1000
0100
0000
1000
0000
0100
0000
,  // measure 6
0010
0000
0000
0000
0001
0000
0100
0000
0010
0000
0000
0100
0000
0000
0010
0000
,  // measure 7
0000
0100
0010
0000
0001
0100
0001
0000
,  // measure 8
0100
0010
0100
0000
0010
0001
0100
0000
,  // measure 9
0000
0010
0100
0000
1000
0100
1000
0000
,  // measure 10
0100
0010
0001
1001
,  // measure 11
0100
0000
0010
0000
0001
0100
0010
0000
,  // measure 12
0100
0000
0000
0000
0010
0000
0000
0000
0001
0000
0000
0100
0000
0000
0001
0000
,  // measure 13
0000
0100
0010
0000
0100
0000
0010
0000
,  // measure 14
0001
0000
0000
0000
0100
0000
0000
0000
0010
0000
0000
0100
0000
0000
0010
0000
,  // measure 15
0000
0100
0010
0000
0001
0000
0100
0000
,  // measure 16
0000
1000
0100
0000
1000
0000
0100
0000
,  // measure 17
0000
0100
0010
0000
0001
0000
0100
0000
,  // measure 18
0010
0000
0100
0010
0100
0000
0110
0000
,  // measure 19
0002
0000
0000
0000
0000
0003
1000
0000
,  // measure 20
0002
0000
0000
0000
0000
0003
1000
0000
,  // measure 21
0002
0000
1003
0000
,  // measure 22
0100
1000
0100
0011
,  // measure 23
0200
0000
0000
0000
0000
0300
0010
0000
,  // measure 24
0200
0000
1300
0100
,  // measure 25
2000
0000
3100
0010
,  // measure 26
0001
0100
0010
1010
,  // measure 27
0200
0000
0000
0000
0000
0300
0010
0000
,  // measure 28
0002
0000
0000
0000
0000
0003
0010
0000
,  // measure 29
0200
0000
0000
0000
0000
0300
0010
0000
,  // measure 30
1000
0100
0010
0011
,  // measure 31
0200
0000
0000
0300
0010
0000
0100
0000
,  // measure 32
1200
0300
0100
0010
,  // measure 33
0011
0001
0101
0100
,  // measure 34
1000
0100
1000
0200
,  // measure 35
0000
0300
0010
0100
,  // measure 36
0010
0000
0001
0100
0001
0000
0100
0000
,  // measure 37
0010
0000
0000
0100
0000
0000
0010
0000
0001
0000
0000
0000
0100
0000
0000
0000
,  // measure 38
0010
0100
1000
0100
,  // measure 39
1000
0000
0000
0100
0000
0000
1000
0000
0000
0000
0100
0000
1000
0000
0000
0000
,  // measure 40
0100
0000
0010
0000
0000
0001
0100
0000
,  // measure 41
0010
0000
0100
0000
0000
1000
0100
0000
,  // measure 42
0010
0001
1000
0100
,  // measure 43
0010
0100
0010
0000
0001
0000
0100
0000
,  // measure 44
0010
0100
1000
0100
,  // measure 45
1000
0000
0000
0100
0000
0000
1000
0000
0000
0000
0100
0000
0010
0000
0000
0000
,  // measure 46
0001
0100
0010
0001
,  // measure 47
0100
0000
0000
0010
0000
0000
0100
0000
0000
0000
0010
0000
0001
0000
0000
0000
,  // measure 48
0100
0000
0010
0000
0000
0001
0100
0000
,  // measure 49
0010
0000
0100
0000
0000
1000
0100
0000
,  // measure 50
1000
0100
0100
0010
,  // measure 51
0001
0000
0100
0000
0000
0010
0100
0000
,  // measure 52
0010
0001
0100
0010
,  // measure 53
0001
0000
0101
0000
0000
0010
0100
0000
,  // measure 54
1000
0100
0010
0001
,  // measure 55
0100
0000
1100
0000
0000
0100
0010
0000
,  // measure 56
0001
0000
0100
0000
0000
0010
0100
0000
,  // measure 57
1000
0000
0100
0000
0000
1000
0100
0000
,  // measure 58
0010
0001
0100
0010
,  // measure 59
0100
0220
0000
0000
,  // measure 60
0330
0000
0000
0000
;

//---------------dance-single - This is What It Sounds Like---------------
#NOTEDATA:;
#CHARTNAME:;
#CHARTSTYLE:Pad;
#CREDIT:Wrland;
#STEPSTYPE:dance-single;
#DESCRIPTION:This is What It Sounds Like;
#DIFFICULTY:Challenge;
#METER:14;
#METERF:14;
#RADARVALUES:0,0,0,0,0;
#NOTES:
// measure 0
0000
0000
0000
0000
,  // measure 1
0000
0000
0000
0000
,  // measure 2
0000
0000
0000
0000
,  // measure 3
0100
0010
0100
0010
0001
0100
0010
0100
,  // measure 4
0010
0000
0100
0000
1000
0000
0100
0000
1100
0000
0000
0110
0000
0000
0011
0000
,  // measure 5
0000
0010
0100
0010
0100
0010
0001
0100
,  // measure 6
0010
0000
0100
0000
1000
0000
0100
0000
1100
0000
0000
0110
0000
0000
0011
0000
,  // measure 7
0000
0010
0100
0010
0001
0100
0010
0000
,  // measure 8
0000
0100
1000
0100
1000
0100
0010
0000
,  // measure 9
0000
0100
0010
0001
0100
0010
0100
0000
,  // measure 10
1000
0100
1000
0100
0020
0000
0130
0000
,  // measure 11
0010
0001
0100
0010
0100
1000
0100
1000
,  // measure 12
0100
0000
0010
0000
0001
0000
0100
0000
0010
0000
0000
0100
0000
0000
0010
0000
,  // measure 13
0000
0001
0100
0010
0100
1000
0100
1000
,  // measure 14
0100
0000
0010
0000
0001
0000
0100
0000
0010
0000
0000
0100
0000
0000
0010
0000
,  // measure 15
0000
0001
0100
0010
0100
1000
0100
0000
,  // measure 16
0000
1000
0100
0010
0001
0100
0010
0000
,  // measure 17
0000
0100
0010
0001
0100
0010
0100
0000
,  // measure 18
0100
0010
0100
0010
0100
0000
0110
0000
,  // measure 19
0001
0000
1000
0001
1000
0000
1001
0000
,  // measure 20
0000
0000
1000
0100
1000
0000
0100
0000
,  // measure 21
0110
0000
0010
0001
0101
0000
1010
0000
,  // measure 22
0100
0010
0100
0010
0200
0000
0310
0000
,  // measure 23
1001
0000
0100
1000
0100
0000
0100
0000
,  // measure 24
0010
0000
0001
0000
0100
0000
0010
0100
0010
0000
0001
0000
0110
0000
0000
0000
,  // measure 25
1000
0100
1000
0100
0010
0001
0100
0000
,  // measure 26
0010
0100
1000
0100
0200
0000
0310
0000
,  // measure 27
0101
0000
0000
0000
0010
0000
0100
0000
0010
0000
0100
0010
0100
0000
1000
0000
,  // measure 28
0100
0000
0010
0000
0001
0000
0100
0000
0001
0000
0100
0001
1100
0000
0010
0000
,  // measure 29
0100
0000
0010
0000
0001
0000
0100
0000
0010
0000
0100
0010
0100
0000
1000
0000
,  // measure 30
0100
0010
0001
0100
2000
0000
3100
0000
,  // measure 31
0011
0000
0100
0000
0010
0000
0100
0000
1000
0000
0100
1000
0100
0000
0100
0000
,  // measure 32
0011
0000
0100
0000
0010
0000
0001
0000
0100
0000
0001
0100
0001
0000
0100
0000
,  // measure 33
1010
0100
0010
0100
0010
0001
0100
0010
,  // measure 34
0100
0010
0100
0010
0200
0000
0310
0000
,  // measure 35
0110
0110
1001
1001
1000
0100
1000
0100
,  // measure 36
0010
0001
0100
0010
0100
0010
0001
0100
,  // measure 37
0100
0000
0000
0010
0000
0000
0001
0000
0000
0000
0100
0000
0010
0000
0001
0000
,  // measure 38
0100
0010
0100
1000
0100
0010
0001
0100
,  // measure 39
0010
0000
0000
0100
0000
0000
0010
0000
0000
0000
0001
0000
0100
0000
0010
0000
,  // measure 40
0100
0000
0010
0100
0010
0000
0000
0000
0000
0000
0001
0000
0100
0000
0010
0000
,  // measure 41
0100
1000
0100
0000
0000
0100
0010
0001
,  // measure 42
0100
0000
0010
0000
0100
0000
0000
0000
0010
0000
0001
0000
0100
0000
0010
0100
,  // measure 43
0010
0001
0200
0300
0010
0100
0010
0001
,  // measure 44
0100
0010
0100
1000
0100
0010
0001
0100
,  // measure 45
0010
0000
0000
0100
0000
0000
0010
0000
0000
0000
0001
0000
0100
0000
0010
0000
,  // measure 46
0100
1000
0100
0010
0001
0100
0010
0100
,  // measure 47
0010
0000
0000
0100
0000
0000
0010
0000
0000
0000
0001
0000
0100
0000
0010
0000
,  // measure 48
0100
1000
0100
0000
1000
0100
0010
0001
,  // measure 49
0100
0010
0100
0000
0100
0010
0001
0100
,  // measure 50
0010
0100
1000
0000
1000
0100
0010
0001
,  // measure 51
1001
0000
1100
0000
0100
0010
0001
0100
,  // measure 52
0010
0100
1000
0000
0100
0010
0001
0100
,  // measure 53
0110
0000
1001
0000
0100
1000
0100
0010
,  // measure 54
0001
0100
0010
0000
0100
1000
0100
0010
,  // measure 55
0001
0000
0110
0000
1000
0100
1000
0100
,  // measure 56
0010
0001
0100
0000
0010
0100
0010
0001
,  // measure 57
0100
1000
0100
0000
0010
0001
0100
0010
,  // measure 58
0100
1000
0100
0000
0100
0010
0001
0100
,  // measure 59
0020
0200
0000
0000
,  // measure 60
0330
0000
0000
0000
,  // measure 61
0000
0000
0000
0000
,  // measure 62
0000
0000
0000
0000
,  // measure 63
0000
0000
0000
2002
,  // measure 64
0000
0000
0000
3003
;

//---------------dance-double - Wrland---------------
#NOTEDATA:;
#CHARTNAME:;
#CHARTSTYLE:Pad;
#CREDIT:Wrland;
#STEPSTYPE:dance-double;
#DESCRIPTION:Wrland;
#DIFFICULTY:Challenge;
#METER:14;
#METERF:14;
#RADARVALUES:0,0,0,0,0;
#NOTES:
// measure 0
00000000
00000000
00000000
00000000
,  // measure 1
00000000
00000000
00000000
00000000
,  // measure 2
00000000
00000000
00000000
00000000
,  // measure 3
00000001
00000010
00000100
00000010
00000001
00000100
00000010
00000100
,  // measure 4
00000010
00000000
00000100
00000000
00001000
00000000
00000100
00000000
00000011
00000000
00000000
00001100
00000000
00000000
00000110
00000000
,  // measure 5
00000000
00001000
00010000
00100000
01000000
00100000
00010000
01000000
,  // measure 6
00100000
00000000
01000000
00000000
10000000
00000000
01000000
00000000
11000000
00000000
00000000
01100000
00000000
00000000
00110000
00000000
,  // measure 7
00000000
00001000
00000100
00000001
00000100
00000010
00000001
00000000
,  // measure 8
00000000
00000010
00000100
00000010
00000100
00001000
00110000
00000000
,  // measure 9
00000000
01000000
00100000
00010000
01000000
00100000
01000000
00000000
,  // measure 10
10000000
01000000
10000000
01000000
00200000
00000000
01300000
00000000
,  // measure 11
00100000
00010000
00001000
00000100
00000010
00000001
00000010
00000100
,  // measure 12
00000010
00000000
00000001
00000000
00000100
00000000
00000010
00000000
00000100
00000000
00000000
00000010
00000000
00000000
00000100
00000000
,  // measure 13
00000000
00000100
00001000
00001000
00010000
00100000
01000000
10000000
,  // measure 14
01000000
00000000
00100000
00000000
00010000
00000000
01000000
00000000
00100000
00000000
00000000
01000000
00000000
00000000
00100000
00000000
,  // measure 15
00000000
00001000
00000100
00000010
00000100
00000010
00000001
00000000
,  // measure 16
00000000
00000010
00000100
00000010
00000001
00000100
00001000
00000000
,  // measure 17
00000000
00010000
00010000
00100000
01000000
00100000
01000000
00000000
,  // measure 18
01000000
00100000
01000000
00100000
01000000
00000000
01100000
00000000
,  // measure 19
00010000
00000000
10000000
00010000
10000000
00000000
10010000
00000000
,  // measure 20
00000000
00000000
10000000
01000000
10000000
00000000
01000000
00000000
,  // measure 21
00110000
00000000
00001000
00000100
00000011
00000000
00000110
00000000
,  // measure 22
00000100
00000010
00000100
00000010
00000200
00000000
00000310
00000000
,  // measure 23
00011000
00000000
00100000
10000000
01000000
00000000
01000000
00000000
,  // measure 24
00100000
00000000
00010000
00000000
01000000
00000000
00100000
01000000
00100000
00000000
00010000
00000000
00110000
00000000
00000000
00000000
,  // measure 25
00001000
00000100
00000010
00000001
00000010
00000100
00000010
00000000
,  // measure 26
00000010
00000100
00000010
00000001
00000200
00000000
00000310
00000000
,  // measure 27
00011000
00000000
00000000
00000000
00100000
00000000
01000000
00000000
00100000
00000000
01000000
00100000
01000000
00000000
10000000
00000000
,  // measure 28
01000000
00000000
00100000
00000000
00010000
00000000
01000000
00000000
00010000
00000000
01000000
00010000
01100000
00000000
00100000
00000000
,  // measure 29
00001000
00000000
00000100
00000000
00000010
00000000
00000001
00000000
00000100
00000000
00000010
00000100
00000010
00000000
00000100
00000000
,  // measure 30
00000001
00000100
00001000
00000100
00000020
00000000
00000130
00000000
,  // measure 31
00011000
00000000
01000000
00000000
00100000
00000000
01000000
00000000
10000000
00000000
01000000
10000000
01000000
00000000
01000000
00000000
,  // measure 32
00110000
00000000
01000000
00000000
00100000
00000000
00010000
00000000
01000000
00000000
00010000
01000000
00100000
00000000
00010000
00000000
,  // measure 33
00011000
00000100
00000010
00000100
00000010
00000001
00000010
00000100
,  // measure 34
00000010
00000100
00000010
00000100
00000020
00000000
00000130
00000000
,  // measure 35
00000110
00000110
00001100
00001100
00010000
01000000
10000000
01000000
,  // measure 36
00100000
00010000
01000000
00100000
01000000
00100000
00010000
01000000
,  // measure 37
01000000
00000000
00000000
00100000
00000000
00000000
00010000
00000000
00000000
00000000
01000000
00000000
00100000
00000000
00010000
00000000
,  // measure 38
00000100
00000010
00000001
00000100
00000010
00000100
00000010
00000001
,  // measure 39
00000100
00000000
00000000
00000010
00000000
00000000
00000100
00000000
00000000
00000000
00011000
00000000
00010000
00000000
00100000
00000000
,  // measure 40
01000000
00000000
00100000
01000000
00100000
00000000
00000000
00000000
00000000
00000000
00010000
00000000
01000000
00000000
00100000
00000000
,  // measure 41
01000000
10000000
01000000
00000000
00000000
01000000
00100000
00010000
,  // measure 42
01000000
00000000
00100000
00000000
01000000
00000000
00000000
00000000
00100000
00000000
00011000
00000000
00000100
00000000
00000010
00000100
,  // measure 43
00001000
00000010
00002000
00000000
00003100
00001000
00000100
00000010
,  // measure 44
00000100
00000010
00000001
00000100
00000010
00000100
00000010
00001000
,  // measure 45
00000100
00000000
00000000
00000100
00000000
00000000
00000010
00000000
00000000
00000000
00011000
00000000
01010000
00000000
00100000
00000000
,  // measure 46
01000000
10000000
01000000
00100000
00010000
01000000
00100000
01000000
,  // measure 47
00100000
00000000
00000000
01000000
00000000
00000000
00100000
00000000
00000000
00000000
00010000
00000000
00001000
00000000
00000100
00000000
,  // measure 48
00000010
00001000
00000100
00000000
00000010
00000100
00000010
00000100
,  // measure 49
00000010
00000001
00000100
00000000
00001000
00001000
00010000
01000000
,  // measure 50
00100000
01000000
10000000
00000000
10000000
01000000
00100000
00010000
,  // measure 51
10010000
00000000
11000000
00000000
01000000
00010000
00000100
00000001
,  // measure 52
00000010
00001000
00000100
00000000
00000100
00000010
00000001
00000100
,  // measure 53
00000110
00000000
00001001
00000000
00000100
00001000
00010000
00100000
,  // measure 54
00010000
01000000
00100000
00000000
01000000
10000000
01000000
00100000
,  // measure 55
00010000
00000000
01100000
00000000
00011000
00001000
00000100
00000010
,  // measure 56
00000001
00000100
00000010
00000000
00000100
00000010
00000001
00000100
,  // measure 57
00000010
00000100
00001000
00000000
00000100
00000010
00000001
00000100
,  // measure 58
00000010
00000100
00001000
00000000
00000100
00001000
00010000
00100000
,  // measure 59
00200000
00020000
00000000
00000000
,  // measure 60
00330000
00000000
00000000
00000000
,  // measure 61
00000000
00000000
00000000
00000000
,  // measure 62
00000000
00000000
00000000
00000000
,  // measure 63
00000000
00000000
00000000
20020000
,  // measure 64
00000000
00000000
00000000
30030000
;
