#TITLE:What It Sounds Like;
#SUBTITLE:;
#ARTIST:HUNTR/X;
#MUSIC:What It Sounds Like.ogg;
#BANNER:What It Sounds Like.png;
#BACKGROUND:BG.png;
#LYRICSPATH:;
#CDTITLE:K-POP DEMON HUNTERS.png;
#SAMPLESTART:116.082;
#SAMPLELENGTH:15.000;
#LYRICSPATH:What It Sounds Like.lrc;
#BPMS:0.000000=40.011000,
0.500000=106.011000,
127.000000=97.011000,
129.000000=88.011000,
131.000000=49.011000,
132.000000=47.011000,
133.000000=118.028000,
209.000000=120.000000,
273.000000=124.000000,
431.000000=104.000000,
432.000000=85.000000,
433.000000=79.000000,
451.000000=64.000000
;
#STOPS:;
#TIMESIGNATURES:;
#BGCHANGES:0.000=What It Sounds Like.mp4=0.000=0=0=0=StretchNoLoop====,
99999=-nosongbg-=1.000=0=0=0 // don't automatically add -songbackground-
;
#FGCHANGES:;
#ATTACKS:;
#SPEEDS:;
#SCROLLS:;
#DISPLAYBPM:120.000;
#TAGS:DMCA;

//---------------dance-single - Wrland---------------
#NOTES:
     dance-single:
     Wrland:
     Beginner:
     1:
     0,0,0,0,0:
// measure 0
0000
0000
0000
0000
,  // measure 1
0000
0000
0000
0000
,  // measure 2
0000
0000
0000
0000
,  // measure 3
0000
0000
0000
0000
,  // measure 4
0000
0000
0000
0000
,  // measure 5
0000
0000
0000
0000
,  // measure 6
0000
0000
0000
0000
,  // measure 7
0000
0000
0000
0000
,  // measure 8
2000
0000
0000
0000
,  // measure 9
0000
0000
0000
3000
,  // measure 10
0002
0000
0000
0000
,  // measure 11
0000
0000
0000
0003
,  // measure 12
2000
0000
0000
0000
,  // measure 13
0000
0000
0000
3000
,  // measure 14
0200
0000
0000
0000
,  // measure 15
0000
0000
0000
0000
,  // measure 16
0000
0000
0000
0300
,  // measure 17
0010
0000
0000
0000
,  // measure 18
0100
0000
0000
0000
,  // measure 19
1000
0000
0000
0000
,  // measure 20
0100
0000
0000
0000
,  // measure 21
0100
0000
0000
0000
,  // measure 22
0001
0000
0000
0000
,  // measure 23
0010
0000
0000
0000
,  // measure 24
1000
0000
0000
0000
,  // measure 25
0001
0000
0000
0000
,  // measure 26
1000
0000
0000
0000
,  // measure 27
1000
0000
0000
0000
,  // measure 28
0001
0000
0000
0000
,  // measure 29
0100
0000
0000
0000
,  // measure 30
0001
0000
0000
0000
,  // measure 31
0100
0000
0000
0000
,  // measure 32
0020
0000
0000
0000
,  // measure 33
0030
0100
0000
0000
,  // measure 34
0000
1000
0000
0000
,  // measure 35
0000
0100
0000
0000
,  // measure 36
0000
0010
0000
0000
,  // measure 37
0000
0001
0000
0000
,  // measure 38
0000
0100
0000
0000
,  // measure 39
0000
1000
0000
0000
,  // measure 40
0000
0100
0000
0000
,  // measure 41
0000
0010
0000
0000
,  // measure 42
0000
0100
0000
0000
,  // measure 43
0000
0100
0000
0000
,  // measure 44
0000
0001
0000
0000
,  // measure 45
0000
1000
0000
0000
,  // measure 46
0000
0010
0000
0000
,  // measure 47
0000
0100
0000
0000
,  // measure 48
0000
0100
0000
0000
,  // measure 49
0000
2002
0000
0000
,  // measure 50
0000
0000
0000
0000
,  // measure 51
3003
0000
0000
0000
,  // measure 52
0000
0100
0000
0000
,  // measure 53
0000
0010
0000
0000
,  // measure 54
0000
0001
0000
0000
,  // measure 55
0000
1000
0000
0000
,  // measure 56
0000
0100
0000
0000
,  // measure 57
0000
0010
0000
0000
,  // measure 58
0000
0100
0000
0000
,  // measure 59
0000
0010
0000
0000
,  // measure 60
0000
1000
0000
0000
,  // measure 61
0000
0001
0000
0000
,  // measure 62
0000
0001
0000
0000
,  // measure 63
0000
0100
0000
0000
,  // measure 64
0000
0010
0000
0000
,  // measure 65
0000
0010
0000
0000
,  // measure 66
0000
0100
0000
0000
,  // measure 67
0000
0100
0000
0000
,  // measure 68
0000
0200
0000
0000
,  // measure 69
0000
0000
0000
0000
,  // measure 70
0300
0020
0000
0000
,  // measure 71
0000
0000
0000
0000
,  // measure 72
0030
0002
0000
0000
,  // measure 73
0000
0000
0000
0000
,  // measure 74
0003
2000
0000
0000
,  // measure 75
0000
0000
0000
0000
,  // measure 76
3000
0200
0000
0000
,  // measure 77
0000
0000
0000
0000
,  // measure 78
0300
0020
0000
0000
,  // measure 79
0000
0000
0000
0000
,  // measure 80
0030
0002
0000
0000
,  // measure 81
0000
0000
0000
0000
,  // measure 82
0003
0200
0000
0000
,  // measure 83
0000
0000
0000
0000
,  // measure 84
0000
0000
0300
0001
,  // measure 85
0000
0000
0000
1000
,  // measure 86
0000
0000
0000
1000
,  // measure 87
0000
0000
0000
0001
,  // measure 88
0000
0000
0000
0100
,  // measure 89
0000
0000
0000
0010
,  // measure 90
0000
0000
0000
0001
,  // measure 91
0000
0000
0000
0100
,  // measure 92
0000
0000
0000
0010
,  // measure 93
0000
0000
0000
0100
,  // measure 94
0000
0000
0000
1000
,  // measure 95
0000
0000
0000
0100
,  // measure 96
0000
0000
0000
0010
,  // measure 97
0000
0000
0000
0100
,  // measure 98
0000
0000
0000
1000
,  // measure 99
0000
0000
0000
0100
,  // measure 100
0000
0000
0000
0100
,  // measure 101
0000
0000
0000
0010
,  // measure 102
0000
0000
0000
0001
,  // measure 103
0000
0000
0000
1000
,  // measure 104
0000
0000
0000
0100
,  // measure 105
0000
0000
0000
0010
,  // measure 106
0000
0000
0000
0100
,  // measure 107
0000
0000
0000
0220
,  // measure 108
0000
0000
0000
0000
,  // measure 109
0000
0330
0000
0000
;

//---------------dance-single - Wrland---------------
#NOTES:
     dance-single:
     Wrland:
     Easy:
     4:
     0,0,0,0,0:
// measure 0
0000
0000
0000
0000
,  // measure 1
0000
0000
0000
0000
,  // measure 2
0000
0000
0000
0000
,  // measure 3
0000
0000
0000
0000
,  // measure 4
0000
0000
0000
0000
,  // measure 5
0000
0000
0000
0000
,  // measure 6
0000
0000
0000
0000
,  // measure 7
0000
0000
0000
0000
,  // measure 8
2000
0000
0000
0000
,  // measure 9
0000
0000
0000
3000
,  // measure 10
0002
0000
0000
0000
,  // measure 11
0000
0000
0000
0003
,  // measure 12
2000
0000
0000
0000
,  // measure 13
0000
0000
0000
3000
,  // measure 14
0200
0000
0000
0000
,  // measure 15
0000
0000
0000
0000
,  // measure 16
0000
0000
0000
0300
,  // measure 17
0010
0000
0010
0000
,  // measure 18
0100
0000
0000
0000
,  // measure 19
1000
0000
1000
0000
,  // measure 20
0100
0000
0000
0000
,  // measure 21
0100
0000
0000
0000
,  // measure 22
0001
0000
0000
0000
,  // measure 23
0010
0000
0100
0000
,  // measure 24
1000
0000
0000
0000
,  // measure 25
0001
0000
0001
0000
,  // measure 26
1000
0000
0000
0000
,  // measure 27
1000
0000
1000
0000
,  // measure 28
0001
0000
0000
0000
,  // measure 29
0100
0000
0100
0000
,  // measure 30
0001
0000
0100
0000
,  // measure 31
0100
0000
0100
0000
,  // measure 32
0020
0000
0000
0000
,  // measure 33
0030
0100
0000
0100
,  // measure 34
0000
1000
0000
0000
,  // measure 35
0000
0100
0000
0100
,  // measure 36
0000
0010
0000
0000
,  // measure 37
0000
0001
0000
0001
,  // measure 38
0000
0100
0000
0000
,  // measure 39
0000
1000
0000
1000
,  // measure 40
0000
0100
0000
0000
,  // measure 41
0000
0010
0000
0001
,  // measure 42
0000
0100
0000
1000
,  // measure 43
0000
0100
0000
0010
,  // measure 44
0000
0001
0000
0100
,  // measure 45
0000
1000
0000
0100
,  // measure 46
0000
0010
0000
0001
,  // measure 47
0000
0100
0000
0010
,  // measure 48
0000
0100
0000
0010
,  // measure 49
0000
2002
0000
0000
,  // measure 50
0000
0000
0000
0000
,  // measure 51
3003
0000
0000
0000
,  // measure 52
0000
0100
0000
0100
,  // measure 53
0000
0010
0000
0000
,  // measure 54
0000
0001
0000
0001
,  // measure 55
0000
1000
0000
0000
,  // measure 56
0000
0100
0000
0100
,  // measure 57
0000
0010
0000
0010
,  // measure 58
0000
0100
0000
0100
,  // measure 59
0000
0010
0000
0001
,  // measure 60
0000
1000
0000
1000
,  // measure 61
0000
0001
0000
0000
,  // measure 62
0000
0001
0000
0001
,  // measure 63
0000
0100
0000
0000
,  // measure 64
0000
0010
0000
0100
,  // measure 65
0000
0010
0000
0000
,  // measure 66
0000
0100
0000
0010
,  // measure 67
0000
0100
0000
0010
,  // measure 68
0000
0200
0000
0000
,  // measure 69
0000
0000
0000
0000
,  // measure 70
0300
0020
0000
0000
,  // measure 71
0000
0000
0000
0000
,  // measure 72
0030
0002
0000
0000
,  // measure 73
0000
0000
0000
0000
,  // measure 74
0003
2000
0000
0000
,  // measure 75
0000
0000
0000
0000
,  // measure 76
3000
0200
0000
0000
,  // measure 77
0000
0000
0000
0000
,  // measure 78
0300
0020
0000
0000
,  // measure 79
0000
0000
0000
0000
,  // measure 80
0030
0002
0000
0000
,  // measure 81
0000
0000
0000
0000
,  // measure 82
0003
0200
0000
0000
,  // measure 83
0000
0000
0000
0000
,  // measure 84
0000
0000
0300
0001
,  // measure 85
0000
0001
0000
1000
,  // measure 86
0000
0000
0000
1000
,  // measure 87
0000
1000
0000
0001
,  // measure 88
0000
0000
0000
0100
,  // measure 89
0000
0100
0000
0010
,  // measure 90
0000
0000
0000
0001
,  // measure 91
0000
0001
0000
0100
,  // measure 92
0000
0000
0000
0010
,  // measure 93
0000
0010
0000
0100
,  // measure 94
0000
0000
0000
1000
,  // measure 95
0000
1000
0000
0100
,  // measure 96
0000
0000
0000
0010
,  // measure 97
0000
0001
0000
0100
,  // measure 98
0000
0000
0000
1000
,  // measure 99
0000
1000
0000
0100
,  // measure 100
0000
0000
0000
0100
,  // measure 101
0000
0100
0000
0010
,  // measure 102
0000
0000
0000
0001
,  // measure 103
0000
0001
0000
1000
,  // measure 104
0000
0000
0000
0100
,  // measure 105
0000
0100
0000
0010
,  // measure 106
0000
0010
0000
0100
,  // measure 107
0000
0100
0000
0220
,  // measure 108
0000
0000
0000
0000
,  // measure 109
0000
0330
0000
0000
;

//---------------dance-single - Wrland---------------
#NOTES:
     dance-single:
     Wrland:
     Medium:
     8:
     0,0,0,0,0:
// measure 0
0000
0000
0000
0000
,  // measure 1
0000
0000
0000
0000
,  // measure 2
0000
0000
0000
0000
,  // measure 3
0000
0000
0000
0000
,  // measure 4
0000
0000
0000
0000
,  // measure 5
0000
0000
0000
0000
,  // measure 6
0000
0000
0000
0000
,  // measure 7
0000
0000
0000
0000
,  // measure 8
2000
0000
0000
3000
,  // measure 9
0002
0000
0000
0003
,  // measure 10
2000
0000
0000
3000
,  // measure 11
0002
0000
0000
0003
,  // measure 12
2000
0000
0000
3000
,  // measure 13
0200
0000
0000
0300
,  // measure 14
0020
0000
0000
0030
,  // measure 15
0200
0000
0000
0000
,  // measure 16
0000
0000
0000
0300
,  // measure 17
0010
0000
0010
0000
0010
0100
0010
0000
,  // measure 18
0100
0000
0000
0000
1000
0000
0000
0000
0100
0000
0000
0010
0000
0000
0100
0000
,  // measure 19
1000
0100
0010
0100
,  // measure 20
0001
0000
0000
0000
0100
0000
0000
0000
0010
0000
0000
0001
0000
0000
0100
0000
,  // measure 21
0100
0010
0100
0000
,  // measure 22
1000
0100
1000
0000
,  // measure 23
0100
0010
0001
0000
,  // measure 24
0100
0010
0001
0000
,  // measure 25
0100
0100
0010
0000
,  // measure 26
0001
0100
0010
0000
,  // measure 27
0100
1000
0100
0000
,  // measure 28
1000
0100
0010
0000
,  // measure 29
0001
0100
0010
0000
,  // measure 30
0100
0010
0001
0000
,  // measure 31
0100
0010
0001
0000
,  // measure 32
0100
0010
0100
0020
,  // measure 33
0000
0030
0100
0000
0010
0000
0100
0000
,  // measure 34
0010
0000
1000
0000
0000
0100
0010
0000
,  // measure 35
0000
0001
0100
0000
0000
0000
0010
0000
,  // measure 36
0100
0010
0000
0000
0000
0100
0010
0000
,  // measure 37
0001
0100
0000
0010
,  // measure 38
0100
0010
0000
0000
0100
0000
1000
0000
,  // measure 39
0100
1000
0000
0000
0100
0000
0010
0000
,  // measure 40
0001
0000
0100
0000
0000
0000
0010
0000
0000
0000
0100
0000
0000
0010
0000
0000
,  // measure 41
0001
0100
0100
1000
,  // measure 42
0000
0100
0100
0010
,  // measure 43
0000
0001
0001
0010
,  // measure 44
0000
0100
0100
1000
,  // measure 45
0000
0100
0100
0010
,  // measure 46
0000
0001
0001
0010
,  // measure 47
0000
0100
0100
0010
,  // measure 48
0000
0100
1000
0100
,  // measure 49
0000
2002
0000
0000
,  // measure 50
0000
0000
0000
0000
,  // measure 51
3003
0000
0000
0000
,  // measure 52
0000
0100
0010
0100
,  // measure 53
0010
0000
0000
0000
0001
0000
0000
0000
0100
0000
0000
0000
1000
0000
0000
0100
,  // measure 54
0000
1000
0000
0000
0100
0000
0010
0000
,  // measure 55
0001
0000
0000
0000
0100
0000
0000
0000
0010
0000
0000
0000
0100
0000
0000
0010
,  // measure 56
0000
0001
0000
0100
0010
0000
0100
0000
,  // measure 57
0010
0000
0000
0001
0100
0000
0010
0000
,  // measure 58
0100
0000
0000
1000
0100
0000
1000
0000
,  // measure 59
0100
0100
0010
0001
,  // measure 60
0100
0000
0000
0010
0100
0000
0010
0000
,  // measure 61
0001
0000
0000
0000
0100
0000
0000
0000
0010
0000
0000
0000
0100
0000
0000
0100
,  // measure 62
0000
1000
0100
0000
0100
0000
0010
0000
,  // measure 63
0000
0000
0000
0000
0001
0000
0000
0000
0100
0000
0000
0000
0010
0000
0000
0100
,  // measure 64
0000
0010
0001
0000
0100
0000
0010
0000
,  // measure 65
0000
0100
1000
0100
,  // measure 66
0000
0100
0010
0001
,  // measure 67
0000
0100
0010
0001
,  // measure 68
0100
0200
0300
1000
,  // measure 69
0100
0020
0030
0001
,  // measure 70
0100
0020
0030
0100
,  // measure 71
0010
0100
1000
0100
,  // measure 72
0010
1002
0003
0100
,  // measure 73
1000
0200
0300
0100
,  // measure 74
0010
0002
0003
0100
,  // measure 75
0010
0001
0100
1000
,  // measure 76
0100
0210
0300
0001
,  // measure 77
0010
0200
0300
1000
,  // measure 78
0100
0020
0030
0001
,  // measure 79
0100
0010
0100
1000
,  // measure 80
0100
2100
3000
0100
,  // measure 81
0010
0102
0003
0010
,  // measure 82
0100
1200
0300
0100
,  // measure 83
0010
0001
0000
0101
,  // measure 84
2002
0000
3003
0100
,  // measure 85
0010
0100
0000
0100
,  // measure 86
0010
0000
0001
0000
0000
0000
0000
0100
,  // measure 87
0010
0001
0100
0010
,  // measure 88
0100
0000
0000
0000
1000
0000
0000
0100
0000
0000
1000
0000
0100
0000
0000
0000
,  // measure 89
0010
0000
0100
0010
0100
0000
0000
0001
,  // measure 90
0100
0000
0010
0000
0100
0000
0000
1000
,  // measure 91
0100
0100
0010
0001
,  // measure 92
0100
0000
0010
0000
0100
0000
0000
0100
,  // measure 93
0010
0001
0100
0010
,  // measure 94
0100
0000
0000
0000
1000
0000
0000
0100
0000
0000
1000
0000
0000
0000
0100
0000
,  // measure 95
0010
0001
0100
0010
,  // measure 96
0001
0000
0000
0000
0100
0000
0000
0010
0000
0000
0100
0000
0010
0000
0000
0000
,  // measure 97
0001
0000
0100
0000
1000
0000
0000
1000
,  // measure 98
0100
0000
1000
0000
0100
0000
0000
0100
,  // measure 99
0010
0001
0100
0010
,  // measure 100
0001
0000
0100
0000
0010
0000
0000
0100
,  // measure 101
0010
0100
1000
0100
,  // measure 102
1000
0000
0100
0010
0001
0000
0100
0000
,  // measure 103
0010
0000
0001
0000
0100
0000
0000
0100
,  // measure 104
0010
0000
0001
0000
0100
0000
0000
1000
,  // measure 105
0100
0000
0010
0000
0001
0000
0000
0100
,  // measure 106
0010
0000
0100
0000
1000
0000
0000
0100
,  // measure 107
1000
0100
0010
0001
,  // measure 108
1000
0001
2002
0000
,  // measure 109
0000
3003
0000
0000
;

//---------------dance-single - Wrland---------------
#NOTES:
     dance-single:
     Wrland:
     Hard:
     11:
     0,0,0,0,0:
// measure 0
0000
0000
0000
0000
,  // measure 1
0000
0000
0000
0000
,  // measure 2
0000
0000
0000
0000
,  // measure 3
0000
0000
0000
0000
,  // measure 4
0000
0000
0000
0000
,  // measure 5
0000
0000
0000
0000
,  // measure 6
0000
0000
0000
0000
,  // measure 7
0000
0000
0000
0000
,  // measure 8
0100
0000
0010
0100
0020
0000
0130
0000
,  // measure 9
1000
0000
0001
1000
0002
0000
1003
0000
,  // measure 10
0100
0000
1000
0000
0100
1000
0100
0000
,  // measure 11
0100
0000
0000
0000
0010
0000
0000
0000
0200
0000
0300
0010
0000
0000
0001
0000
,  // measure 12
0200
0000
0300
0010
0000
0000
0100
0000
2000
0000
3000
0100
0000
0000
1000
0000
,  // measure 13
0200
0000
0300
0010
0000
0000
0001
0000
0200
0000
0300
0010
0000
0000
0100
0000
,  // measure 14
0020
0000
0030
0100
0000
0000
0000
0000
0020
0000
0030
0100
0000
0000
0020
0000
,  // measure 15
0000
0030
0200
0000
0000
0000
0000
0000
,  // measure 16
0000
0000
0000
0300
,  // measure 17
0100
0000
1000
0000
0100
1000
0100
0000
,  // measure 18
0010
0000
0100
0000
0000
0000
0000
0000
0010
0000
0000
0001
0000
0000
0100
0000
,  // measure 19
0000
0010
0100
0000
0010
0000
0001
0000
,  // measure 20
0100
0000
0010
0000
0100
0000
0000
0000
1000
0000
0000
0100
0000
0000
1000
0000
,  // measure 21
0000
0100
0010
0000
0001
0100
0010
0000
,  // measure 22
0100
0000
0010
0000
0001
0100
0010
0000
,  // measure 23
0100
0000
0010
0000
1000
0100
1000
0000
,  // measure 24
0100
0000
0000
0000
0010
0000
0001
0000
0200
0000
0000
0000
0320
0000
0000
0030
,  // measure 25
0001
0100
0010
0100
1000
0100
0010
0001
,  // measure 26
0100
0000
0010
0000
0100
0000
0010
0000
0100
0000
0000
0010
0000
0000
0100
0000
,  // measure 27
0000
0010
0001
0000
0100
1000
0100
0000
,  // measure 28
1000
0000
0100
0000
0010
0000
0001
0000
0100
0000
0000
0010
0000
0000
0100
0000
,  // measure 29
0000
0010
0001
0100
0010
0100
1000
0000
,  // measure 30
0000
0100
1000
0100
0010
0001
0100
0000
,  // measure 31
0000
0010
0100
0010
0001
0100
0010
0000
,  // measure 32
0100
0000
0010
0000
0001
0000
0100
0000
0020
0000
0000
0030
0200
0000
0000
0000
,  // measure 33
0000
0000
0000
0300
0010
0000
0000
0000
0100
0000
0000
0000
0010
0000
0000
0001
,  // measure 34
0000
0000
0100
0000
0000
0000
0010
0000
0100
0000
0000
0000
1000
0000
0000
0100
,  // measure 35
0000
0000
1000
0000
0100
0000
0000
0010
0000
0000
0000
0000
0001
0000
0000
0100
,  // measure 36
0000
0010
0000
0100
0000
0001
0100
0010
,  // measure 37
0100
0000
0000
0000
0010
0000
0000
0000
0001
0000
0000
0000
0100
0000
0000
1000
,  // measure 38
0000
0000
0100
0000
0000
0000
1000
0000
0000
0000
0100
0000
1000
0000
0000
0100
,  // measure 39
0000
0010
0000
0001
0000
0100
0010
0001
,  // measure 40
0100
0000
0010
0000
0000
0000
0100
0000
0000
0000
0010
0000
0000
0100
0000
0000
,  // measure 41
0010
0000
0001
0100
0010
0100
2000
0000
,  // measure 42
3100
0000
0000
1000
0100
1000
0200
0000
,  // measure 43
1300
0000
0000
0100
0010
0001
0200
0000
,  // measure 44
0310
0000
0000
0000
0000
0000
0100
0000
0010
0000
0001
0000
0200
0000
0300
0010
,  // measure 45
0000
0000
0100
0000
0020
0000
0030
0001
0000
0000
0100
0000
0020
0000
0030
0100
,  // measure 46
0000
0000
1000
0000
0200
0000
0300
1000
0000
0000
0100
0000
2000
0000
3000
0100
,  // measure 47
0000
0000
0010
0000
0002
0000
0003
0100
0000
0000
0010
0000
0002
0000
0003
0100
,  // measure 48
0000
0000
0010
0000
0200
0000
0300
0010
0000
0000
0001
0000
0200
0000
0300
0010
,  // measure 49
0000
0100
2000
0000
0000
0000
0000
0000
,  // measure 50
0000
3000
0002
0000
0000
0000
0000
0000
,  // measure 51
0000
0003
2000
0000
0000
0000
0000
0000
,  // measure 52
3000
0000
0001
0000
1000
0000
0001
1000
,  // measure 53
0001
0000
0000
0000
0100
0000
0000
0000
1000
0000
0000
0000
0100
0000
0000
1000
,  // measure 54
0000
0100
0000
1000
0100
0000
1000
0000
,  // measure 55
0100
0000
0000
0000
0010
0000
0000
0000
0001
0000
0100
0000
0010
0000
0000
0100
,  // measure 56
0000
0010
0000
0100
0010
0000
0001
0100
,  // measure 57
0001
0000
0100
0010
0100
0000
0010
0001
,  // measure 58
0100
0000
0000
0010
0100
0000
1000
0100
,  // measure 59
1000
0100
0010
0001
,  // measure 60
1001
0000
0100
0000
0010
0000
0001
0100
,  // measure 61
0010
0000
0000
0000
0100
0000
0000
0000
0010
0000
0000
0000
0001
0000
0000
0100
,  // measure 62
0000
0001
0000
0100
0010
0000
0100
0000
,  // measure 63
0010
0000
0000
0000
0001
0000
0000
0000
0100
0000
0000
0000
0010
0000
0000
0100
,  // measure 64
0000
0010
0000
0100
0010
0000
0001
0000
,  // measure 65
0100
0000
0000
1000
0100
0000
1000
0000
,  // measure 66
0100
0000
0000
0100
0010
0000
0001
0000
,  // measure 67
0100
0000
0010
0000
0100
0010
0100
0000
,  // measure 68
0110
0000
0002
0000
0000
0000
0000
0003
,  // measure 69
1000
0000
0002
0000
0000
0000
0000
0003
,  // measure 70
1000
0002
0000
1003
,  // measure 71
0000
0100
1000
0100
,  // measure 72
0011
0000
0200
0000
0000
0000
0000
0300
,  // measure 73
0010
0200
0000
1300
,  // measure 74
0100
2000
0000
3100
,  // measure 75
0010
0001
0100
0010
,  // measure 76
1010
0000
0200
0000
0000
0000
0000
0300
,  // measure 77
0010
0000
0002
0000
0000
0000
0000
0003
,  // measure 78
0010
0000
0200
0000
0000
0000
0000
0300
,  // measure 79
0010
1000
0100
0010
,  // measure 80
0011
0000
0200
0000
0000
0300
0010
0000
,  // measure 81
0100
1200
0300
0100
,  // measure 82
0010
0011
0001
0101
,  // measure 83
0100
1000
0100
1000
,  // measure 84
0200
0000
0300
0010
,  // measure 85
0100
0000
0010
0000
0001
0100
0001
0000
,  // measure 86
0100
0000
0000
0000
0010
0000
0000
0100
0000
0000
0010
0000
0001
0000
0000
0000
,  // measure 87
0100
0010
0100
1000
,  // measure 88
0100
0000
0000
0000
1000
0000
0000
0100
0000
0000
1000
0000
0000
0000
0100
0000
,  // measure 89
1000
0000
0100
0000
0010
0000
0000
0001
,  // measure 90
0100
0000
0010
0000
0100
0000
0000
1000
,  // measure 91
0100
0010
0001
1000
,  // measure 92
0100
0000
0010
0100
0010
0000
0001
0000
,  // measure 93
0100
0010
0100
1000
,  // measure 94
0100
0000
0000
0000
1000
0000
0000
0100
0000
0000
1000
0000
0000
0000
0100
0000
,  // measure 95
0010
0001
0100
0010
,  // measure 96
0001
0000
0000
0000
0100
0000
0000
0010
0000
0000
0100
0000
0000
0000
0010
0000
,  // measure 97
0001
0000
0100
0000
0010
0000
0000
0001
,  // measure 98
0100
0000
0010
0000
0100
0000
0000
1000
,  // measure 99
0100
1000
0100
0100
,  // measure 100
0010
0000
0001
0000
0100
0000
0000
0010
,  // measure 101
0100
0010
0001
0100
,  // measure 102
0010
0000
0001
0000
0101
0000
0000
0010
,  // measure 103
0100
1000
0100
0010
,  // measure 104
0001
0000
0100
0000
1100
0000
0000
0100
,  // measure 105
0010
0000
0001
0000
0100
0000
0000
0010
,  // measure 106
0100
0000
1000
0000
0100
0000
0000
1000
,  // measure 107
0100
0010
0001
0100
,  // measure 108
0010
0100
0220
0000
,  // measure 109
0000
0330
0000
0000
;

//---------------dance-single - This is What It Sounds Like ---------------
#NOTES:
     dance-single:
     This is What It Sounds Like:
     Challenge:
     14:
     0,0,0,0,0:
// measure 0
0000
0000
0000
0000
,  // measure 1
0000
0000
0000
0000
,  // measure 2
0000
0000
0000
0000
,  // measure 3
0000
0000
0000
0000
,  // measure 4
0000
0000
0000
0000
,  // measure 5
0000
0000
0000
0000
,  // measure 6
0000
0000
0000
0000
,  // measure 7
0000
0000
0000
0000
,  // measure 8
0001
1000
0001
1000
0002
0000
1003
0000
,  // measure 9
0000
0100
1000
0100
2000
0000
3100
0000
,  // measure 10
0000
0100
0010
0100
0020
0000
0031
0000
,  // measure 11
0000
0000
0100
0000
0010
0000
0100
0000
0010
0000
0000
0001
0000
0000
0100
0000
,  // measure 12
0010
0000
0000
0100
0000
0000
1000
0000
0100
0000
0000
0010
0000
0000
0100
0000
,  // measure 13
0010
0000
0000
0001
0000
0000
0100
0000
0010
0000
0000
0100
0000
0000
0010
0000
,  // measure 14
0001
0000
0000
0100
0000
0000
0000
0000
0010
0000
0000
0100
0000
0000
0010
0000
,  // measure 15
0000
0002
0000
0000
,  // measure 16
0000
0000
0000
0003
,  // measure 17
0100
0010
0100
0010
0001
0100
1000
0100
,  // measure 18
1000
0000
0100
0000
0000
0000
1000
0100
1000
0000
0000
0100
0000
0000
0010
0000
,  // measure 19
0000
0001
0100
0010
0100
0010
0001
0100
,  // measure 20
0010
0000
0100
0000
1000
0000
0100
0000
1000
0000
0000
0100
0000
0000
1000
0000
,  // measure 21
0000
0100
1000
0100
0010
0001
0100
0000
,  // measure 22
0000
0010
0100
0010
0001
0100
0010
0000
,  // measure 23
0000
0100
0010
0100
0010
0001
0100
0000
,  // measure 24
0010
0001
0100
0010
0100
0000
0110
0000
,  // measure 25
0010
0001
0100
0010
0100
1000
0100
1000
,  // measure 26
0100
0000
0010
0000
0001
0000
0100
0000
0010
0000
0000
0100
0000
0000
0010
0000
,  // measure 27
0000
0001
0100
0010
0100
1000
0100
1000
,  // measure 28
0100
0000
0010
0000
0001
0000
0100
0000
0010
0000
0000
0001
0000
0000
0100
0000
,  // measure 29
0000
0010
0100
0010
0001
0100
0010
0000
,  // measure 30
0000
0100
0010
0001
0100
0010
0100
0000
,  // measure 31
0000
0010
0100
0010
0001
0100
0010
0000
,  // measure 32
0100
0010
0001
0100
0010
0000
0200
0000
,  // measure 33
0000
0000
0000
0300
0010
0000
0000
0000
0100
0000
0000
0000
0010
0000
0000
0001
,  // measure 34
0000
0000
0200
0000
0000
0000
0310
0000
0000
0000
0100
0000
0020
0000
0000
0130
,  // measure 35
0000
0000
1000
0000
0200
0000
0000
1300
0000
0000
0000
0000
0100
0000
1000
0100
,  // measure 36
0000
1000
0100
0000
0010
0000
0100
0000
0000
0000
0010
0000
0100
0000
0010
0000
,  // measure 37
0002
0000
0000
0000
0103
0000
0000
0000
0010
0000
0001
0000
0100
0000
0010
0100
,  // measure 38
0000
0010
0100
0000
0010
0000
0001
0000
0000
0000
0100
0000
0010
0000
0100
1000
,  // measure 39
0000
0100
1000
0000
0100
0000
0010
0000
0000
0000
0001
0000
0100
1000
0100
0000
,  // measure 40
0010
0000
0200
0000
0300
0000
0020
0000
0030
0000
0100
0000
0000
0010
0000
0000
,  // measure 41
0002
0003
0100
0010
0100
0010
0002
0000
,  // measure 42
0103
0000
0000
0100
0010
0100
2000
0000
,  // measure 43
3100
0000
0000
1000
0100
0010
0002
0000
,  // measure 44
0103
0000
0000
0000
0010
0000
0100
0000
0010
0000
0001
0000
0100
0000
0000
0010
,  // measure 45
0000
0000
0100
0000
0010
0000
0000
0001
0000
0000
0100
0000
0010
0000
0000
0100
,  // measure 46
0000
0000
1000
0000
0100
0000
0000
1000
0000
0000
0100
0000
1000
0000
0000
0100
,  // measure 47
0000
0000
0010
0000
0001
0000
0000
0100
0000
0000
0010
0000
0100
0000
0000
0010
,  // measure 48
0000
0000
0001
0000
0100
0000
0000
0010
0000
0000
0100
0000
1000
0000
0000
0100
,  // measure 49
0000
1000
0200
0000
0000
0000
0000
0000
,  // measure 50
0020
0000
0000
0000
,  // measure 51
0330
0000
0000
0000
0001
0000
0100
0001
0100
0000
0100
0000
1000
0000
0100
1000
,  // measure 52
0100
1000
0100
0010
0100
0010
0001
0100
,  // measure 53
0010
0000
0100
0000
0010
0000
0100
0000
1000
0000
0100
0000
1100
0000
0000
0110
,  // measure 54
0000
0011
0000
0010
0100
0010
0100
0010
,  // measure 55
0001
0000
0100
0000
0010
0000
0100
0000
1000
0000
0100
0000
1100
0000
0000
0110
,  // measure 56
0000
0011
0000
0010
0100
0010
0001
0100
,  // measure 57
0010
0000
0000
0100
1000
0100
1000
0100
,  // measure 58
0010
0000
0000
0100
0010
0001
0100
0010
,  // measure 59
0100
0000
1000
0100
1000
0100
0020
0000
,  // measure 60
0130
0000
0010
0001
0100
0010
0100
1000
,  // measure 61
0100
0000
1000
0000
0100
0000
0010
0000
0001
0000
0100
0000
0010
0000
0000
0100
,  // measure 62
0000
0010
0000
0001
0100
0010
0100
1000
,  // measure 63
0100
0000
1000
0000
0100
0000
0010
0000
0001
0000
0100
0000
0010
0000
0000
0100
,  // measure 64
0000
0010
0000
0001
0100
0010
0100
1000
,  // measure 65
0100
0000
0000
1000
0100
0010
0001
0100
,  // measure 66
0010
0000
0000
0100
0010
0001
0100
0010
,  // measure 67
0100
0000
0100
0010
0100
0010
0100
0000
,  // measure 68
0110
0000
0001
0000
1000
0001
1000
0000
,  // measure 69
1001
0000
0000
0000
1000
0100
1000
0000
,  // measure 70
0100
0000
0110
0000
0010
0001
0101
0000
,  // measure 71
1010
0000
0100
0010
0100
0010
0200
0000
,  // measure 72
0310
0000
1001
0000
0100
1000
0100
0000
,  // measure 73
0100
0000
0000
0000
0010
0000
0001
0000
0100
0000
0010
0100
0010
0000
0001
0000
,  // measure 74
0110
0000
1000
0100
1000
0100
0010
0001
,  // measure 75
0100
0000
0010
0100
1000
0100
0200
0000
,  // measure 76
0310
0000
0000
0000
0101
0000
0000
0000
0010
0000
0100
0000
0010
0000
0100
0010
,  // measure 77
0100
0000
1000
0000
0100
0000
0010
0000
0001
0000
0100
0000
0001
0000
0100
0001
,  // measure 78
1100
0000
0010
0000
0100
0000
0010
0000
0001
0000
0100
0000
0010
0000
0100
0010
,  // measure 79
0100
1000
0100
0010
0001
0100
2000
0000
,  // measure 80
3100
0000
0000
0000
0011
0000
0100
0000
0010
0000
0100
0000
1000
0000
0100
1000
,  // measure 81
0100
0000
0100
0000
0011
0000
0100
0000
0010
0000
0001
0000
0100
0000
0001
0100
,  // measure 82
0001
0100
1010
0100
0010
0100
0010
0001
,  // measure 83
0100
0010
0100
0010
0100
0010
0200
0000
,  // measure 84
0310
0000
0110
0110
1001
1001
1000
0100
,  // measure 85
1000
0100
0010
0001
0100
0010
0100
0010
,  // measure 86
0001
0000
0100
0000
0100
0000
0000
0010
0000
0000
0001
0000
0000
0000
0100
0000
,  // measure 87
0010
0001
0100
0010
0100
1000
0100
0010
,  // measure 88
0001
0000
0100
0000
0010
0000
0000
0100
0000
0000
0010
0000
0000
0000
0001
0000
,  // measure 89
0100
0000
0010
0000
0100
0000
0010
0100
0010
0000
0000
0000
0000
0000
0001
0000
,  // measure 90
0100
0010
0100
1000
0100
0000
0000
0100
,  // measure 91
0010
0001
0100
0010
0100
0000
0010
0001
,  // measure 92
0100
0000
0010
0100
0010
0000
0001
0000
0200
0000
0300
0000
0010
0000
0100
0000
,  // measure 93
0010
0001
0100
0010
0100
1000
0100
0010
,  // measure 94
0001
0000
0100
0000
0010
0000
0000
0100
0000
0000
0010
0000
0000
0000
0001
0000
,  // measure 95
0100
0010
0100
1000
0100
0010
0001
0100
,  // measure 96
0010
0000
0100
0000
0010
0000
0000
0100
0000
0000
0010
0000
0000
0000
0001
0000
,  // measure 97
0100
0010
0100
1000
0100
0000
1000
0100
,  // measure 98
0010
0001
0100
0010
0100
0000
0100
0010
,  // measure 99
0001
0100
0010
0100
1000
0000
1000
0100
,  // measure 100
0010
0001
1001
0000
1100
0000
0100
0010
,  // measure 101
0001
0100
0010
0100
1000
0000
0100
0010
,  // measure 102
0001
0100
0110
0000
1001
0000
0100
1000
,  // measure 103
0100
0010
0001
0100
0010
0000
0100
1000
,  // measure 104
0100
0010
0001
0000
0110
0000
1000
0100
,  // measure 105
1000
0100
0010
0001
0100
0000
0010
0100
,  // measure 106
0010
0001
0100
1000
0100
0000
0010
0001
,  // measure 107
0100
0010
0100
1000
0100
0000
0100
0010
,  // measure 108
0001
0100
0020
0000
0200
0000
0000
0000
,  // measure 109
0000
0330
0000
0000
,  // measure 110
0000
0000
0000
0000
,  // measure 111
0000
0000
0000
0000
,  // measure 112
0000
0000
0000
0000
,  // measure 113
2002
0000
0000
0000
,  // measure 114
3003
0000
0000
0000
;

//---------------dance-double - Wrland---------------
#NOTES:
     dance-double:
     Wrland:
     Challenge:
     14:
     0,0,0,0,0:
// measure 0
00000000
00000000
00000000
00000000
,  // measure 1
00000000
00000000
00000000
00000000
,  // measure 2
00000000
00000000
00000000
00000000
,  // measure 3
00000000
00000000
00000000
00000000
,  // measure 4
00000000
00000000
00000000
00000000
,  // measure 5
00000000
00000000
00000000
00000000
,  // measure 6
00000000
00000000
00000000
00000000
,  // measure 7
00000000
00000000
00000000
00000000
,  // measure 8
00010000
10000000
00010000
10000000
00020000
00000000
10030000
00000000
,  // measure 9
00000000
00100000
00010000
00001000
00000200
00000000
00000310
00000000
,  // measure 10
00000000
00000100
00001000
00010000
00200000
00000000
00310000
00000000
,  // measure 11
00000000
00000000
01000000
00000000
00100000
00000000
01000000
00000000
00100000
00000000
00000000
00010000
00000000
00000000
00001000
00000000
,  // measure 12
00000100
00000000
00000000
00000010
00000000
00000000
00000001
00000000
00000010
00000000
00000000
00000100
00000000
00000000
00000010
00000000
,  // measure 13
00000100
00000000
00000000
00001000
00000000
00000000
00010000
00000000
00100000
00000000
00000000
01000000
00000000
00000000
00100000
00000000
,  // measure 14
00010000
00000000
00000000
01000000
00000000
00000000
00000000
00000000
00100000
00000000
00000000
01000000
00000000
00000000
00100000
00000000
,  // measure 15
00000000
00020000
00000000
00000000
,  // measure 16
00000000
00000000
00000000
00030000
,  // measure 17
00000100
00000010
00000100
00000010
00000001
00000100
00001000
00000100
,  // measure 18
00001000
00000000
00000100
00000000
00000000
00000000
00001000
00000100
00001000
00000000
00000000
00000100
00000000
00000000
00000010
00000000
,  // measure 19
00000000
00000100
00001000
00010000
01000000
00100000
00010000
01000000
,  // measure 20
00100000
00000000
01000000
00000000
10000000
00000000
01000000
00000000
10000000
00000000
00000000
01000000
00000000
00000000
10000000
00000000
,  // measure 21
00000000
01000000
10000000
01000000
00100000
00010000
00001000
00000000
,  // measure 22
00000000
00000100
00000010
00000100
00000010
00000001
00000100
00000000
,  // measure 23
00000000
00000100
00001000
00000100
00001000
00010000
01000000
00000000
,  // measure 24
00100000
00010000
01000000
00100000
01000000
00000000
01100000
00000000
,  // measure 25
00100000
00010000
00001000
00000100
00000010
00000001
00000100
00000100
,  // measure 26
00000010
00000000
00000100
00000000
00000010
00000000
00000100
00000000
00001000
00000000
00000000
00000100
00000000
00000000
00001000
00000000
,  // measure 27
00000000
00010000
01000000
00100000
01000000
10000000
01000000
10000000
,  // measure 28
01000000
00000000
00100000
00000000
00010000
00000000
01000000
00000000
00100000
00000000
00000000
00010000
00000000
00000000
01000000
00000000
,  // measure 29
00000000
00100000
00010000
00001000
00000100
00000001
00000010
00000000
,  // measure 30
00000000
00000010
00000100
00000010
00000100
00001000
00000100
00000000
,  // measure 31
00000000
00001000
00010000
00100000
00010000
01000000
00100000
00000000
,  // measure 32
01000000
00100000
00010000
01000000
00100000
00000000
02000000
00000000
,  // measure 33
00000000
00000000
00000000
03000000
00100000
00000000
00000000
00000000
00010000
00000000
00000000
00000000
00001000
00000000
00000000
00000100
,  // measure 34
00000000
00000000
00000020
00000000
00000000
00000000
00000130
00000000
00000000
00000000
00000100
00000000
00000020
00000000
00000000
00000130
,  // measure 35
00000000
00000000
00001000
00000000
00020000
00000000
00000000
00130000
00000000
00000000
00000000
00000000
01000000
00000000
10000000
01000000
,  // measure 36
00000000
10000000
01000000
00000000
00100000
00000000
01000000
00000000
00000000
00000000
00100000
00000000
01000000
00000000
00100000
00000000
,  // measure 37
00020000
00000000
00000000
00000000
01030000
00000000
00000000
00000000
00100000
00000000
00010000
00000000
00001000
00000000
00000100
00000010
,  // measure 38
00000000
00000100
00000010
00000000
00000100
00000000
00001000
00000000
00000000
00000000
00010000
00000000
00100000
00000000
01000000
10000000
,  // measure 39
00000000
01000000
10000000
00000000
01000000
00000000
00100000
00000000
00000000
00000000
00010000
00000000
00001000
00000100
00000010
00000100
,  // measure 40
00000010
00000000
00000020
00000000
00000030
00000000
00000200
00000000
00000300
00000000
00000010
00000000
00000000
00000100
00000000
00000000
,  // measure 41
00000002
00000003
00000100
00001000
01000000
00100000
00020000
00000000
,  // measure 42
01030000
00000000
00000000
01000000
00100100
01000010
20000002
00000000
,  // measure 43
31000103
00000000
00000000
10000001
01000010
00100100
00002000
00000000
,  // measure 44
00013000
00000000
00000000
00000000
00100000
00000000
01000000
00000000
00100000
00000000
00010100
00000000
00000010
00000000
00000000
00000001
,  // measure 45
00000000
00000000
00000010
00000000
00000100
00000000
00000000
00000010
00000000
00000000
00000001
00000000
00000100
00000000
00000000
00001000
,  // measure 46
00000000
00000000
00000100
00000000
00000010
00000000
00000000
00000001
00000000
00000000
00000010
00000000
00000100
00000000
00000000
00001000
,  // measure 47
00000000
00000000
00110000
00000000
00010000
00000000
00000000
01000000
00000000
00000000
00100000
00000000
01000000
00000000
00000000
00100000
,  // measure 48
00000000
00000000
00010000
00000000
01000000
00000000
00000000
00100000
00000000
00000000
01000000
00000000
10000000
00000000
00000000
01000000
,  // measure 49
00000000
10000000
02000000
00000000
00000000
00000000
00000000
00000000
,  // measure 50
00200000
00000000
00000000
00000000
,  // measure 51
03300000
00000000
00000000
00000000
00010000
00000000
00000000
00010000
00000000
00000000
00010000
00000000
00001000
00000000
00000100
00000010
,  // measure 52
00000100
00000010
00000001
00000010
00000100
00000010
00000001
00000100
,  // measure 53
00000010
00000000
00000100
00000000
00000010
00000000
00000100
00000000
00001000
00000000
00000100
00000000
00000011
00000000
00000000
00001100
,  // measure 54
00000000
00000110
00000000
00001000
00010000
00100000
01000000
00100000
,  // measure 55
00010000
00000000
01000000
00000000
00100000
00000000
01000000
00000000
10000000
00000000
01000000
00000000
11000000
00000000
00000000
01100000
,  // measure 56
00000000
00110000
00000000
00001000
00000100
00000001
00000100
00000010
,  // measure 57
00000001
00000000
00000000
00000010
00000100
00000010
00000100
00001000
,  // measure 58
00110000
00000000
00000000
01000000
00100000
00010000
01000000
00100000
,  // measure 59
01000000
00000000
10000000
01000000
10000000
01000000
00200000
00000000
,  // measure 60
01300000
00000000
00100000
00010000
00001000
00000100
00000010
00000001
,  // measure 61
00000010
00000000
00000100
00000000
00000010
00000000
00000001
00000000
00000100
00000000
00000010
00000000
00000100
00000000
00000000
00000010
,  // measure 62
00000000
00000100
00000000
00000100
00001000
00001000
00010000
00100000
,  // measure 63
01000000
00000000
10000000
00000000
01000000
00000000
00100000
00000000
00010000
00000000
01000000
00000000
00100000
00000000
00000000
01000000
,  // measure 64
00000000
00100000
00000000
00001000
00000100
00000010
00000100
00000010
,  // measure 65
00000001
00000000
00000000
00000010
00000100
00000010
00000001
00000100
,  // measure 66
00001000
00000000
00000000
00010000
00010000
00100000
01000000
00100000
,  // measure 67
01000000
00000000
01000000
00100000
01000000
00100000
01000000
00000000
,  // measure 68
01100000
00000000
00010000
00000000
10000000
00010000
10000000
00000000
,  // measure 69
10010000
00000000
00000000
00000000
10000000
01000000
10000000
00000000
,  // measure 70
01000000
00000000
00110000
00000000
00001000
00000100
00000011
00000000
,  // measure 71
00000110
00000000
00000100
00000010
00000100
00000010
00000200
00000000
,  // measure 72
00000310
00000000
00011000
00000000
00100000
10000000
01000000
00000000
,  // measure 73
01000000
00000000
00000000
00000000
00100000
00000000
00010000
00000000
01000000
00000000
00100000
01000000
00100000
00000000
00010000
00000000
,  // measure 74
00110000
00000000
00001000
00000100
00000010
00000001
00000010
00000100
,  // measure 75
00000010
00000000
00000010
00000100
00000010
00000001
00000200
00000000
,  // measure 76
00000310
00000000
00000000
00000000
00011000
00000000
00000000
00000000
00100000
00000000
01000000
00000000
00100000
00000000
01000000
00100000
,  // measure 77
01000000
00000000
10000000
00000000
01000000
00000000
00100000
00000000
00010000
00000000
01000000
00000000
00010000
00000000
01000000
00010000
,  // measure 78
01100000
00000000
00100000
00000000
00001000
00000000
00000100
00000000
00000010
00000000
00000001
00000000
00000100
00000000
00000010
00000100
,  // measure 79
00000010
00000100
00000001
00000100
00001000
00000100
00000020
00000000
,  // measure 80
00000130
00000000
00000000
00000000
00011000
00000000
01000000
00000000
00100000
00000000
01000000
00000000
10000000
00000000
01000000
10000000
,  // measure 81
01000000
00000000
01000000
00000000
00110000
00000000
01000000
00000000
00100000
00000000
00010000
00000000
01000000
00000000
00010000
01000000
,  // measure 82
00100000
00010000
00011000
00000100
00000010
00000100
00000010
00000001
,  // measure 83
00000010
00000100
00000010
00000100
00000010
00000100
00000020
00000000
,  // measure 84
00000130
00000000
00000110
00000110
00001100
00001100
00010000
01000000
,  // measure 85
10000000
01000000
00100000
00010000
01000000
00100000
01000000
00100000
,  // measure 86
00010000
00000000
01000000
00000000
01000000
00000000
00000000
00100000
00000000
00000000
00010000
00000000
00000000
00000000
01000000
00000000
,  // measure 87
00100000
00010000
00000100
00000010
00000001
00000100
00000010
00000100
,  // measure 88
00000010
00000000
00000001
00000000
00000100
00000000
00000000
00000010
00000000
00000000
00000100
00000000
00000000
00000000
00011000
00000000
,  // measure 89
00010000
00000000
00100000
00000000
01000000
00000000
00100000
01000000
00100000
00000000
00000000
00000000
00000000
00000000
00010000
00000000
,  // measure 90
01000000
00100000
01000000
10000000
01000000
00000000
00000000
01000000
,  // measure 91
00100000
00010000
01000000
00100000
01000000
00000000
00100000
00011000
,  // measure 92
00000100
00000000
00000010
00000100
00001000
00000000
00000010
00000000
00002000
00000000
00000000
00000000
00003100
00000000
00001000
00000000
,  // measure 93
00000100
00000010
00000100
00000010
00000001
00000100
00000010
00000100
,  // measure 94
00000010
00000000
00001000
00000000
00000100
00000000
00000000
00000100
00000000
00000000
00000010
00000000
00000000
00000000
00011000
00000000
,  // measure 95
01010000
00100000
01000000
10000000
01000000
00100000
00010000
01000000
,  // measure 96
00100000
00000000
01000000
00000000
00100000
00000000
00000000
01000000
00000000
00000000
00100000
00000000
00000000
00000000
00010000
00000000
,  // measure 97
00001000
00000100
00000010
00001000
00000100
00000000
00000010
00000100
,  // measure 98
00000010
00000100
00000010
00000001
00000100
00000000
00001000
00001000
,  // measure 99
00010000
01000000
00100000
01000000
10000000
00000000
10000000
01000000
,  // measure 100
00100000
00010000
10010000
00000000
11000000
00000000
01000000
00010000
,  // measure 101
00000100
00000001
00000010
00001000
00000100
00000000
00000100
00000010
,  // measure 102
00000001
00000100
00000110
00000000
00001001
00000000
00000100
00001000
,  // measure 103
00010000
00100000
00010000
01000000
00100000
00000000
01000000
10000000
,  // measure 104
01000000
00100000
00010000
00000000
01100000
00000000
00011000
00001000
,  // measure 105
00000100
00000010
00000001
00000100
00000010
00000000
00000100
00000010
,  // measure 106
00000001
00000100
00000010
00000100
00001000
00000000
00000100
00000010
,  // measure 107
00000001
00000100
00000010
00000100
00001000
00000000
00000100
00001000
,  // measure 108
00010000
00100000
00200000
00000000
00020000
00000000
00000000
00000000
,  // measure 109
00000000
00330000
00000000
00000000
,  // measure 110
00000000
00000000
00000000
00000000
,  // measure 111
00000000
00000000
00000000
00000000
,  // measure 112
00000000
00000000
00000000
00000000
,  // measure 113
20020000
00000000
00000000
00000000
,  // measure 114
30030000
00000000
00000000
00000000
;
