#VERSION:0.83;
#TITLE:GOLDEN;
#SUBTITLE:;
#ARTIST:HUNTR/X;
#TITLETRANSLIT:;
#SUBTITLETRANSLIT:;
#ARTISTTRANSLIT:;
#GENRE:K-POP DEMON HUNTERS;
#CREDIT:Sony & Netflix & Republic;
#MUSIC:GOLDEN.ogg;
#BANNER:GOLDEN.png;
#BACKGROUND:BG.png;
#JACKET:GOLDEN-JACKET.png;
#DISCIMAGE:;
#CDIMAGE:GOLDEN-cd.png;
#SELECTABLE:YES;
#LYRICSPATH:GOLDEN.lrc;
#CDTITLE:K-POP DEMON HUNTERS.png;
#SAMPLESTART:78.049;
#SAMPLELENGTH:15.000;
#BPMS:0.000000=123.000000,
28.000000=61.500000,
30.000000=123.000000,
94.000000=61.500000,
102.000000=123.000000,
242.000000=61.500000
;
#STOPS:;
#WARPS:;
#DELAYS:;
#SPEEDS:;
#SCROLLS:;
#TICKCOUNTS:;
#TIMESIGNATURES:;
#LABELS:;
#COMBOS:;
#FAKES:;
#BGCHANGES:0.000=GOLDEN.mp4=0.000=0=0=0=StretchNoLoop====,
99999=-nosongbg-=1.000=0=0=0 // don't automatically add -songbackground- ;s
#FGCHANGES:;
#ATTACKS:;
#DISPLAYBPM:61.000:123.000;
#TAGS:DMCA;

//---------------dance-single - Wrland---------------
#NOTEDATA:;
#CHARTNAME:;
#CHARTSTYLE:Pad;
#CREDIT:Wrland;
#STEPSTYPE:dance-single;
#DESCRIPTION:Wrland;
#DIFFICULTY:Beginner;
#METER:4;
#METERF:4;
#RADARVALUES:0,0,0,0,0;
#NOTES:
// measure 0
0000
0000
0000
0000
,  // measure 1
0000
0000
0000
0000
,  // measure 2
0000
0000
0000
0000
,  // measure 3
0000
0000
0000
0000
,  // measure 4
0000
0000
0000
0000
,  // measure 5
0000
0000
0000
0000
,  // measure 6
0000
0000
0000
0000
,  // measure 7
0000
0000
1000
0000
,  // measure 8
0001
0000
0000
0000
0000
0000
0010
0000
0000
0000
0000
0001
,  // measure 9
0000
0000
0000
0100
0000
0000
0010
0000
0000
0000
0000
0100
,  // measure 10
0000
1000
0100
0000
,  // measure 11
0000
0000
0010
0000
,  // measure 12
0100
0000
0000
0000
0000
0000
0001
0000
0000
0000
0000
0100
,  // measure 13
0000
0000
0000
0010
0000
0000
0001
0000
0000
0000
0000
0100
,  // measure 14
0000
0000
0000
0000
0000
0000
1000
0000
0100
0000
0010
0000
,  // measure 15
0001
0000
0100
0010
0000
0000
0001
0000
0000
0000
0000
0000
,  // measure 16
0010
0000
1000
0000
,  // measure 17
1000
0000
0000
0000
0000
0000
0001
0000
0100
0000
0001
0000
,  // measure 18
0100
0000
0001
0000
0100
0000
0010
0000
0000
0000
0000
0000
,  // measure 19
0010
0000
0001
0100
0000
0010
0000
0000
0000
0000
0000
0010
,  // measure 20
0000
0000
0000
0000
0000
0100
0000
0000
0000
0000
0000
0001
,  // measure 21
0000
0000
0000
0000
0000
0000
1000
0000
1000
0000
0100
0000
,  // measure 22
0010
0000
0001
0000
0100
0000
0010
0000
0000
0000
0000
0000
,  // measure 23
0000
0000
0000
0000
0000
0000
2000
0000
3000
0002
0000
0003
,  // measure 24
2000
0000
3000
0200
0000
0300
0020
0000
0030
0002
0000
0003
,  // measure 25
0200
0000
0300
0020
0000
0030
0200
0000
0000
0300
0000
0000
,  // measure 26
0020
0030
0002
0003
,  // measure 27
2000
3000
0200
0300
,  // measure 28
2000
0000
0000
0000
,  // measure 29
3000
0000
1001
0110
,  // measure 30
1100
0000
0100
0010
0000
0001
0100
0000
0000
0010
0000
0000
,  // measure 31
0001
0000
0000
0100
0000
0000
0010
0000
0100
0000
0000
0000
,  // measure 32
0001
0000
0000
0100
0000
0000
1000
0000
0100
0000
0000
0000
,  // measure 33
1000
0001
0101
1010
,  // measure 34
0110
0000
0001
0100
0000
0010
0100
0000
0000
0010
0000
0000
,  // measure 35
0001
0000
0000
0100
0000
0000
0010
0000
0100
0000
0000
0000
,  // measure 36
1000
0000
0000
0100
0000
0000
1000
0000
0100
0000
0000
0000
,  // measure 37
0100
0001
0010
0000
,  // measure 38
0100
0000
0100
0000
,  // measure 39
0100
0000
0100
0000
,  // measure 40
0001
0000
0000
0000
0000
0002
0000
0000
0000
0000
0003
0000
,  // measure 41
0100
0000
0100
0000
,  // measure 42
0100
0000
0010
0000
,  // measure 43
0001
0000
0010
0000
,  // measure 44
0100
0000
0000
0000
0000
0200
0000
0000
0000
0000
0300
0000
,  // measure 45
0010
0000
0001
0000
0100
0000
0010
0000
0000
0000
0000
0000
,  // measure 46
0100
0000
0010
0000
,  // measure 47
0100
0110
0001
0000
,  // measure 48
0010
0000
1000
0000
,  // measure 49
1000
0000
0100
0000
,  // measure 50
0001
0000
1000
0000
,  // measure 51
0100
0000
0001
0000
,  // measure 52
0010
0000
0000
0000
0000
0020
0000
0000
0000
0000
0000
0000
,  // measure 53
0000
0000
0000
0030
0000
0000
2000
0000
0000
0000
3000
0000
,  // measure 54
0002
0000
0000
0000
0003
0000
2000
0000
0000
0000
3000
0000
,  // measure 55
0002
0000
0000
0000
0000
0003
2000
0000
0000
0000
0000
3000
,  // measure 56
0200
0000
0000
0000
0000
0300
0020
0000
0000
0000
0000
0030
,  // measure 57
0002
0000
0000
0000
0000
0003
0200
0000
0000
0000
0000
0300
,  // measure 58
0020
0000
0000
0000
0000
0030
0002
0000
0000
0000
0000
0003
,  // measure 59
0200
0000
0000
0000
0000
0300
2000
0000
0000
0000
0000
3000
,  // measure 60
0002
0000
0000
0000
0003
0000
1001
0000
0000
0000
0000
0000
;

//---------------dance-single - Wrland---------------
#NOTEDATA:;
#CHARTNAME:;
#CHARTSTYLE:Pad;
#CREDIT:Wrland;
#STEPSTYPE:dance-single;
#DESCRIPTION:Wrland;
#DIFFICULTY:Easy;
#METER:7;
#METERF:7;
#RADARVALUES:0,0,0,0,0;
#NOTES:
// measure 0
0000
0000
0000
0000
,  // measure 1
0000
0000
0000
0000
,  // measure 2
0000
0000
0000
0000
,  // measure 3
0000
0000
0000
0000
,  // measure 4
0000
0000
0000
0000
,  // measure 5
0000
0000
0000
0000
,  // measure 6
0000
0000
0000
0000
,  // measure 7
0000
0000
1000
1000
,  // measure 8
0001
0000
0000
0100
0000
0000
0010
0000
0000
0000
0000
0001
,  // measure 9
0000
0000
0000
0100
0000
0000
0010
0000
0000
0000
0000
0100
,  // measure 10
0000
1000
0100
0000
,  // measure 11
0100
0000
0100
0000
0100
0000
0010
0000
0000
0001
0000
0000
,  // measure 12
0100
0000
0000
0010
0000
0000
0001
0000
0000
0000
0000
0100
,  // measure 13
0000
0000
0000
0010
0000
0000
0001
0000
0000
0000
0000
0100
,  // measure 14
0000
0000
0000
1000
0000
0100
1000
0000
0100
0000
0010
0000
,  // measure 15
0001
0000
0100
0010
0000
0000
0001
0000
0000
0100
0000
0000
,  // measure 16
0010
0100
1000
0100
,  // measure 17
1000
0000
0000
0100
0000
0000
0001
0000
0100
0000
0001
0000
,  // measure 18
0100
0000
0001
0000
0100
0000
0010
0000
0000
0100
0000
0000
,  // measure 19
0010
0000
0001
0100
0000
0010
0000
0000
0100
0000
0000
0010
,  // measure 20
0000
0000
0100
0000
0000
0010
0000
0000
0100
0000
0000
1000
,  // measure 21
0000
0000
0000
0100
0000
0000
1000
0000
1000
0000
0100
0000
,  // measure 22
0010
0000
0001
0000
0100
0000
0010
0000
0000
0000
0000
0000
,  // measure 23
0000
0000
0000
0000
0000
0000
2000
0000
3000
0002
0000
0003
,  // measure 24
2000
0000
3000
0200
0000
0300
0020
0000
0030
0002
0000
0003
,  // measure 25
0200
0000
0300
0020
0000
0030
0200
0000
0000
0300
0000
0000
,  // measure 26
0020
0030
0002
0003
,  // measure 27
2000
3000
0200
0300
,  // measure 28
2000
0000
0000
0000
,  // measure 29
3000
0000
1001
0110
,  // measure 30
1100
0000
0100
0010
0000
0001
0100
0000
0000
0010
0000
0000
,  // measure 31
0001
0000
0000
0100
0000
0000
0010
0000
0100
0000
0000
0000
,  // measure 32
0001
0000
0000
0100
0000
0000
1000
0000
0100
0000
0000
0000
,  // measure 33
1000
0000
0001
0000
1000
0000
0101
0000
0000
1010
0000
0000
,  // measure 34
0110
0000
0001
0100
0000
0010
0100
0000
0000
0010
0000
0000
,  // measure 35
0001
0000
0000
0100
0000
0000
0010
0000
0100
0000
0000
0000
,  // measure 36
1000
0000
0000
0100
0000
0000
1000
0000
0100
0000
0000
0000
,  // measure 37
0100
0000
0001
0000
1000
0000
0010
0000
0000
0001
0000
0000
,  // measure 38
0100
0010
0100
1000
,  // measure 39
0100
1000
0100
0010
,  // measure 40
0001
0000
0000
0100
0000
0002
0000
0000
0000
0000
0003
0000
,  // measure 41
0100
0010
0100
1000
,  // measure 42
0100
1000
0100
0010
,  // measure 43
0001
0100
0010
0001
,  // measure 44
0100
0000
0000
0010
0000
0200
0000
0000
0000
0000
0300
0000
,  // measure 45
0010
0000
0001
0000
0100
0000
0010
0000
0000
0010
0000
0000
,  // measure 46
0100
0100
0010
0001
,  // measure 47
0100
0110
0001
0100
,  // measure 48
0010
0100
1000
0100
,  // measure 49
1000
0000
0100
0010
,  // measure 50
0001
0100
0010
0001
,  // measure 51
0100
0010
0001
0100
,  // measure 52
0010
0000
0000
0100
0000
0020
0000
0000
0000
0000
0000
0000
,  // measure 53
0000
0000
0000
0130
0000
0000
2000
0000
0000
0000
3000
0000
,  // measure 54
0002
0000
0000
0000
0003
0000
2000
0000
0000
0000
3000
0000
,  // measure 55
0002
0000
0000
0000
0000
0003
2000
0000
0000
0000
0000
3000
,  // measure 56
0200
0000
0000
0000
0000
0300
0020
0000
0000
0000
0000
0030
,  // measure 57
0002
0000
0000
0000
0000
0003
0200
0000
0000
0000
0000
0300
,  // measure 58
0020
0000
0000
0000
0000
0030
0002
0000
0000
0000
0000
0003
,  // measure 59
0200
0000
0000
0000
0000
0300
2000
0000
0000
0000
0000
3000
,  // measure 60
0002
0000
0000
0000
0003
0000
1001
0000
0000
0000
0000
0000
;

//---------------dance-single - Wrland---------------
#NOTEDATA:;
#CHARTNAME:;
#CHARTSTYLE:Pad;
#CREDIT:Wrland;
#STEPSTYPE:dance-single;
#DESCRIPTION:Wrland;
#DIFFICULTY:Medium;
#METER:9;
#METERF:9;
#RADARVALUES:0,0,0,0,0;
#NOTES:
// measure 0
0000
0000
0000
0000
,  // measure 1
0000
0000
0000
0000
,  // measure 2
0000
0000
0000
0000
,  // measure 3
0000
0000
0000
0000
,  // measure 4
0000
0000
0000
0000
,  // measure 5
0000
0000
0000
0000
,  // measure 6
0000
0000
0000
0000
,  // measure 7
0000
0000
0000
0000
0000
0000
0100
0000
0000
1000
0010
0001
,  // measure 8
0200
0000
0300
1000
0010
0001
0200
0000
0300
0000
0000
0010
,  // measure 9
0000
0000
0000
0000
0001
0010
0001
0000
0000
0000
0000
0010
,  // measure 10
0000
0000
0000
0000
0010
0100
0020
0000
0030
0000
0000
0000
,  // measure 11
0100
0000
0010
0000
0100
0000
1000
0000
0000
0010
0100
0001
,  // measure 12
0200
0000
0300
0100
1000
0100
2000
0000
3000
0000
0000
0001
,  // measure 13
0000
0000
0000
0000
1000
0100
1000
0000
0000
0000
0000
0200
,  // measure 14
0000
0300
0000
0010
0000
0001
0100
0000
0001
1000
0000
0001
,  // measure 15
0100
1000
0100
0010
0000
0200
0000
0300
0020
0000
0030
0001
,  // measure 16
0000
0000
0010
0100
0000
0002
0000
0003
0200
0000
0300
1000
,  // measure 17
0000
0000
0000
0200
0000
0300
0001
0000
0100
0000
0010
0000
,  // measure 18
0100
0000
1000
0000
0100
0000
2000
0000
3000
0100
1000
0100
,  // measure 19
1000
0000
0001
1000
0000
0200
0000
0300
0020
0000
0030
0001
,  // measure 20
0000
0000
0100
0010
0000
0002
0000
0003
0200
0000
0300
0020
,  // measure 21
0000
0030
0000
0100
0000
0000
1000
0000
0100
0000
1000
0000
,  // measure 22
0100
0000
0010
0000
0001
0000
0100
0000
0000
0000
0001
0100
,  // measure 23
0001
0000
0000
0000
0100
0000
0001
0000
0000
0000
0000
0000
0200
0000
0000
0010
0000
0000
0310
0000
0000
0000
0000
0000
,  // measure 24
0002
0000
0000
1000
0000
0000
1003
0000
0000
0000
0000
0000
2000
0000
3000
0200
0000
0300
2000
0000
3000
0100
0000
0020
,  // measure 25
0000
0030
0100
0010
,  // measure 26
0001
0100
0010
0100
,  // measure 27
1000
0100
1000
0100
,  // measure 28
0020
0000
0000
0000
,  // measure 29
0030
0000
1001
1100
,  // measure 30
0100
0000
0010
0100
0000
0001
0200
0000
0000
0310
0000
0000
,  // measure 31
0001
0000
0100
0001
0000
0100
0010
0000
0100
0000
0000
0000
,  // measure 32
1000
0000
0100
1000
0000
0100
0010
0000
0001
0000
0000
0000
,  // measure 33
0200
0300
0020
0030
0001
0000
0101
0000
0000
1100
0000
0000
,  // measure 34
0011
0000
0100
0010
0000
1000
0200
0000
0000
1300
0000
0000
,  // measure 35
0100
0010
0001
0100
0000
0010
0100
0000
0001
0000
0000
0000
,  // measure 36
0100
0010
0100
0010
0000
0001
0100
0000
0010
0000
0000
0000
,  // measure 37
0200
0300
0020
0030
0002
0003
0200
0000
0300
0020
0000
0030
,  // measure 38
0001
0000
0100
0001
0000
0000
0020
0000
0030
0200
0000
0300
,  // measure 39
1000
0000
0100
1000
0000
0000
0200
0000
0300
0020
0000
0030
,  // measure 40
0001
0000
0100
0001
0000
0100
0020
0000
0030
0100
0010
0100
,  // measure 41
0010
0000
0000
2000
0000
3000
0200
0000
0300
2000
0000
3000
,  // measure 42
0100
0000
0001
0100
0000
0000
0020
0000
0030
0200
0000
0300
,  // measure 43
1000
0000
0100
1000
0000
0000
0200
0000
0300
0002
0000
0003
,  // measure 44
0100
0000
0010
0100
0000
0001
0200
0000
0300
0010
0100
0010
,  // measure 45
0100
0000
0001
0000
0100
0000
0001
0100
0001
0100
0001
0100
,  // measure 46
0002
0000
0103
0000
0000
0000
0010
0100
0010
0100
0010
0100
,  // measure 47
0000
0000
0000
0000
0000
0000
1000
0100
1000
0100
1000
0100
,  // measure 48
2000
0000
3100
0000
0000
0100
0010
0000
0001
0100
0000
0010
,  // measure 49
0100
0000
0001
0100
0000
0010
0200
0000
0300
2000
0000
3000
,  // measure 50
0100
0000
1000
0100
0000
0000
0200
0000
0300
0020
0000
0030
,  // measure 51
0001
0000
0100
0001
0000
0000
0020
0000
0030
0200
0000
0300
,  // measure 52
0002
0000
0003
0100
0000
0020
0000
0000
0000
0000
0000
0000
,  // measure 53
0000
0130
0001
0001
,  // measure 54
1000
0000
0001
1000
0000
0000
1000
0000
0000
1000
0000
0000
,  // measure 55
1000
0000
0001
1000
0000
0000
0100
0000
0000
0010
0000
0000
,  // measure 56
0100
0000
0010
0100
0000
0000
0001
0000
0000
0100
0000
0000
,  // measure 57
0010
0000
0100
0010
0000
0000
0100
0000
0000
1000
0000
0000
,  // measure 58
0100
0000
1000
0100
0000
0000
1000
0000
0000
0100
0000
0000
,  // measure 59
0001
0000
0100
0001
0000
0000
0010
0000
0000
0100
0000
0000
,  // measure 60
0010
0100
0110
0000
;

//---------------dance-single - Wrland---------------
#NOTEDATA:;
#CHARTNAME:;
#CHARTSTYLE:Pad;
#CREDIT:Wrland;
#STEPSTYPE:dance-single;
#DESCRIPTION:Wrland;
#DIFFICULTY:Hard;
#METER:13;
#METERF:13;
#RADARVALUES:0,0,0,0,0;
#NOTES:
// measure 0
0000
0000
0000
0000
,  // measure 1
0000
0000
0000
0000
,  // measure 2
0000
0000
0000
0000
,  // measure 3
0000
0000
0000
0000
,  // measure 4
0000
0000
0000
0000
,  // measure 5
0000
0000
0000
0000
,  // measure 6
0000
0000
0000
0000
,  // measure 7
0000
0000
0000
0000
0000
0000
1000
0000
0000
0100
0010
0100
,  // measure 8
0020
0000
0030
0001
0100
0001
0200
0000
0300
0010
0000
0200
,  // measure 9
0000
0300
0000
1000
0010
0001
0200
0000
0300
0010
0000
0002
,  // measure 10
0000
0003
0000
1000
0010
0100
2000
0000
3000
0100
0000
0000
,  // measure 11
0020
0000
0100
0000
0001
0000
0130
0000
0000
0010
0001
0100
,  // measure 12
0002
0000
0003
0010
0100
0010
0200
0000
0300
0000
0000
2000
,  // measure 13
0000
3000
0000
0100
1000
0100
2000
0000
3000
0000
0000
0002
,  // measure 14
0000
0000
0003
0010
0100
0010
2000
3000
0001
0010
1000
0002
,  // measure 15
0003
0010
0100
0010
0100
0001
0010
0000
0100
1000
0000
0020
,  // measure 16
0000
0030
0100
1000
0000
0010
0100
0000
1000
0100
0000
0020
,  // measure 17
0000
0000
0000
0031
0000
0000
0200
0000
0320
0000
0230
0000
,  // measure 18
0320
0000
0032
0000
0203
0000
1300
0000
0000
0100
1000
0100
,  // measure 19
1000
0000
0001
0100
0000
0001
1000
0000
0100
1000
0000
0010
,  // measure 20
0100
0000
0001
0100
0000
0010
0100
0000
1000
0100
0000
0010
,  // measure 21
0200
0000
0000
0301
0000
0000
0200
0300
2000
3000
0200
0300
,  // measure 22
0020
0030
0002
0003
0100
0001
0200
0000
0000
0310
0001
0100
,  // measure 23
0010
0000
0001
0000
1000
0000
0100
0000
0000
0000
0000
0000
2000
0000
3000
0200
0000
0300
2000
0000
3000
0200
0000
0300
,  // measure 24
0020
0000
0030
0200
0000
0300
0020
0000
0030
0002
0000
0003
0200
0000
0300
0020
0000
0030
0200
0000
0300
0020
0030
0100
,  // measure 25
0020
0000
0030
0100
1000
0100
1000
0000
0000
0200
0000
0300
0010
0000
0100
0000
1000
0000
0200
0000
0300
0000
0000
0000
,  // measure 26
0100
0010
0100
0020
0030
0000
0001
0100
0001
0200
0300
0000
,  // measure 27
0010
0100
0010
0200
0300
0000
2000
0000
3010
0200
0000
0310
,  // measure 28
0001
0100
0001
0100
0001
0100
0010
0100
1000
0100
0010
0100
,  // measure 29
0020
0030
0200
0300
0020
0000
0031
0000
0000
0110
0000
0000
,  // measure 30
1100
0000
0100
2000
3000
0100
0020
0000
0000
0031
0000
0000
,  // measure 31
0100
0001
0100
0001
0100
0010
0200
0000
1300
0000
0000
0000
,  // measure 32
0100
1000
0100
1000
0100
1000
0200
0000
0310
0000
0000
0000
,  // measure 33
0002
0003
0200
0300
0020
0030
1001
0000
0000
0101
0000
0000
,  // measure 34
0020
0000
0031
0200
0000
0310
0200
0000
0000
1300
0000
0000
,  // measure 35
1000
0100
1000
0100
1000
0100
0020
0000
0031
0000
0000
0000
,  // measure 36
0100
0010
0001
0100
0010
0100
2000
0000
3100
0000
0000
0000
,  // measure 37
0200
0300
0020
0030
0002
0003
0200
0000
0300
0002
0000
0003
,  // measure 38
0200
0000
0300
0002
0000
1003
0020
0000
0030
0200
0000
0300
,  // measure 39
0020
0000
0030
0200
0000
0301
2000
0000
3000
0200
0000
0300
,  // measure 40
2000
0000
3000
0100
0000
0010
0002
0000
0003
0010
0100
0010
,  // measure 41
0200
0300
1000
0020
0000
0000
0032
0000
0000
0023
0000
0000
,  // measure 42
0230
0000
0000
2300
0000
0010
3200
0000
0000
2300
0000
0000
,  // measure 43
3020
0000
0000
0230
0000
0001
0320
0000
0000
0032
0000
0000
,  // measure 44
0103
0010
0001
0200
0300
0010
0200
0000
0000
1000
0010
0001
,  // measure 45
0320
0030
0002
0003
0020
0030
0100
0001
0100
0001
0100
0001
,  // measure 46
0200
0000
0310
0000
0000
0100
0010
0100
0001
0100
0010
0001
,  // measure 47
0100
0000
0000
0110
0000
0000
1000
0100
1000
0100
1000
0100
,  // measure 48
2000
0000
3100
0000
0000
0010
0100
0010
0001
0100
1000
0010
,  // measure 49
0000
0000
0100
0010
0100
0001
0200
0000
0000
0320
0000
0000
,  // measure 50
0230
0000
0000
2300
0000
0100
3002
0000
0000
0203
0000
0000
,  // measure 51
0320
0000
0000
0230
0000
0010
2300
0000
0000
3200
0000
0000
,  // measure 52
0320
0000
0000
2030
0000
0100
3001
0100
0010
0001
0010
0100
,  // measure 53
0100
0010
0100
0110
0000
0000
0010
0000
0100
0010
0000
0000
,  // measure 54
0100
0000
0010
0100
0000
0000
1000
0000
0100
1000
0000
0000
,  // measure 55
0100
0000
0001
0100
0000
0000
0010
0000
0100
0010
0000
0000
,  // measure 56
0001
0000
0100
0001
0000
0000
0100
0000
0010
0100
0000
0000
,  // measure 57
1000
0000
0100
1000
0000
0000
0100
0000
0010
0100
0000
0000
,  // measure 58
0001
0000
0100
0001
0000
0000
0010
0000
0100
0010
0000
0000
,  // measure 59
0100
0000
1000
0100
0000
0000
1000
0000
0100
0010
0000
0000
,  // measure 60
0001
0100
0101
0000
;

//---------------dance-single - GOLDEN it's GOLDEN---------------
#NOTEDATA:;
#CHARTNAME:;
#CHARTSTYLE:Pad;
#CREDIT:Wrland;
#STEPSTYPE:dance-single;
#DESCRIPTION:GOLDEN it's GOLDEN;
#DIFFICULTY:Challenge;
#METER:15;
#METERF:15;
#RADARVALUES:0,0,0,0,0;
#NOTES:
// measure 0
0000
0000
0000
0000
,  // measure 1
0000
0000
0000
0000
,  // measure 2
0000
0000
0000
0000
,  // measure 3
0000
0000
0000
0000
,  // measure 4
0000
0000
0000
0000
,  // measure 5
0000
0000
0000
0000
,  // measure 6
0000
0000
0000
0000
,  // measure 7
0000
0000
0000
0000
0000
0000
1001
0000
0000
0001
1000
0001
,  // measure 8
2000
0000
3000
0001
1000
0001
2000
0000
3010
0200
0000
0310
,  // measure 9
0002
0000
0103
0001
0100
0001
0200
0000
0310
0002
0000
0013
,  // measure 10
2000
0000
3100
0001
0100
0001
0200
0000
0301
0010
0000
0000
,  // measure 11
0200
0300
2000
3000
0200
0300
2000
0000
3000
0100
0010
0001
,  // measure 12
0200
0000
0310
0010
0100
0010
0200
0000
0301
0020
0000
0031
,  // measure 13
0200
0000
0301
0010
0100
0010
0200
0000
0310
2000
0000
3001
,  // measure 14
0200
0000
0000
0310
0001
0100
0020
0030
0100
1000
0001
0100
,  // measure 15
1000
0100
0010
0200
0300
0020
0130
0000
0002
0013
0000
0200
,  // measure 16
1300
0000
0010
0001
0100
0020
0031
0000
0200
1300
0000
0020
,  // measure 17
0130
0000
0001
0200
0000
0300
0020
0030
0002
0003
0200
0300
,  // measure 18
0020
0030
0200
0300
2000
3000
0200
0300
1000
0200
0300
0000
,  // measure 19
0010
0001
0100
0010
0001
0200
0310
0000
0020
0031
0000
0002
,  // measure 20
1003
0100
0001
0200
0301
0020
0130
0000
0200
1300
0000
0002
,  // measure 21
0103
0000
0000
1001
0000
0000
0010
0001
0100
1000
0010
0100
,  // measure 22
0001
0010
0100
0001
0010
0001
0200
0000
0300
0010
0001
0100
,  // measure 23
0020
0000
0030
0000
0100
0000
0020
0000
0000
0000
0000
0000
0032
0000
0000
1000
0000
0000
1000
0000
0000
1000
0000
0000
,  // measure 24
0203
0000
0000
0010
0000
0000
0010
0000
0000
0001
0000
0000
0320
0000
0000
0100
0000
0000
0100
0000
0000
0001
0000
0100
,  // measure 25
0032
0000
0000
0100
0010
0100
0013
0000
0000
0200
0000
0300
1000
0000
0100
0000
1000
0000
0200
0000
0000
0000
0310
0000
,  // measure 26
0010
1000
0001
0200
0000
0301
0010
0100
0010
0200
0000
0310
,  // measure 27
0001
0100
0001
0200
0000
1300
0010
0001
0010
0100
0010
0001
,  // measure 28
0200
0300
0001
0020
0030
1000
0200
0300
0001
0100
0010
0100
,  // measure 29
0200
0300
0020
0030
0002
0003
0101
0000
0000
1010
0000
0000
,  // measure 30
0101
0000
0010
0200
0300
1000
0200
0000
0000
0301
0000
0000
,  // measure 31
0100
0001
0100
0001
0100
0001
0200
0000
0310
0001
0000
0010
,  // measure 32
0001
0001
0010
0100
0010
0001
0200
0000
0310
0001
0000
1000
,  // measure 33
0010
0100
0010
0001
0100
0010
0110
0000
0000
0011
0000
0000
,  // measure 34
1100
0000
0010
0200
0300
1000
0200
0000
0010
1300
0000
0000
,  // measure 35
0100
1000
0100
0010
0001
0100
0020
0000
0130
0000
0001
0100
,  // measure 36
0001
0100
0010
0100
1000
0100
0020
0000
0031
0100
0010
0100
,  // measure 37
0020
0000
0230
0000
0301
0100
0020
0030
0100
0020
0030
0001
,  // measure 38
0200
0300
0010
0200
0300
1000
0200
0300
1000
0200
0300
0010
,  // measure 39
0002
0003
0100
0020
0030
0100
0020
0030
0001
0200
0300
1000
,  // measure 40
0020
0030
0100
0001
0010
0100
0020
0000
1000
0130
0000
0010
,  // measure 41
0001
0100
0010
0100
1000
0100
0020
0030
0001
0200
0300
0010
,  // measure 42
0200
0300
1000
0200
0300
0010
0200
0300
0001
0200
0300
0010
,  // measure 43
0002
0003
1000
0200
0300
0000
0001
0100
0001
0200
0300
0001
,  // measure 44
0010
0100
0010
0200
0300
1000
0200
0010
0001
0010
0000
0000
,  // measure 45
0301
0010
0100
1000
0002
0003
0100
0001
0100
0001
0100
0001
,  // measure 46
0200
0000
0310
0000
0100
0010
1000
0100
0010
0001
0100
0101
,  // measure 47
0000
0000
0100
0022
0033
0000
0010
0100
1000
0100
0010
0101
,  // measure 48
0020
0000
0130
0010
0100
0010
0001
0100
0010
0100
1000
0101
,  // measure 49
0000
0000
0010
0100
0001
0010
0200
0300
0010
2000
3000
0001
,  // measure 50
0200
0300
0001
0200
0300
1000
0020
0030
0001
0200
0300
0010
,  // measure 51
2000
3000
0100
2000
3000
0001
0100
0010
0001
0100
0010
0100
,  // measure 52
0020
0030
0001
0200
0300
0001
0010
0100
0010
0001
0100
0010
,  // measure 53
1000
0100
0010
2002
3003
0000
0100
0010
0100
0010
0000
0000
,  // measure 54
0001
1000
0001
1000
0000
0000
0100
1000
0100
1000
0000
0000
,  // measure 55
0100
0010
0001
0100
0000
0000
0010
0001
0100
0001
0000
0000
,  // measure 56
0100
0010
0100
0010
0000
0000
0001
0000
0100
0001
0000
0010
,  // measure 57
0100
0000
1000
0100
0000
0000
1000
0100
1000
0100
0000
0000
,  // measure 58
0100
0010
0100
0010
0000
0000
0001
0100
0001
0100
0000
0000
,  // measure 59
0010
0100
0010
0100
0000
0000
1000
0000
0100
1000
0000
0100
,  // measure 60
0010
0000
0001
1000
0000
0100
1001
0000
0000
0000
0000
0000
;

//---------------dance-double - Wrland---------------
#NOTEDATA:;
#CHARTNAME:;
#CHARTSTYLE:Pad;
#CREDIT:Wrland;
#STEPSTYPE:dance-double;
#DESCRIPTION:Wrland;
#DIFFICULTY:Easy;
#METER:6;
#METERF:6;
#RADARVALUES:0,0,0,0,0;
#NOTES:
// measure 0
00000000
00000000
00000000
00000000
,  // measure 1
00000000
00000000
00000000
00000000
,  // measure 2
00000000
00000000
00000000
00000000
,  // measure 3
00000000
00000000
00000000
00000000
,  // measure 4
00000000
00000000
00000000
00000000
,  // measure 5
00000000
00000000
00000000
00000000
,  // measure 6
00000000
00000000
00000000
00000000
,  // measure 7
00000000
00000000
10000000
01000000
,  // measure 8
00100000
00000000
00000000
00010000
00000000
00000000
00000100
00000000
00000000
00000000
00000000
00000010
,  // measure 9
00000000
00000000
00000000
00000100
00000000
00000000
00000010
00000000
00000000
00000000
00000000
00000100
,  // measure 10
00000000
00001000
00010000
00000000
,  // measure 11
00000000
00000000
01000000
10000000
,  // measure 12
01000000
00000000
00000000
10000000
00000000
00000000
01000000
00000000
00000000
00000000
00000000
00010000
,  // measure 13
00000000
00000000
00000000
00000100
00000000
00000000
00000010
00000000
00000000
00000000
00000000
00000001
,  // measure 14
00000000
00000010
00000100
00001000
,  // measure 15
00010000
00000000
00000000
01000000
00000000
00100000
00000000
00000000
01000000
00000000
00000000
00100000
,  // measure 16
00000000
00000000
00010000
00000000
00000000
00000100
00000000
00000000
00000010
00000000
00000000
00000001
,  // measure 17
00000000
00000100
00001000
00010000
,  // measure 18
00100000
10000000
01000000
00000000
,  // measure 19
00100000
00000000
00000000
01000000
00000000
00100000
00000000
00000000
00010000
00000000
00000000
00001000
,  // measure 20
00000000
00000000
00000100
00000000
00000000
00000010
00000000
00000000
00000001
00000000
00000000
00000010
,  // measure 21
00000000
00000000
00000000
00000100
00000000
00000000
00001000
00000000
00010000
00000000
00100000
00000000
,  // measure 22
10000000
00000000
01000000
00000000
10000000
00000000
01000000
00000000
00000000
00000000
00000000
00000000
,  // measure 23
00000000
00000000
00000000
00000000
00000000
00000000
02000000
00000000
03000000
00200000
00000000
00300000
,  // measure 24
00020000
00000000
00030000
00002000
00000000
00003000
00000200
00000000
00000300
00000020
00000000
00000030
,  // measure 25
00000200
00000000
00000300
00002000
00000000
00003000
00010000
00000000
00010000
00100000
00000000
00000000
,  // measure 26
10000000
00000000
01000000
10000000
00000000
00000000
01000000
00000000
00100000
00010000
00000000
00000000
,  // measure 27
00001000
00000000
00000100
00000010
00000000
00000000
00000001
00000000
00000000
00000100
00000000
00000000
,  // measure 28
00000010
00000000
00000100
00000010
00000000
00000000
00000100
00000000
00001000
00020000
00000000
00000000
,  // measure 29
00030000
00000000
01100000
11000000
,  // measure 30
01000000
00000000
00100000
00010000
00000000
00001000
00000100
00000000
00000000
00000010
00000000
00000000
,  // measure 31
00000001
00000000
00000100
00000010
00000000
00001000
00000100
00000000
00000000
00001000
00000000
00000000
,  // measure 32
00010000
00000000
00100000
01000000
00000000
10000000
01000000
00000000
00000000
10000000
00000000
00000000
,  // measure 33
01000000
00000000
00000000
00100000
00000000
00000000
00010000
00000000
00001000
00000100
00000000
00000000
,  // measure 34
00000010
00000000
00000001
00000100
00000000
00000000
00000010
00000000
00000100
00001000
00000000
00000000
,  // measure 35
00010000
00000000
00001000
00010000
00000000
00000000
00100000
00000000
00010000
01000000
00000000
00000000
,  // measure 36
10000000
00000000
01000000
00100000
00000000
00000000
00010000
00000000
00001000
00000100
00000000
00000000
,  // measure 37
00000010
00000000
00000100
00001000
,  // measure 38
00010000
00100000
01000000
10000000
,  // measure 39
01000000
00100000
00010000
00001000
,  // measure 40
00000100
00000000
00000000
00000010
00000000
00000002
00000000
00000000
00000003
00000010
00000000
00000000
,  // measure 41
00000100
00001000
00010000
00100000
,  // measure 42
01000000
10000000
01000000
00100000
,  // measure 43
00010000
00001000
00000100
00000010
,  // measure 44
00000001
00000000
00000000
00000010
00000000
00000002
00000000
00000000
00000003
00000010
00000000
00000000
,  // measure 45
00000100
00000000
00000000
00001000
00000000
00000000
00010000
00000000
00001000
00010000
00000000
00001000
,  // measure 46
00010000
00000000
00000000
00100000
00000000
00000000
00100000
00000000
01000000
00100000
00000000
00000000
,  // measure 47
01000000
00000000
00000000
00000000
00000000
00000000
10000000
00000000
01000000
00100000
00000000
00010000
,  // measure 48
00001000
00000000
00000000
00000100
00000000
00000000
00000010
00000000
00000001
00000100
00000000
00000001
,  // measure 49
00000100
00000010
00000100
00001000
,  // measure 50
00010000
00000000
00100000
01000000
00000000
00000000
10000000
00000000
00000000
01000000
00000000
00000000
,  // measure 51
00100000
00000000
00010000
00001000
00000000
00000000
00000100
00000000
00000000
00000010
00000000
00000000
,  // measure 52
00000001
00000000
00000000
00000010
00000000
00000002
00000000
00000000
00000000
00000000
00000000
00000000
,  // measure 53
00000000
00000000
00000000
00000103
00000000
00000000
00002000
00000000
00000000
00000000
00000000
00003000
,  // measure 54
00020000
00000000
00000000
00000000
00000000
00030000
00200000
00000000
00000000
00000000
00000000
00300000
,  // measure 55
02000000
00000000
00000000
00000000
00000000
03000000
20000000
00000000
00000000
00000000
00000000
30000000
,  // measure 56
02000000
00000000
00000000
00000000
00000000
03000000
00200000
00000000
00000000
00000000
00000000
00300000
,  // measure 57
00020000
00000000
00000000
00000000
00000000
00030000
00002000
00000000
00000000
00000000
00000000
00003000
,  // measure 58
00000200
00000000
00000000
00000000
00000000
00000300
00000020
00000000
00000000
00000000
00000000
00000030
,  // measure 59
00000002
00000000
00000000
00000000
00000000
00000003
00000020
00000000
00000000
00000000
00000000
00000030
,  // measure 60
00000200
00000000
00001300
00000000
;

//---------------dance-double - Wrland---------------
#NOTEDATA:;
#CHARTNAME:;
#CHARTSTYLE:Pad;
#CREDIT:Wrland;
#STEPSTYPE:dance-double;
#DESCRIPTION:Wrland;
#DIFFICULTY:Medium;
#METER:9;
#METERF:9;
#RADARVALUES:0,0,0,0,0;
#NOTES:
// measure 0
00000000
00000000
00000000
00000000
,  // measure 1
00000000
00000000
00000000
00000000
,  // measure 2
00000000
00000000
00000000
00000000
,  // measure 3
00000000
00000000
00000000
00000000
,  // measure 4
00000000
00000000
00000000
00000000
,  // measure 5
00000000
00000000
00000000
00000000
,  // measure 6
00000000
00000000
00000000
00000000
,  // measure 7
00000000
00000000
00000000
00000000
00000000
00000000
10000000
00000000
00000000
01000000
10000000
01000000
,  // measure 8
20000000
00000000
30000000
01000000
00010000
00100000
02000000
00000000
03000000
00000000
00000000
00100000
,  // measure 9
00000000
00000000
00000000
00100000
00010000
00100000
00020000
00000000
00030000
00000000
00000000
00001000
,  // measure 10
00000000
00000000
00000000
00000100
00001000
00000100
00000020
00000000
00000030
00000000
00000000
00000000
,  // measure 11
00000100
00000000
00000010
00000000
00000001
00000000
00000100
00000000
00000000
00000010
00000100
00000010
,  // measure 12
00000200
00000000
00000300
00001000
00010000
00001000
00200000
00000000
00300000
00000000
00000000
01000000
,  // measure 13
00000000
00000000
00000000
10000000
00010000
10000000
00010000
00000000
00000000
00000000
00000000
02000000
,  // measure 14
00000000
03000000
00000000
00100000
00000000
00010000
00001000
00000000
00000100
00000000
00000010
00000000
,  // measure 15
00000001
00000010
00000000
00000100
00000000
00002000
00000000
00003000
00020000
00000000
00030000
00200000
,  // measure 16
00000000
00300000
01000000
00100000
00000000
20000000
00000000
30000000
02000000
00000000
03000000
00200000
,  // measure 17
00000000
00300000
00000000
00020000
00000000
00030000
00001000
00000000
00000100
00000000
00000010
00000000
,  // measure 18
00000001
00000000
00000010
00000000
00000100
00000000
00000020
00000000
00000030
00000100
00000000
00000000
,  // measure 19
00001000
00000000
00010000
00100000
00000000
02000000
00000000
03000000
20000000
00000000
30000000
02000000
,  // measure 20
00000000
03000000
00100000
00010000
00000000
00002000
00000000
00003000
00000200
00000000
00000300
00000020
,  // measure 21
00000000
00000030
00000000
00000001
00000000
00000000
00000010
00000000
00000100
00000000
00001000
00000000
,  // measure 22
00010000
00000000
00100000
00000000
10000000
00000000
02000000
00000000
03000000
00000000
01000000
00100000
,  // measure 23
01000000
00000000
00000000
00000000
00100000
00000000
01000000
00000000
00000000
00000000
00000000
00000000
00200000
00000000
00000000
00010000
00000000
00000000
00310000
00000000
00000000
00000000
00000000
00000000
,  // measure 24
00002000
00000100
00003100
00000000
00000020
00000001
00000031
00000000
,  // measure 25
00000200
00000000
00000000
00001000
00000000
00000000
00001300
00000000
00000000
00000000
00000000
00000000
00020000
00000000
00000000
00000000
00030000
00000000
00200000
00000000
00000000
00000000
00300000
00000000
,  // measure 26
00010000
00000000
00100000
00010000
00000000
00000000
20000000
00000000
30000000
02000000
00000000
03000000
,  // measure 27
10000000
00000000
01000000
10000000
00000000
00000000
02000000
00000000
03000000
00200000
00000000
00300000
,  // measure 28
00010000
00000000
00100000
00010000
00000000
00010000
00001000
00000000
00000100
00002000
00000000
00000000
,  // measure 29
00003000
00000000
00001001
00001100
,  // measure 30
00011000
00000000
00100000
01000000
00000000
10000000
02000000
00000000
00000000
03100000
00000000
00000000
,  // measure 31
01000000
00000000
00100000
01000000
00000000
00100000
00020000
00000000
00031000
00000000
00000000
00000000
,  // measure 32
00000100
00000000
00000010
00000001
00000000
00000010
00000200
00000000
00001300
00000000
00000000
00000000
,  // measure 33
00020000
00030000
00002000
00003000
00020000
00030000
00011000
00000000
00000000
00110000
00000000
00000000
,  // measure 34
01000000
00000000
00100000
01000000
00000000
10000000
02000000
00000000
00000000
03100000
00000000
00000000
,  // measure 35
00010000
00001000
00000100
00000010
00000001
00000010
00000002
00000000
00000013
00000000
00000000
00000000
,  // measure 36
00000100
00001000
00000100
00001000
00010000
00100000
20000000
00000000
31000000
00100000
00010000
01000000
,  // measure 37
00010000
00000000
00001000
00000000
00000100
00000000
00000002
00000000
00000003
00000200
00000000
00000300
,  // measure 38
00000010
00000000
00000100
00000010
00000000
00000000
00000002
00000000
00000003
00000020
00000000
00000030
,  // measure 39
00000100
00000000
00001000
00010000
00000000
00000000
00200000
00000000
00300000
00020000
00000000
00030000
,  // measure 40
00200000
00000000
00300000
10000000
00000000
02000000
00000000
00000000
03000000
00100000
00000000
01000000
,  // measure 41
00100000
00000000
00000000
00010000
00000000
00000000
00002000
00000000
00003000
00000200
00000000
00000300
,  // measure 42
00000010
00000000
00000001
00000100
00000000
00000000
00000020
00000000
00000030
00000200
00000000
00000300
,  // measure 43
00001000
00000000
00010000
00100000
00000000
00000000
20000000
00000000
30000000
02000000
00000000
03000000
,  // measure 44
10000000
00000000
01000000
00100000
00000000
00010000
02000000
00000000
03000000
01000000
00100000
01000000
,  // measure 45
00100000
00000000
00010000
00000000
00001000
00000000
00000100
00000010
00000100
00000010
00000001
00000010
,  // measure 46
00000001
00000000
00000010
00000000
00000000
00000010
00000100
00001000
00010000
00100000
01000000
00100000
,  // measure 47
00000000
00000000
00000000
01100000
00000000
00000000
00100000
00010000
00001000
00000100
00000010
00000001
,  // measure 48
00000100
00000000
00000010
00000000
00000000
00000100
00000010
00000100
00001000
00010000
00100000
01000000
,  // measure 49
00000000
00000000
00100000
01000000
00000000
00100000
00020000
00000000
00030000
00002000
00000000
00003000
,  // measure 50
00000100
00000000
00000010
00000100
00000000
00000000
00000002
00000000
00000003
00000020
00000000
00000030
,  // measure 51
00000010
00000000
00000100
00000010
00000000
00000000
00002000
00000000
00003000
00020000
00000000
00030000
,  // measure 52
00200000
00000000
00300000
01000000
00000000
00200000
00000000
00000000
00000000
00000000
00000000
00000000
,  // measure 53
00000000
01300000
01000000
00100000
,  // measure 54
00010000
00000000
00001000
00000100
00000000
00000000
00000010
00000000
00000000
00000001
00000000
00000000
,  // measure 55
00000010
00000000
00000001
00000010
00000000
00000000
00000100
00000000
00000000
00001000
00000000
00000000
,  // measure 56
00010000
00000000
00100000
01000000
00000000
00000000
10000000
00000000
00000000
01000000
00000000
00000000
,  // measure 57
00100000
00000000
01000000
00100000
00000000
00000000
00010000
00000000
00000000
00001000
00000000
00000000
,  // measure 58
00000010
00000000
00000100
00000010
00000000
00000000
00000001
00000000
00000000
00000010
00000000
00000000
,  // measure 59
00000100
00000000
00000010
00000100
00000000
00000000
00001000
00000000
00000000
00010000
00000000
00000000
,  // measure 60
00100000
01000000
01100000
00000000
;

//---------------dance-double - Wrland---------------
#NOTEDATA:;
#CHARTNAME:;
#CHARTSTYLE:Pad;
#CREDIT:Wrland;
#STEPSTYPE:dance-double;
#DESCRIPTION:Wrland;
#DIFFICULTY:Hard;
#METER:14;
#METERF:14;
#RADARVALUES:0,0,0,0,0;
#NOTES:
// measure 0
00000000
00000000
00000000
00000000
,  // measure 1
00000000
00000000
00000000
00000000
,  // measure 2
00000000
00000000
00000000
00000000
,  // measure 3
00000000
00000000
00000000
00000000
,  // measure 4
00000000
00000000
00000000
00000000
,  // measure 5
00000000
00000000
00000000
00000000
,  // measure 6
00000000
00000000
00000000
00000000
,  // measure 7
00000000
00000000
00000000
00000000
00000000
00000000
01000000
00000000
00000000
00100000
00010000
00001000
,  // measure 8
00000200
00000000
00000300
00000010
00000100
00000010
00000002
00000000
00000003
00000100
00000000
00000010
,  // measure 9
00000100
00000000
00001000
00010000
01000000
00010000
00200000
00300000
01000000
00100000
00000000
00010000
,  // measure 10
00002000
00000000
00003000
00000100
00001000
00000100
00000020
00000030
00000001
00000100
00000000
00000000
,  // measure 11
00000020
00000030
00000200
00000300
00002000
00000000
00013000
00000000
00000000
01000000
00100000
01000000
,  // measure 12
00200000
00000000
00300000
10000000
01000000
00100000
00020000
00030000
00001000
00000100
00000000
00000001
,  // measure 13
00000010
00000000
00000100
00000010
00000001
00000100
00002000
00003000
00001000
00010000
00000000
00100000
,  // measure 14
02000000
00000000
03000000
10000000
01000000
10000000
01000000
00000000
00100000
00010000
00001000
00000100
,  // measure 15
00000000
00000010
00000100
00000001
00000100
00000020
00000000
00000030
00002000
00000000
00003000
00020000
,  // measure 16
00000000
00030000
01000000
00100000
00000000
20000000
00000000
30000000
02000000
00000000
03000000
00200000
,  // measure 17
00000000
00000000
00000000
00310000
00000000
00000000
00002000
00003000
00000200
00000300
00000020
00000030
,  // measure 18
00000002
00000003
00000200
00000300
00000020
00000030
00000200
00000300
00001000
00020000
00000000
00030000
,  // measure 19
01000000
00100000
01000000
10000000
01000000
00200000
00000000
00300000
00020000
00000000
00030000
00002000
,  // measure 20
00000000
00003000
00000100
00000020
00000030
00000002
00000000
00000003
00000200
00000000
00000300
00002000
,  // measure 21
00000000
00000000
00000000
00013000
00000000
00000000
00020000
00030000
00200000
00300000
20000000
30000000
,  // measure 22
02000000
03000000
00200000
00300000
00020000
00000000
00031000
00000000
00000100
00001000
00000000
00000100
,  // measure 23
00000010
00000000
00000001
00000000
00000100
00000000
00000020
00000000
00000000
00000000
00000000
00000000
00000230
00000000
00000000
00002300
00000000
00000000
00023000
00000000
00000000
00230000
00000000
00000000
,  // measure 24
02300000
00000000
00000000
23000000
00000000
00000000
32000000
00000000
00000000
03200000
00000000
00000000
00320000
00000000
00000000
00032000
00000000
00000000
00003200
00000000
00000000
00000310
00000000
00000001
,  // measure 25
00000200
00000000
00000000
00000000
00000000
00000000
00000310
00000000
00000000
00000200
00000000
00000000
00001300
00000000
00010000
00000000
00001000
00000000
00010000
00000000
00000000
00000000
00000000
00000000
,  // measure 26
00100000
00010000
00100000
00010000
00000000
00000000
01000000
00100000
01000000
10000000
00000000
00000000
,  // measure 27
01000000
00100000
00010000
00001000
00000000
00000000
00000100
00000010
00000001
00000100
00000000
00000000
,  // measure 28
00000010
00000000
00000100
00001000
00000000
00010000
00100000
01000000
10000000
01000000
00100000
01000000
,  // measure 29
00200000
00300000
02000000
03000000
00200000
00300000
00011000
00000000
00000000
00000110
00000000
00000000
,  // measure 30
00000002
00000003
00000100
00000002
00000003
00000100
00000020
00000000
00000000
00000130
00000000
00000000
,  // measure 31
00001000
00010000
00100000
01000000
10000000
01000000
00200000
00300000
00010000
00000000
00001000
00000100
,  // measure 32
00000001
00000010
00000100
00000010
00000100
00001000
00020000
00030000
00100000
00000000
00010000
00100000
,  // measure 33
20000000
30000000
02000000
03000000
00200000
00300000
00011000
00000000
00000000
00001100
00000000
00000000
,  // measure 34
00000200
00000300
00000001
00000200
00000300
00000010
00000200
00000000
00000300
00001000
00000000
00000000
,  // measure 35
00001000
00010000
00001000
00010000
00100000
01000000
00200000
00300000
01000000
00000000
00100000
00010000
,  // measure 36
00001000
00000100
00000010
00000100
00000010
00000001
00000200
00000300
00000010
00000000
00000100
00000010
,  // measure 37
00000200
00000300
00002000
00003000
00020000
00030000
01000000
00000000
00100000
01000000
00000000
10000000
,  // measure 38
01000000
00000000
00100000
00010000
00000000
00001000
00000100
00000000
00000010
00000001
00000000
00000100
,  // measure 39
00000010
00000000
00000100
00001000
00000000
00100000
00010000
00000000
00100000
10000000
00000000
01000000
,  // measure 40
00100000
00000000
00010000
00100000
00000000
00010000
00002000
00000000
00000000
00003100
00000000
00000000
,  // measure 41
00000100
00000001
00000010
00000100
00001000
00010000
00100000
00000000
10000000
01000000
00000000
00100000
,  // measure 42
01000000
00000000
00010000
01000000
00000000
00100000
00010000
00000000
00001000
00000100
00000000
00000010
,  // measure 43
00000100
00000000
00000001
00000100
00000000
00000010
00000100
00000000
00001000
00000100
00000000
00010000
,  // measure 44
00001000
00000000
00010000
00100000
00000000
00100000
02000000
00000000
00000000
13000000
01000000
00100000
,  // measure 45
00020000
00030000
00002000
00003000
00000200
00000300
00000010
00000001
00000100
00000010
00000100
00000010
,  // measure 46
00000002
00000000
00000103
00000000
00000010
00000100
00001000
00010000
00100000
00010000
01000000
00100000
,  // measure 47
02000000
00000000
00000000
03100000
00000000
00000000
01000000
10000000
01000000
00100000
00010000
00001000
,  // measure 48
00000200
00000000
00000310
00000000
00000001
00000100
00000010
00000100
00001000
00000100
00001000
00010000
,  // measure 49
00100000
00000000
01000000
00100000
00010000
10000000
01000000
00000000
01000000
00100000
00000000
00100000
,  // measure 50
00010000
00000000
00001000
00000100
00000000
00000010
00000001
00000000
00000001
00000010
00000000
00000100
,  // measure 51
00000100
00000000
00001000
00010000
00000000
01000000
00100000
00000000
00100000
00010000
00000000
00010000
,  // measure 52
00100000
00000000
10000000
01000000
00000000
01000000
00200000
00000000
00300000
01000000
00100000
00010000
,  // measure 53
00001000
00000100
00000010
00001001
00000000
00000000
00000100
00000000
00000010
00000100
00000000
00001000
,  // measure 54
00010000
00000000
00000000
01100000
00000000
00000000
01000000
00000000
00100000
01000000
00000000
10000000
,  // measure 55
01000000
00000000
00000000
01100000
00000000
00000000
00010000
00000000
00001000
00000100
00000000
00000010
,  // measure 56
00000001
00000000
00000000
00000101
00000000
00000000
00000010
00000000
00000100
00001000
00000000
00010000
,  // measure 57
00100000
00000000
00000000
00110000
00000000
00000000
01000000
00000000
00100000
10000000
00000000
01000000
,  // measure 58
10000000
00000000
00000000
11000000
00000000
00000000
00100000
00000000
00010000
00001000
00000000
00000100
,  // measure 59
00000010
00000000
00000000
00000110
00000000
00000000
00000001
00000000
00000010
00000100
00000000
00001000
,  // measure 60
00010000
00100000
01100000
00000000
;
