#VERSION:0.83;
#TITLE:Snow halation;
#SUBTITLE:;
#ARTIST:μ's;
#TITLETRANSLIT:;
#SUBTITLETRANSLIT:;
#ARTISTTRANSLIT:;
#GENRE:;
#ORIGIN:;
#CREDIT:;
#BANNER:Snow halation.png;
#BACKGROUND:Snow halation-bg.png;
#PREVIEWVID:;
#JACKET:Snow halation-jacket.png;
#CDIMAGE:;
#DISCIMAGE:;
#LYRICSPATH:;
#CDTITLE:;
#MUSIC:Snow halation.mp3;
#OFFSET:1.324108;
#SAMPLESTART:51.354630;
#SAMPLELENGTH:16.040001;
#SELECTABLE:YES;
#BPMS:0.000=173.000;
#STOPS:;
#DELAYS:;
#WARPS:;
#TIMESIGNATURES:0.000=4=4;
#TICKCOUNTS:0.000=4;
#COMBOS:0.000=1;
#SPEEDS:0.000=1.000=0.000=0;
#SCROLLS:0.000=1.000;
#FAKES:;
#LABELS:0.000=Song Start;
#BGCHANGES:2.250=Snow halation.mp4=1.000=0=0=1=====,
99999=-nosongbg-=1.000=0=0=0 // don't automatically add -songbackground-
;
#KEYSOUNDS:;
#ATTACKS:
;

//---------------dance-single - ----------------
#NOTEDATA:;
#CHARTNAME:;
#STEPSTYPE:dance-single;
#DESCRIPTION:;
#CHARTSTYLE:;
#DIFFICULTY:Hard;
#METER:12;
#RADARVALUES:0.543121,0.848846,0.648241,0.578161,0.039420,434.000000,360.000000,74.000000,66.000000,0.000000,0.000000,0.000000,0.000000,0.000000,0.543121,0.848846,0.648241,0.578161,0.039420,434.000000,360.000000,74.000000,66.000000,0.000000,0.000000,0.000000,0.000000,0.000000;
#CREDIT:;
#NOTES:
0000
0000
0000
0000
,
0000
0000
0000
0000
,
0000
0000
0000
0000
,
0000
0000
0000
0000
,
0000
0000
0000
0000
,
0000
0000
0000
0000
,
0000
0000
0000
0000
,
0000
0000
0000
0000
,
0000
0000
0000
0000
,
0000
0000
0000
0000
,
2000
0000
0100
0100
0000
0000
0010
0010
,
3000
1000
0010
0100
,
0002
0000
1000
2000
0000
0000
3003
0000
,
0001
0000
0010
0000
0100
1000
0100
1000
,
0002
0000
0100
0100
0000
1003
0000
0001
,
2000
0000
0100
0100
0000
3001
0000
1000
,
0001
0100
1000
0100
,
0110
0110
0000
0000
1001
1001
0000
0000
,
2000
0000
3010
0010
0002
0000
0013
0010
,
0100
0101
0011
1001
,
0002
0023
2030
3020
,
0100
0000
0130
0000
1000
0001
1000
0000
,
0020
0000
0100
0130
0000
1001
0000
0010
,
0200
0000
0010
0310
0000
1001
0000
0001
,
2000
0010
0100
0100
,
0001
0000
0000
0000
3001
0000
1000
0010
0100
0000
0100
0000
0001
0000
1000
0000
,
1001
0000
0002
0000
0023
0000
1030
0001
,
0200
0000
0010
0000
0310
0100
0100
0000
,
1001
0000
2000
0000
3020
0000
0031
2000
,
0000
3100
0100
0010
2000
0000
3001
0000
,
2001
3200
0302
0023
,
2030
0000
3010
0010
0200
0000
0301
0000
,
1002
0023
2030
3200
,
0302
0000
0013
0010
0200
0000
1300
0000
,
0002
0000
0203
0000
2300
0000
0100
3100
,
0000
0002
0000
2003
0000
3002
0000
0103
,
0101
0000
1100
0000
1000
0010
0100
0001
,
1001
1001
0000
0000
0000
0010
1001
0000
,
1000
0000
1100
0000
0101
0000
0001
0100
,
1000
1100
0101
1001
,
0002
0000
0013
0010
0200
0000
1300
0000
,
0001
0100
0010
1000
1000
0010
0100
0001
,
1000
0000
1010
0000
0011
0000
0001
0010
,
2000
0000
0010
0000
3010
0000
1000
0010
,
0002
0000
0103
0100
0020
0000
1030
0000
,
1100
1100
0000
0000
0101
0101
0000
0000
,
0001
0000
1100
0000
0101
0000
1000
0100
,
0001
0101
1100
1001
,
2000
0000
3010
0100
0002
0000
1003
0000
,
0001
0000
0000
0000
0010
0000
0100
1000
0002
0000
1000
0000
1003
0000
0001
0000
,
1001
0000
1010
0000
0011
0000
1000
0010
,
0002
0000
0010
0000
0013
0000
1000
0100
,
0020
0000
0130
0100
2000
0000
3001
1000
,
2100
0000
3010
0101
0000
2002
0000
3003
,
0012
0010
0100
0010
,
2003
0000
3010
0010
0100
0000
0101
0000
,
0001
0000
0010
1000
0001
0000
0100
1000
,
0010
0010
0100
0200
0001
0001
1300
0000
,
1100
0000
0100
0001
1000
0001
0000
0010
,
0200
0000
1000
1300
0000
1100
0000
1000
,
0002
0000
0000
0000
,
0103
0000
0000
0010
1001
1001
0000
0000
,
1200
0000
0001
0000
1000
1000
1300
0000
,
1020
0130
0021
0130
,
2001
0000
0010
0010
0000
0001
3001
0000
,
1000
0010
0100
0001
0001
0100
0010
1000
,
0020
0000
0001
0000
1000
1000
1030
0000
,
1200
0310
0201
0310
,
0001
0001
0100
0100
0010
0010
1000
1000
,
0001
0000
0010
0000
0100
0000
1000
0001
1000
0000
0010
0000
0100
0001
1000
0000
,
1100
0000
0101
0000
1001
0001
0100
1000
,
1100
0000
0101
0000
1001
0001
0010
1000
,
1010
0000
0011
0000
1001
1000
0010
0001
,
0010
0000
0010
0000
1000
0000
1000
0000
0001
0100
0001
0000
1000
0100
1000
0000
,
1100
0000
0101
0000
1000
0100
0001
0000
,
0101
0000
1100
1000
1010
0010
0110
0100
,
0101
0000
0011
0010
0110
0100
1100
1000
,
1010
0000
0101
0000
0000
0000
0000
0000
0011
0000
1000
0001
1000
0001
1000
0100
,
0000
0020
0000
0000
,
0000
0000
0000
0000
,
0000
0000
0000
0030
;

//---------------dance-single - ----------------
#NOTEDATA:;
#CHARTNAME:;
#STEPSTYPE:dance-single;
#DESCRIPTION:;
#CHARTSTYLE:;
#DIFFICULTY:Beginner;
#METER:3;
#RADARVALUES:0.150172,0.239915,0.008760,0.008760,0.000000,120.000000,119.000000,1.000000,1.000000,0.000000,0.000000,0.000000,0.000000,0.000000,0.150172,0.239915,0.008760,0.008760,0.000000,120.000000,119.000000,1.000000,1.000000,0.000000,0.000000,0.000000,0.000000,0.000000;
#CREDIT:;
#NOTES:
0000
0000
0000
0000
,
0000
0000
0000
0000
,
0000
0000
0000
0000
,
0000
0000
0000
0000
,
0000
0000
0000
0000
,
0000
0000
0000
0000
,
0000
0000
0000
0000
,
0000
0000
0000
0000
,
0000
0000
0000
0000
,
0000
0000
0000
0000
,
1000
0000
0000
0000
,
0000
0000
0000
0000
,
0001
0000
0001
0000
,
0000
0000
0000
0000
,
0010
0000
0000
0000
,
0100
0000
0000
0000
,
1000
0000
0000
0000
,
0001
0000
0001
0000
,
0001
0000
0000
0000
,
0100
0000
0000
0000
,
0010
0000
0000
0000
,
1000
0000
1000
0000
,
1000
0000
0000
0000
,
0001
0000
0000
0000
,
0100
0000
0000
0000
,
0010
0000
0010
0000
,
0010
0000
0000
0000
,
0100
0000
0000
0000
,
0001
0000
0000
0000
,
1000
0000
0000
0000
,
0001
0000
0001
0000
,
0001
0000
0001
0000
,
0010
0000
0010
0000
,
0010
0000
0010
0000
,
0100
0000
0100
0000
,
1000
0000
1000
0000
,
0001
0000
0001
0000
,
1001
0000
0000
0000
,
1000
0000
1000
0000
,
0100
0000
0100
0000
,
0010
0000
0010
0000
,
0001
0000
0001
0000
,
1000
0000
1000
0000
,
0010
0000
0010
0000
,
0100
0000
0100
0000
,
0001
0001
0001
0000
,
0010
0000
0010
0000
,
0100
0000
0100
0000
,
1000
0000
1000
0000
,
0001
0000
0001
0000
,
0100
0000
0100
0000
,
0010
0000
0010
0000
,
1000
0000
1000
0000
,
0001
0001
0001
0000
,
0010
0000
0000
0000
,
0100
0000
0000
0000
,
1000
0000
0000
0000
,
0001
0000
0000
0000
,
0100
0000
0000
0000
,
0010
0000
0000
0000
,
2000
0000
0000
0000
,
3000
0000
0001
0000
,
1000
0000
1000
0000
,
0010
0000
0010
0000
,
0100
0000
0100
0000
,
0001
0000
0001
0000
,
1000
0000
1000
0000
,
0100
0000
0100
0000
,
0010
0000
0010
0000
,
0001
0000
0001
0000
,
1000
1000
1000
0000
,
0010
0010
0010
0000
,
0100
0100
0100
0000
,
0001
0001
0001
0000
,
1000
1000
1000
0000
,
0001
0001
0001
0000
,
0010
0010
0010
0000
,
0100
0000
0100
0000
,
0000
0010
0000
0000
;

//---------------dance-single - ----------------
#NOTEDATA:;
#CHARTNAME:;
#STEPSTYPE:dance-single;
#DESCRIPTION:;
#CHARTSTYLE:;
#DIFFICULTY:Easy;
#METER:6;
#RADARVALUES:0.275315,0.318317,0.026280,0.148920,0.000000,220.000000,217.000000,3.000000,17.000000,0.000000,0.000000,0.000000,0.000000,0.000000,0.275315,0.318317,0.026280,0.148920,0.000000,220.000000,217.000000,3.000000,17.000000,0.000000,0.000000,0.000000,0.000000,0.000000;
#CREDIT:;
#NOTES:
0000
0000
0000
0000
,
0000
0000
0000
0000
,
0000
0000
0000
0000
,
0000
0000
0000
0000
,
0000
0000
0000
0000
,
0000
0000
0000
0000
,
0000
0000
0000
0000
,
0000
0000
0000
0000
,
0000
0000
0000
0000
,
0000
0000
0000
0000
,
2000
0000
0000
0000
,
3000
0000
0000
0000
,
0010
0000
0020
0000
,
0030
0000
0100
0000
,
0200
0000
0000
0300
,
0002
0000
0000
0003
,
2000
0000
0000
3000
,
1001
0000
1001
0000
,
1000
0010
1000
0000
,
0001
0010
0001
0000
,
1000
0100
1000
0000
,
0001
0100
0001
0000
,
1000
0001
1000
0000
,
0010
0100
0010
0000
,
1000
0001
1000
0000
,
0001
0010
0100
1000
,
0002
0000
0103
0000
,
0020
0000
1030
0000
,
0002
0000
0013
0000
,
0200
0000
1300
0000
,
0001
0100
0001
0100
,
0010
1000
0001
0000
,
1000
0100
1000
0100
,
0010
0001
1000
0000
,
0001
0100
0001
0100
,
1000
0100
1000
0100
,
0010
0010
0010
0010
,
1000
1000
0000
0000
0000
0000
0001
0000
,
1000
0100
1000
0100
,
0010
0001
0010
0001
,
1000
0010
1000
0010
,
0100
0100
0001
0001
,
1000
0100
1000
0100
,
0010
0001
0010
0001
,
1000
0010
1000
0010
,
0100
0100
0000
0000
0001
0001
0000
0000
,
1000
0100
1000
0100
,
0001
0100
0001
0100
,
1000
0010
1000
0010
,
0100
0100
0001
0001
,
1000
0010
1000
0010
,
0001
0010
0001
0010
,
1000
0100
1000
0100
,
0001
0000
0000
0100
0000
0000
1000
0000
,
0002
0000
0103
0000
,
0020
0000
1030
0001
,
2000
0000
3100
0000
,
0020
0000
0031
1000
,
0002
0000
0103
0000
,
2000
0000
3100
0010
,
2000
0000
0000
0000
,
3001
0000
1001
0000
,
1000
0100
1000
0100
,
0001
0100
0001
0100
,
0010
0100
0010
0100
,
1000
1000
0001
0001
,
1000
0010
1000
0010
,
0001
0010
0001
0010
,
0100
0010
0100
0010
,
1000
0001
1000
0001
,
1000
1000
1000
0100
,
0001
0001
0001
0100
,
1000
1000
1000
0010
,
0001
0010
1000
0001
,
1000
1000
1000
0010
,
0001
0001
0001
0010
,
1000
1000
1000
0100
,
0010
0010
0000
0000
0100
0100
0000
0000
,
0000
2000
0000
0000
,
0000
0000
0000
0000
,
0000
0000
0000
3000
;

//---------------dance-single - ----------------
#NOTEDATA:;
#CHARTNAME:;
#STEPSTYPE:dance-single;
#DESCRIPTION:;
#CHARTSTYLE:;
#DIFFICULTY:Medium;
#METER:8;
#RADARVALUES:0.407967,0.601266,0.402961,0.411721,0.000000,326.000000,280.000000,46.000000,47.000000,0.000000,0.000000,0.000000,0.000000,0.000000,0.407967,0.601266,0.402961,0.411721,0.000000,326.000000,280.000000,46.000000,47.000000,0.000000,0.000000,0.000000,0.000000,0.000000;
#CREDIT:;
#NOTES:
0000
0000
0000
0000
,
0000
0000
0000
0000
,
0000
0000
0000
0000
,
0000
0000
0000
0000
,
0000
0000
0000
0000
,
0000
0000
0000
0000
,
0000
0000
0000
0000
,
0000
0000
0000
0000
,
0000
0000
0000
0000
,
0000
0000
0000
0000
,
2000
0000
0010
0000
,
0001
0000
3100
0000
,
1000
0000
0000
0002
0000
0000
0000
0000
,
0003
0000
1000
0010
,
0200
0001
0301
1000
,
0200
1000
1300
0100
,
1000
0010
0001
0010
,
0100
0100
0000
0000
0010
0010
0000
0000
,
2000
3100
0002
0103
,
1000
0010
0100
0001
,
2000
3010
0002
0013
,
1000
0010
0000
0100
0000
0001
0000
0000
,
2000
3100
0002
0103
,
1000
0010
0100
0001
,
0010
0010
0100
0100
,
1000
0000
1000
0000
0001
0100
0010
1000
,
0002
0010
0013
0001
,
2000
0010
3010
1000
,
0002
0100
0103
0001
,
2000
0100
3100
1000
,
0001
0100
1000
0100
,
0010
0000
0010
0000
1000
0001
1000
0000
,
0001
0010
1000
0010
,
0100
0000
0100
0000
1000
0001
1000
0000
,
0002
0100
0013
0001
,
2000
0100
3010
1000
,
0101
1100
0011
1010
,
1001
1001
0000
0000
0000
0000
0110
0000
,
0002
0000
0010
0000
0103
0000
0001
1000
,
0001
0010
0100
1000
,
2000
0010
0100
3001
,
1000
0010
0100
0000
0100
0010
1000
0000
,
0002
0000
0010
0000
0103
0000
0001
0010
,
0200
1000
0301
0100
,
2100
3010
0102
0013
,
0011
0011
0000
0000
1010
1010
0000
0000
,
2000
0000
0100
0000
3010
0000
1000
0001
,
1000
0100
0010
0001
,
0002
0100
0010
1003
,
0001
0100
0010
0000
0010
0100
0001
0000
,
2000
0000
0100
0000
3010
0000
1000
0100
,
0020
0001
1030
0010
,
0012
0103
2010
3100
,
1000
0000
0100
0001
0000
0100
1000
0000
,
0002
0010
0100
1003
,
0001
0100
0010
1001
,
2000
0010
0100
3001
,
1000
0010
0100
0010
2000
0000
3001
0000
,
2000
0100
0001
3010
,
0002
0100
1000
0013
,
2002
0000
0000
0000
,
3003
0000
0000
0000
0110
0110
0000
0000
,
0002
0010
1000
0103
,
0002
0013
2000
3010
,
0001
0000
0100
0010
0000
0010
0100
0000
,
0001
0010
0001
0000
1000
0010
1000
0000
,
0002
0100
1000
0013
,
0002
0013
2000
3010
,
0001
0100
0010
0000
0010
0100
0001
0000
,
1000
0000
0100
0001
0000
0100
1000
0000
,
1100
1100
2100
3010
,
0101
0101
0102
0013
,
1010
1010
2010
3100
,
0011
0011
1010
1010
,
1001
1001
1002
0103
,
1001
1001
2001
3100
,
1010
0101
0011
1100
,
1010
1010
0000
0000
0011
0011
0000
0000
,
0000
0200
0000
0000
,
0000
0000
0000
0000
,
0000
0000
0000
0300
;

//---------------dance-double - ----------------
#NOTEDATA:;
#CHARTNAME:;
#STEPSTYPE:dance-double;
#DESCRIPTION:;
#CHARTSTYLE:;
#DIFFICULTY:Hard;
#METER:12;
#RADARVALUES:0.513087,0.742740,0.473041,0.490561,0.039420,410.000000,356.000000,54.000000,56.000000,0.000000,0.000000,0.000000,0.000000,0.000000,0.513087,0.742740,0.473041,0.490561,0.039420,410.000000,356.000000,54.000000,56.000000,0.000000,0.000000,0.000000,0.000000,0.000000;
#CREDIT:;
#NOTES:
00000000
00000000
00000000
00000000
,
00000000
00000000
00000000
00000000
,
00000000
00000000
00000000
00000000
,
00000000
00000000
00000000
00000000
,
00000000
00000000
00000000
00000000
,
00000000
00000000
00000000
00000000
,
00000000
00000000
00000000
00000000
,
00000000
00000000
00000000
00000000
,
00000000
00000000
00000000
00000000
,
00000000
00000000
00000000
00000000
,
00002000
00000000
00100000
00100000
00000000
00000000
00010000
00010000
,
00003000
00001000
00010000
00000100
,
00001000
00000000
00000001
00000002
00000000
00000000
00000000
00000000
,
00000103
00000000
00000010
00000000
00010000
00001000
00010000
00001000
,
00020000
00000000
00100000
00130000
00000000
10000000
00000000
00001000
,
00020000
00000000
00000100
00030100
00000000
00001000
00000000
00000010
,
00000200
00000001
00001000
00000310
,
00001010
00001010
00000000
00000000
00010100
00010100
00000000
00000000
,
00020000
00000000
00031000
00001000
00200000
00000000
00310000
00010000
,
01000000
00200000
20300000
32000000
,
03020000
00032000
00003200
00000320
,
00001000
00000001
00000100
00001030
,
00000002
00000000
00000010
00000010
00000000
00000103
00000000
00000001
,
00002000
00000000
00000010
00000010
00000000
00003100
00000000
00010000
,
00001000
01000000
10000000
01000000
,
00100000
00000000
00000000
00000000
10000000
00000000
00010000
01000000
00100000
00000000
10000000
00000000
00010000
00000000
00100000
00000000
,
00102000
00000000
00010000
00000000
01003000
00000000
00100000
10000000
,
00020000
00000000
00100000
00000000
01030000
00010000
10000000
00000000
,
12000000
00000000
00010000
00000000
03100000
00000000
00010000
10000000
,
00000000
10000000
00100000
01000000
00002000
00000000
00013000
00000000
,
00000002
00000203
00002300
00003020
,
00000032
00000000
00000103
00000010
00020000
00000000
00031000
00000000
,
20000000
30200000
00320000
02030000
,
23000000
00000000
30100000
01000000
00002000
00000000
00013000
00000000
,
00000200
00000000
00002300
00000000
00003002
00000000
00000100
00001003
,
00000000
00000101
00000000
00001010
00000000
00010100
00000000
00201000
,
00000000
00010000
01000000
10300000
,
10100000
00110000
00000000
00000000
00000000
01000000
10010000
00000000
,
10000000
00000000
01010000
00000000
11000000
00000000
00010000
01000000
,
10000000
11000000
01010000
10010000
,
00020000
00000000
00130000
00100000
00002000
00000000
00013000
00000000
,
00001000
00010000
00000010
00000100
00000001
00001000
00000100
00000010
,
00000001
00000000
00001100
00000000
00000101
00000000
00000001
00000100
,
00002000
00000000
00000100
00000000
00003100
00000000
00000001
00001000
,
00000002
00000000
00001003
00001000
00000200
00000000
00010300
00000000
,
00110000
00110000
00000000
00000000
11000000
11000000
00000000
00000000
,
10000000
00000000
00110000
00000000
10100000
00000000
00010000
00100000
,
10000000
10100000
00110000
10010000
,
00020000
00000000
01030000
01000000
00002000
00000000
00013000
00000000
,
00001000
00000000
00000000
00000000
00010000
00000000
00000100
00001000
00000002
00000000
00001000
00000000
00001003
00000000
00000001
00000000
,
00001000
00000000
00001010
00000000
00000011
00000000
00000001
00000010
,
00002000
00000000
00000010
00000000
00003010
00000000
00000001
00001000
,
00000002
00000000
00001003
00001000
00000020
00000000
00010030
00010000
,
00001000
00000000
00100000
00010000
00000000
10000000
01000000
00000000
,
20010000
00100000
01000000
30010000
,
10000000
00000000
00100000
01000000
00002000
00000000
00013000
00000000
,
00001002
00000000
00000103
00000100
00000020
00000000
00001030
00001000
,
00000001
00000010
00001000
00000010
00000001
00000001
00001000
00000000
,
00001200
00000000
00000301
00000100
00001000
00000001
00000000
00000001
,
00002000
00000000
00000010
00003100
00000000
00011000
00000000
00210000
,
00000000
00000000
00000000
00000000
,
01300000
00000000
00000000
00000000
10010000
10010000
00000000
00000000
,
10000000
00000000
01010000
00000000
10000000
00010000
10000000
00000000
,
00010000
00000000
00100000
00001000
00000000
00010000
00000100
00000000
,
00001000
00000000
00000011
00000000
00001000
00000001
00001000
00000000
,
00000001
00000010
00001000
00000010
00000001
00000100
00001000
00000100
,
00000010
00000000
00011000
00000000
00100000
00010000
10000000
00000000
,
01000000
00000000
00010000
00001000
00000000
00001000
01000000
00000000
,
00100000
10000000
01000000
00010000
01000000
00100000
00001000
00010000
,
00000200
00000000
00000000
00000000
00000310
00000000
00000001
00001000
00000001
00000000
00000100
00000000
00000010
00001000
00000001
00000000
,
00000101
00000000
00001100
00000000
00000001
00000100
00001000
00010000
,
01000000
00000000
11000000
00000000
10000000
00100000
00010000
00001000
,
00000010
00000000
00000011
00000000
00000001
00000100
00001000
00000100
,
00000001
00000000
00000010
00000000
00001000
00000000
00000010
00000000
00000001
00001000
00000100
00000000
00010000
00001000
00100000
00000000
,
01010000
00000000
11000000
00000000
00010000
01000000
10000000
00000000
,
11000000
00000000
01010000
00010000
00100000
00001000
00010000
00000100
,
00001100
00000000
00001010
00000010
00000100
00000001
00001000
00000100
,
00011000
00000000
00011000
00000000
00000000
00000000
00000000
00000000
10010000
00000000
10000000
00100000
01000000
00010000
00100000
00001000
,
00000000
02000000
00000000
00000000
,
00000000
00000000
00000000
00000000
,
00000000
00000000
00000000
03000000
;

//---------------dance-double - ----------------
#NOTEDATA:;
#CHARTNAME:;
#STEPSTYPE:dance-double;
#DESCRIPTION:;
#CHARTSTYLE:;
#DIFFICULTY:Easy;
#METER:6;
#RADARVALUES:0.286578,0.353686,0.035040,0.131400,0.000000,229.000000,225.000000,4.000000,15.000000,0.000000,0.000000,0.000000,0.000000,0.000000,0.286578,0.353686,0.035040,0.131400,0.000000,229.000000,225.000000,4.000000,15.000000,0.000000,0.000000,0.000000,0.000000,0.000000;
#CREDIT:;
#NOTES:
00000000
00000000
00000000
00000000
,
00000000
00000000
00000000
00000000
,
00000000
00000000
00000000
00000000
,
00000000
00000000
00000000
00000000
,
00000000
00000000
00000000
00000000
,
00000000
00000000
00000000
00000000
,
00000000
00000000
00000000
00000000
,
00000000
00000000
00000000
00000000
,
00000000
00000000
00000000
00000000
,
00000000
00000000
00000000
00000000
,
00002000
00000000
00000000
00003000
,
00020000
00000000
00000000
00030000
,
00000100
00000000
00000200
00000000
,
00000300
00000000
00000010
00000000
,
00000002
00000000
00000000
00000003
,
00002000
00000000
00000000
00003000
,
00000010
00000000
00000010
00000000
,
00001001
00000000
00000110
00000000
,
00000001
00000100
00000001
00000000
,
00001000
00000100
00001000
00000000
,
00000001
00000010
00000001
00000000
,
00001000
00000010
00001000
00000000
,
00000100
00010000
00000100
00000000
,
00100000
00001000
00100000
00000000
,
00010000
01000000
00010000
00000000
,
10000000
00100000
01000000
00010000
,
20000000
00000000
31000000
00000000
,
00010000
01000000
10000000
00000000
,
00020000
00000000
01030000
00000000
,
10000000
01000000
00010000
00000000
,
10000000
00100000
10000000
00100000
,
01000000
00001000
01000000
00001000
,
00100000
00001000
00100000
00001000
,
00010000
00000100
00010000
00000100
,
00001000
00000010
00000100
00000001
,
00001000
00000100
00000010
00000001
,
00001000
00001000
00000001
00000001
,
00000100
00000100
00000000
00000000
00000000
00000000
00001001
00000000
,
00000001
00000100
00001000
00000100
,
00000010
00001000
00000001
00000100
,
00000001
00001000
00000100
00010000
,
00001000
00100000
00010000
10000000
,
10010000
00010000
01000000
10000000
,
01000000
00100000
10000000
00010000
,
01000000
00001000
00010000
00000100
,
00000010
00000010
00000000
00000000
00000001
00000001
00000000
00000000
,
00001000
00000010
00000001
00000010
,
00001000
00000100
00010000
00001000
,
00100000
00010000
01000000
00100000
,
10000000
10000000
00010000
00010000
,
10000000
01000000
00010000
00001000
,
00010000
01000000
10000000
00010000
,
10000000
00100000
01000000
00001000
,
00010000
00000100
00001000
00000010
,
00000200
00000300
00000020
00000030
,
00001000
00000001
00001000
00000000
,
00000002
00000003
00000020
00000030
,
00000100
00001000
00010000
00000000
,
00200000
00300000
02000000
03000000
,
00010000
00100000
01000000
10000000
,
00020000
00000000
00000000
00000000
,
01030000
00000000
00100000
00000000
,
10000000
01000000
10000000
01000000
,
00100000
00010000
00100000
00010000
,
00001000
00000100
00001000
00000100
,
00000010
00000001
00000010
00000001
,
00001000
00000010
00001000
00000010
,
00000100
00000001
00000100
00000001
,
00001000
00000100
00000001
00000100
,
00010000
00001000
00100000
00010000
,
10000000
10000000
10000000
00100000
,
00010000
00010000
00010000
00100000
,
10000000
10000000
10000000
01000000
,
00010000
00001000
00000100
00000010
,
00001000
00001000
00001000
00000010
,
00000001
00000001
00000001
00000010
,
00001000
00000100
00010000
00001000
,
00100000
00100000
00000000
00000000
01000000
01000000
00000000
00000000
,
00000000
20000000
00000000
00000000
,
00000000
00000000
00000000
00000000
,
00000000
00000000
00000000
30000000
;

//---------------dance-double - ----------------
#NOTEDATA:;
#CHARTNAME:;
#STEPSTYPE:dance-double;
#DESCRIPTION:;
#CHARTSTYLE:;
#DIFFICULTY:Medium;
#METER:8;
#RADARVALUES:0.410469,0.636634,0.376681,0.289081,0.000000,328.000000,285.000000,43.000000,33.000000,0.000000,0.000000,0.000000,0.000000,0.000000,0.410469,0.636634,0.376681,0.289081,0.000000,328.000000,285.000000,43.000000,33.000000,0.000000,0.000000,0.000000,0.000000,0.000000;
#CREDIT:;
#NOTES:
00000000
00000000
00000000
00000000
,
00000000
00000000
00000000
00000000
,
00000000
00000000
00000000
00000000
,
00000000
00000000
00000000
00000000
,
00000000
00000000
00000000
00000000
,
00000000
00000000
00000000
00000000
,
00000000
00000000
00000000
00000000
,
00000000
00000000
00000000
00000000
,
00000000
00000000
00000000
00000000
,
00000000
00000000
00000000
00000000
,
00020000
00001000
00000000
00031000
,
00000000
00010000
00000010
00000100
,
00000001
00000000
00000000
00000002
00000000
00000000
00000000
00000000
,
00000003
00000000
00000010
00001000
,
00000200
00010000
00010300
00001000
,
02000000
00010000
03010000
01000000
,
00100000
10000000
00010000
10000000
,
00010000
01010000
00000000
00000000
10000000
11000000
00000000
00000000
,
20000000
00100000
30010000
10000000
,
00020000
00000000
00100000
00000000
10030000
00000000
00020000
00030000
,
00200000
00001000
00310000
00001000
,
00020000
00000100
00031000
00010000
,
00000100
00001000
00000010
00000001
,
00000010
00000100
00000001
00001000
,
00000001
00000011
00001000
00001010
,
00010000
00000000
00011000
00000000
00001000
01000000
00100000
10000000
,
00020000
00000000
00130000
00000000
,
01000000
00000000
10000000
00000000
00010000
01000000
00100000
00000000
,
20000000
00000000
31000000
00010000
,
00001000
00000100
00000001
00000000
00002000
00000000
00003001
00000000
,
00001000
00000100
00000001
00000100
,
00010000
00000000
00001000
00000000
00100000
00010000
10000000
00000000
,
00010000
01000000
10000000
01000000
,
00001000
00000000
00010000
00000000
00000100
00001000
00000001
00000000
,
00002000
00000010
00003001
00001000
,
00000002
00000000
00000010
00000000
00001003
00000000
00000001
00000010
,
00000100
00001100
00010000
01100000
,
10000000
00010000
00000000
00000000
00000000
00000000
01100000
00000000
,
10000000
00000000
01000000
00000000
00010000
00000000
01000000
10000000
,
00010000
01000000
00100000
10000000
,
00020000
00130000
00002000
00013000
,
00000100
00001000
00000001
00000000
00000100
00000001
00001000
00000000
,
00000001
00000000
00000010
00000000
00000100
00000000
00001000
00000100
,
00020000
00001000
00031000
00100000
,
01020000
10030000
21000000
30010000
,
10000000
10100000
00000000
00000000
00010000
00110000
00000000
00000000
,
10000000
00000000
00100000
00000000
00010000
00000000
00100000
10000000
,
00010000
00100000
01000000
10000000
,
00020000
01030000
00002000
00013000
,
00000010
00001000
00000001
00000000
00000010
00000001
00001000
00000000
,
00000001
00000000
00000100
00000000
00000010
00000000
00001000
00000010
,
00020000
00001000
00031000
01000000
,
00120000
10030000
20100000
30010000
,
10000000
00000000
01000000
00010000
00000000
00001000
00010000
00000000
,
00002000
00010000
00013000
00001000
,
00010000
00000000
00000100
00001000
00000002
00000000
00001003
00000000
,
00000002
00000010
00000013
00000001
,
00001000
00000010
00001000
00000010
00000200
00000000
00000301
00000000
,
00001000
00000100
00000001
00000100
,
00010000
00001000
00100000
00010000
,
20020000
00000000
00000000
00000000
,
30030000
00000000
00000000
00000000
01100000
01100000
00000000
00000000
,
00100000
10000000
01000000
00010000
,
00001000
00000000
00000100
00000010
00000000
00000010
00001000
00000000
,
00000001
00000010
00001000
00000010
,
00000001
00000100
00000010
00000000
00001000
00000010
00000100
00000000
,
00000001
00000010
00001000
00010000
,
02000000
03100000
00020000
10030000
,
00010000
01000000
00100000
00000000
10000000
00100000
01000000
00000000
,
00010000
00000000
00100000
00001000
00000000
00010000
00000100
00000000
,
00001010
00001010
00001010
00000100
,
00000011
00000011
00000011
00000100
,
00000101
00000101
00001100
00001100
,
00011000
00110000
01100000
11000000
,
10100000
10100000
10100000
01000000
,
00110000
00110000
00110000
01000000
,
10100000
01010000
00101000
00010100
,
00001000
00001010
00000000
00000000
00000001
00000101
00000001
00001000
,
00000000
00000200
00000000
00000000
,
00000000
00000000
00000000
00000000
,
00000000
00000000
00000000
00000300
;
