#TITLE:制服のマネキン;
#SUBTITLE:;
#ARTIST:乃木坂46;
#TITLETRANSLIT:Seifuku no mannequin;
#SUBTITLETRANSLIT:;
#ARTISTTRANSLIT:Nogizoka46;
#GENRE:UNREQUITED J-POP;
#CREDIT:;
#BANNER:Seifuku no mannequin.png;
#BACKGROUND:Seifuku no mannequin-bg.png;
#LYRICSPATH:;
#CDTITLE:;
#MUSIC:Seifuku no mannequin.mp3;
#OFFSET:1.783272;
#SAMPLESTART:51.720032;
#SAMPLELENGTH:15.740003;
#LASTBEATHINT:1.665499;
#SELECTABLE:YES;
#BPMS:0.000000=130.000000
;
#STOPS:
;
#BGCHANGES:3.500=Seifuku no mannequin.mp4=1.000=0=0=1=====,
99999=-nosongbg-=1.000=0=0=0 // don't automatically add -songbackground-
;
#KEYSOUNDS:;
#ATTACKS:;

//---------------dance-single - ----------------
#NOTES:
     dance-single:
     :
     Hard:
     10:
     0.387043,0.448005,0.027740,0.305143,0.120208,293.000000,290.000000,3.000000,33.000000,0.000000,0.000000,0.387043,0.448005,0.027740,0.305143,0.120208,293.000000,290.000000,3.000000,33.000000,0.000000,0.000000:
// measure 0
0000
0000
0000
0000
,  // measure 1
0000
0000
0000
0000
,  // measure 2
0000
0000
0000
0000
,  // measure 3
0000
0000
0000
0000
,  // measure 4
0000
0000
0000
0000
,  // measure 5
1000
0001
0100
0001
,  // measure 6
1000
0100
0010
0100
2000
0000
3001
0000
,  // measure 7
1000
0001
0010
0001
,  // measure 8
1000
0010
0100
0010
2000
0000
3001
0001
,  // measure 9
1000
0100
1000
0100
0020
0000
0031
0000
,  // measure 10
1000
0010
1000
0010
0200
0000
0301
0000
,  // measure 11
1000
0000
0000
0100
0000
0000
0001
0000
0000
0100
0000
0000
1000
0000
0001
0000
,  // measure 12
2000
0000
3010
0000
0100
0100
0001
0001
,  // measure 13
1000
0100
0001
0100
,  // measure 14
1000
0010
0100
1000
0200
0000
0301
0000
,  // measure 15
1000
0010
0001
0010
,  // measure 16
1000
0100
0010
1000
0020
0000
0031
0000
,  // measure 17
1000
0010
0001
0010
0200
0000
0301
0001
,  // measure 18
1000
0100
0001
0100
0020
0000
0031
0000
,  // measure 19
1000
0000
0000
0010
0000
0000
0001
0000
0000
0010
0000
0000
1000
0000
0001
0000
,  // measure 20
2000
0000
3100
0000
1000
0010
0100
0001
,  // measure 21
1000
0100
1000
0100
0002
0000
0103
0000
,  // measure 22
1000
0010
1000
0010
0100
0001
0100
0001
,  // measure 23
0020
0000
0100
0000
0130
1000
0001
1000
,  // measure 24
0001
0000
0000
0001
0000
0000
0010
0000
0000
0010
0000
0000
0100
0000
1000
0000
,  // measure 25
0002
0100
1003
1001
,  // measure 26
0001
0000
0000
0010
0000
0000
1000
0000
0000
0010
0000
0000
0100
0000
1000
0000
,  // measure 27
0002
0000
0010
0000
1003
0001
0010
0100
,  // measure 28
1000
0000
0000
0010
0000
0000
0100
0000
0001
0000
0000
0000
1001
0000
0000
0000
,  // measure 29
0001
0010
0001
0010
1000
0010
0001
0000
,  // measure 30
1000
0010
1000
0010
0001
0010
1000
0000
,  // measure 31
0001
0100
0001
0100
1000
0100
0001
0000
,  // measure 32
1000
0100
0001
0010
2000
0000
3001
0000
,  // measure 33
1000
0010
1000
0010
0200
0000
0301
0000
,  // measure 34
1000
0100
1000
0100
0020
0000
0031
0000
,  // measure 35
1000
0000
0000
1000
0000
0000
0001
0000
0000
0001
0000
0000
0010
0000
0100
0000
,  // measure 36
1000
0000
0010
0100
0000
0001
0000
0100
0020
0000
0000
0000
1030
0000
0001
0000
,  // measure 37
1000
0100
1000
0100
0001
0100
1000
0000
,  // measure 38
0001
0100
0001
0100
1000
0100
0001
0000
,  // measure 39
1000
0010
1000
0010
0001
0010
1000
0000
,  // measure 40
0001
0010
1000
0100
0002
0000
1003
0000
,  // measure 41
0001
0100
0001
0100
0020
0000
1030
0000
,  // measure 42
0001
0010
0001
0010
0200
0000
1300
0000
,  // measure 43
0001
0000
0000
0001
0000
0000
1000
0000
0000
1000
0000
0000
0100
0000
0010
0000
,  // measure 44
0001
0000
0100
0010
0000
1000
0000
0010
0200
0000
0000
0000
0301
0000
1000
0000
,  // measure 45
0002
0003
0020
0030
,  // measure 46
2002
0000
3003
0000
0001
0010
1000
0010
,  // measure 47
0001
0100
0001
0100
0010
1000
0002
0000
,  // measure 48
1003
0100
1000
0100
0010
0001
2000
0000
,  // measure 49
3001
0100
0001
0100
1000
0100
0020
0000
,  // measure 50
1030
0000
0000
1000
0000
0000
0001
0000
0000
0001
0000
0000
0010
0000
0100
0000
,  // measure 51
2000
0000
0000
0000
0000
0000
0000
3010
0000
0000
0000
0000
0000
0000
0000
0000
,  // measure 52
0200
0000
0000
0000
0000
0000
0000
0301
0000
0000
0000
0000
0000
0000
0000
0000
,  // measure 53
2000
0000
0000
0000
0000
0000
0000
3100
0000
0000
0000
0000
0000
0000
0000
0000
,  // measure 54
0010
0000
0000
0001
0000
0000
0100
0000
0000
1000
0000
0000
0100
0000
0001
0000
,  // measure 55
2000
0000
0000
0000
,  // measure 56
0000
0000
0000
0000
,  // measure 57
3000
0000
0000
0000
;

//---------------dance-single - ----------------
#NOTES:
     dance-single:
     :
     Easy:
     5:
     0.224564,0.263533,0.046234,0.138701,0.000000,170.000000,165.000000,5.000000,15.000000,0.000000,0.000000,0.224564,0.263533,0.046234,0.138701,0.000000,170.000000,165.000000,5.000000,15.000000,0.000000,0.000000:
0000
0000
0000
0000
,
0000
0000
0000
0000
,
0000
0000
0000
0000
,
0000
0000
0000
0000
,
0000
0000
0000
0000
,
1000
0010
1000
0010
,
0100
0001
1000
0000
,
0001
0010
0001
0010
,
0100
1000
0001
0000
,
1000
0010
0001
0000
,
0001
0010
1000
0000
,
0001
0010
0001
0010
,
0100
1000
0001
0001
,
1000
0100
1000
0100
,
0010
0001
1000
0000
,
0001
0100
0001
0100
,
0010
1000
0001
0000
,
1000
0100
0001
0000
,
0001
0100
1000
0000
,
0001
0100
0001
0100
,
0010
1000
0001
0001
,
1000
0100
0001
0000
,
0001
0100
1000
0001
,
2000
0000
3000
0010
,
0100
0100
0001
0001
,
1001
0000
0000
0000
,
0001
0010
0100
1000
,
0002
0000
0003
1000
,
0010
0100
0001
1001
,
0001
0010
0001
0001
,
1000
0010
1000
1000
,
0001
0100
0001
0001
,
1000
0100
0020
0030
,
0100
1000
0001
0000
,
0100
0001
1000
0000
,
0001
0001
0010
0010
,
0100
1000
2002
3003
,
1000
0100
1000
1000
,
0001
0100
0001
0001
,
1000
0010
1000
1000
,
0001
0010
0200
0300
,
0010
0001
1000
0000
,
0010
1000
0001
0000
,
1000
1000
0100
0100
,
0010
0001
2002
3003
,
2000
3000
0020
0030
,
0200
0300
0001
1001
,
1000
0010
0100
0100
,
0010
1000
0001
0001
,
1000
0100
0001
0001
,
0100
1000
0010
0100
,
0002
0000
0000
0003
,
0020
0000
0000
0030
,
0200
0000
0000
0300
,
1000
0010
0100
0001
,
2000
0000
0000
0000
,
0000
0000
0000
0000
,
3000
0000
0000
0000
;

//---------------dance-single - ----------------
#NOTES:
     dance-single:
     :
     Medium:
     7:
     0.336846,0.474359,0.268156,0.332883,0.000000,255.000000,226.000000,29.000000,36.000000,0.000000,0.000000,0.336846,0.474359,0.268156,0.332883,0.000000,255.000000,226.000000,29.000000,36.000000,0.000000,0.000000:
0000
0000
0000
0000
,
0000
0000
0000
0000
,
0000
0000
0000
0000
,
0000
0000
0000
0000
,
0000
0000
0000
0000
,
1000
0010
0100
0010
,
1000
0001
1000
0001
2000
0000
3100
0000
,
1000
0100
0010
0100
,
1000
0001
1000
0001
2000
0000
3010
0000
,
0100
0001
0100
0000
0002
0000
1003
0000
,
0001
0010
0001
0000
2000
0000
3001
0000
,
1000
0010
0001
0100
,
2000
0000
3001
0000
0100
0010
0100
0010
,
1000
0100
0001
0100
,
1000
0010
1000
0010
0200
0000
0301
0000
,
1000
0010
0001
0010
,
1000
0010
1000
0010
0200
0000
0301
0000
,
1000
0100
0010
0000
0002
0000
1003
0000
,
0001
0100
0010
0000
2000
0000
3001
0000
,
1000
0100
0001
0010
,
2000
0000
3001
0000
1000
0010
0100
0001
,
1000
0000
0001
0010
0002
0000
0003
0000
,
1000
0000
0001
0100
0010
0000
1000
0010
,
0200
0000
0300
0010
,
1010
1010
0101
1100
,
2002
0000
3003
0000
,
0001
0010
1000
0100
,
0002
0010
0103
0001
,
0010
0100
2002
3003
,
1010
0000
0011
0000
1000
0010
0001
0000
,
0010
0000
1000
0000
0001
0010
0100
0000
,
1100
0000
0101
0000
1001
1001
1001
0000
,
0001
1000
0001
1000
0020
0000
0030
0000
,
0100
0000
0001
1000
0200
0000
1300
0000
,
0010
0000
1000
0001
0020
0000
0031
0000
,
1000
0101
0001
1100
,
1000
0001
0010
0100
2000
0000
3000
0000
,
0101
0000
1100
0000
0001
0100
1000
0000
,
0100
0000
0001
0000
1000
0100
0010
0000
,
0011
0000
1010
0000
1001
1001
1001
0000
,
1000
0001
1000
0001
0200
0000
0300
0000
,
0010
0000
1000
0001
0020
0000
0031
0000
,
0100
0000
0001
1000
0200
0000
1300
0000
,
0001
1010
1000
0011
,
0001
1000
0100
0010
0002
0000
1003
0000
,
0202
0303
2200
3300
,
0001
0100
0010
1000
0001
0000
1001
0000
,
1000
0000
0100
0000
0001
0100
0001
0000
,
0100
0000
1000
0000
0001
1000
0001
0000
,
1000
0000
0010
0000
0001
0010
0001
0000
,
0010
1010
1000
1001
,
0002
0003
0020
0030
,
0200
0300
2000
3000
,
0002
0003
0200
0300
,
0010
0000
1000
0000
0001
0000
0010
0100
,
2000
0000
0000
0000
,
0000
0000
0000
0000
,
3000
0000
0000
0000
;

//---------------dance-double - ----------------
#NOTES:
     dance-double:
     :
     Hard:
     10:
     0.381759,0.421652,0.018494,0.268156,0.092468,289.000000,287.000000,2.000000,29.000000,0.000000,0.000000,0.381759,0.421652,0.018494,0.268156,0.092468,289.000000,287.000000,2.000000,29.000000,0.000000,0.000000:
00000000
00000000
00000000
00000000
,
00000000
00000000
00000000
00000000
,
00000000
00000000
00000000
00000000
,
00000000
00000000
00000000
00000000
,
00000000
00000000
00000000
00000000
,
00001000
00100000
00001000
01000000
,
00100000
10000000
00100000
10000000
00002000
00000000
00013000
00000000
,
00001000
00010000
00000100
00010000
,
00000010
00000100
00000001
00000100
00000002
00000000
00001003
00001000
,
00000001
00000010
00000001
00000010
00002000
00000000
00003010
00000000
,
00000100
00010000
00000200
00010300
00002000
00000000
01003000
00000000
,
00100000
00000000
00000000
00100000
00000000
00000000
10000000
00000000
00000000
10000000
00000000
00000000
00010000
00000000
10000000
00000000
,
00001000
00000000
00011000
00000000
00001000
00010000
00000100
00001000
,
00000100
00000010
00000001
00001000
,
00000001
00000100
00001000
00010000
02000000
00000000
03100000
00000000
,
01000000
10000000
00100000
10000000
,
01000000
00010000
00001000
00000010
00000002
00000000
00001003
00001000
,
00000001
00000100
00000001
00000100
00002000
00000000
00003100
00000100
,
00000010
00010000
00000010
00010000
00002000
00000000
00103000
00000000
,
00010000
00000000
00000000
00010000
00000000
00000000
10000000
00000000
00000000
10000000
00000000
00000000
00100000
00000000
01000000
00000000
,
00001000
00000000
00011000
00000000
00010000
01000000
10000000
00010000
,
10000000
00100000
00010000
00100000
02000000
00000000
03001000
00000000
,
00010000
00000100
00010000
00000100
00000010
00000001
00001000
00000001
,
00000200
00000000
00000010
00000000
00000310
00001000
00000010
00010000
,
00001000
00000000
00000000
00001000
00000000
00000000
01000000
00000000
00000000
01000000
00000000
00000000
00100000
00000000
10000000
00000000
,
00002000
00100000
00010000
01003000
,
00001000
00000000
00000000
00001000
00000000
00000000
00100000
00000000
00000000
00100000
00000000
00000000
01000000
00000000
10000000
00000000
,
00020000
00000000
01000000
00000000
10030000
00010000
01000000
10000000
,
00010000
00000000
00000000
00100000
00000000
00000000
01000000
00000000
00002000
00000000
00000000
00000000
00013000
00000000
00000000
00000000
,
00001000
00010000
00000100
00010000
00000010
00000100
00000001
00000000
,
00001000
00000100
00001000
00000010
00010000
00001000
00100000
00000000
,
00010000
01000000
10000000
01000000
00001000
00010000
00000100
00000000
,
00001000
00000100
00000001
00000010
00002000
00000000
00003001
00000000
,
00001000
00000100
00001000
00000100
00000020
00000000
00001030
00000000
,
00000001
00000100
00000001
00000100
00002000
00000000
00003010
00000000
,
00010000
00000000
00000000
00010000
00000000
00000000
00001000
00000000
00000000
00001000
00000000
00000000
00100000
00000000
00010000
00000000
,
10000000
00100000
00010000
01000000
20000000
00000000
30001000
00000000
,
00010000
00001000
00100000
00001000
01000000
00100000
10000000
00000000
,
00010000
00100000
00010000
01000000
00001000
00010000
00000100
00000000
,
00001000
00000010
00000001
00000010
00010000
00001000
00100000
00000000
,
00010000
00100000
10000000
01000000
00020000
00000000
10030000
00000000
,
00010000
00100000
00010000
00100000
02000000
00000000
03010000
00000000
,
10000000
00100000
10000000
00100000
00020000
00000000
01030000
00000000
,
00001000
00000000
00000000
00001000
00000000
00000000
00010000
00000000
00000000
00010000
00000000
00000000
00000100
00000000
00001000
00000000
,
00000001
00000100
00001000
00000010
00000002
00000000
00010003
00000000
,
00002000
00003000
02000000
03000000
,
00200000
00000000
00300000
00000000
10000000
00001000
00010000
00000100
,
00001000
00000010
00001000
00000010
00000001
00000010
00000100
00000000
,
00000001
00000010
00000001
00000010
00001000
00010000
01000000
00000000
,
10000000
00100000
10000000
00100000
00010000
00100000
10000000
00000000
,
00001000
00000000
00000000
00001000
00000000
00000000
00010000
00000000
00000000
00010000
00000000
00000000
00000100
00000000
00001000
00000000
,
00000002
00000000
00000000
00000000
00000000
00000000
00000000
00000103
00000000
00000000
00000000
00000000
00000000
00000000
00000000
00000000
,
00000020
00000000
00000000
00000000
00000000
00000000
00000000
00001030
00000000
00000000
00000000
00000000
00000000
00000000
00000000
00000000
,
00000200
00000000
00000000
00000000
00000000
00000000
00000000
00010300
00000000
00000000
00000000
00000000
00000000
00000000
00000000
00000000
,
00001000
00000000
00000000
00100000
00000000
00000000
00010000
00000000
00000000
01000000
00000000
00000000
10000000
00000000
01000000
00000000
,
00200000
00000000
00000000
00000000
,
00000000
00000000
00000000
00000000
,
00300000
00000000
00000000
00000000
;

//---------------dance-single - ----------------
#NOTES:
     dance-single:
     :
     Beginner:
     2:
     0.113603,0.184473,0.036987,0.046234,0.000000,86.000000,82.000000,4.000000,5.000000,0.000000,0.000000,0.113603,0.184473,0.036987,0.046234,0.000000,86.000000,82.000000,4.000000,5.000000,0.000000,0.000000:
0000
0000
0000
0000
,
0000
0000
0000
0000
,
0000
0000
0000
0000
,
0000
0000
0000
0000
,
0000
0000
0000
0000
,
1000
0000
0000
0000
,
0010
0000
0000
0000
,
0100
0000
0000
0000
,
0001
0000
0000
0000
,
1000
0000
1000
0000
,
0001
0000
0001
0000
,
0010
0000
0010
0000
,
0100
0000
0100
0000
,
1000
0000
0000
0000
,
0010
0000
0000
0000
,
0001
0000
0000
0000
,
0010
0000
0000
0000
,
0100
0000
0100
0000
,
0010
0000
0010
0000
,
1000
0000
1000
0000
,
0001
0000
0001
0000
,
0010
0000
0000
0000
,
0100
0000
0000
0000
,
1000
0000
0000
0000
,
0001
0000
0000
0000
,
0100
0000
0000
0000
,
0010
0000
0000
0000
,
1000
0000
0000
0000
,
0001
0000
1000
1001
,
1000
0000
1000
0000
,
0010
0000
0010
0000
,
0100
0000
0100
0000
,
0001
0000
0001
0000
,
1000
0000
1000
0000
,
0100
0000
0100
0000
,
0010
0000
0010
0000
,
0001
0000
0001
0000
,
1000
0000
1000
0000
,
0010
0000
0010
0000
,
0001
0000
0001
0000
,
0010
0000
0010
0000
,
0100
0000
0100
0000
,
0001
0000
0001
0000
,
1000
0000
0001
0000
,
1001
0000
0000
0000
,
0010
0000
0100
0000
,
0110
0000
0000
0000
,
0010
0000
1000
0000
,
0100
0000
0010
0000
,
0001
0000
1000
0000
,
0010
0000
0100
0000
,
0002
0000
0000
0003
,
0020
0000
0000
0030
,
0200
0000
0000
0300
,
1000
0000
0001
0000
,
2002
0000
0000
0000
,
0000
0000
0000
0000
,
3003
0000
0000
0000
;

//---------------dance-double - ----------------
#NOTES:
     dance-double:
     :
     Easy:
     5:
     0.243058,0.263533,0.046234,0.120208,0.000000,184.000000,179.000000,5.000000,13.000000,0.000000,0.000000,0.243058,0.263533,0.046234,0.120208,0.000000,184.000000,179.000000,5.000000,13.000000,0.000000,0.000000:
00000000
00000000
00000000
00000000
,
00000000
00000000
00000000
00000000
,
00000000
00000000
00000000
00000000
,
00000000
00000000
00000000
00000000
,
00000000
00000000
00000000
00000000
,
00010000
00001000
00010000
00001000
,
00100000
00010000
10000000
00000000
,
00010000
10000000
00010000
10000000
,
00100000
01000000
00001000
00010000
,
00000100
00000100
00000100
00001000
,
00000010
00000010
00000010
00000000
,
00000100
00000001
00000010
00001000
,
00000010
00000001
00001000
00001000
,
00000001
00000100
00001000
00010000
,
00001000
00000100
00000010
00000000
,
00001000
00000100
00010000
00001000
,
00100000
00010000
10000000
00010000
,
01000000
01000000
01000000
00100000
,
10000000
10000000
10000000
00000000
,
00010000
00100000
10000000
00100000
,
00010000
01000000
00001000
00010000
,
00000100
00001000
00000002
00000003
,
00000100
00000001
00001000
00000010
,
00020000
00030000
00000000
00001000
,
00100000
00100000
01000000
01000000
,
10000000
00010000
10000000
00010000
,
00100000
00001000
00100000
00001000
,
00010000
00000100
00010000
00001000
,
00000010
00000001
00001000
00001001
,
00000001
00000100
00000001
00000001
,
00001000
00000100
00001000
00001000
,
00000001
00010000
00001000
00100000
,
00010000
10000000
02000000
03000000
,
10000000
00100000
00010000
00000000
,
00001000
00000100
00000001
00000000
,
00000010
00000100
00000010
00000100
,
00001000
00000001
00001001
00000000
,
00000001
00000010
00001000
00001000
,
00000001
00000100
00001000
00001000
,
00000001
00000100
00000010
00010000
,
00001000
00100000
00020000
00030000
,
10000000
01000000
00010000
00000000
,
00001000
00000010
00000001
00000000
,
00001000
00000010
00000001
00000010
,
00010000
00001000
00011000
00000000
,
00010000
00100000
10000000
00100000
,
00001000
00010000
00001000
00011000
,
00001000
00000010
00000001
00000001
,
00001000
00000100
00000010
00000010
,
00000001
00000100
00001000
00001000
,
00010000
00100000
01000000
00010000
,
20000000
30000000
02000000
03000000
,
00200000
00300000
00020000
00030000
,
00002000
00003000
00000200
00000300
,
00000020
00000030
00000001
00001000
,
00002002
00000000
00000000
00000000
,
00000000
00000000
00000000
00000000
,
00003003
00000000
00000000
00000000
;

//---------------dance-double - ----------------
#NOTES:
     dance-double:
     :
     Medium:
     7:
     0.314390,0.342592,0.036987,0.240416,0.000000,238.000000,234.000000,4.000000,26.000000,0.000000,0.000000,0.314390,0.342592,0.036987,0.240416,0.000000,238.000000,234.000000,4.000000,26.000000,0.000000,0.000000:
00000000
00000000
00000000
00000000
,
00000000
00000000
00000000
00000000
,
00000000
00000000
00000000
00000000
,
00000000
00000000
00000000
00000000
,
00000000
00000000
00000000
00000000
,
00001000
00100000
00010000
10000000
,
01000000
00000000
10000000
00010000
20000000
00000000
31000000
00000000
,
10000000
00100000
01000000
00001000
,
00010000
00000000
00000100
00001000
00000200
00000000
00000310
00000000
,
00000001
00000000
00001000
00000010
00000002
00000000
00000013
00000000
,
00001000
00000000
00000001
00000010
00002000
00000000
00003010
00000000
,
00000001
00000100
00001000
00010000
,
02000000
00000000
13000000
00000000
00010000
10000000
00010000
10000000
,
00010000
00100000
00001000
00010000
,
00000100
00001000
00000010
00001000
00000200
00000000
00000310
00000000
,
00000001
00000100
00001000
00000100
,
00000010
00010000
00001000
00010000
00000200
00000000
00001300
00000000
,
00000010
00000000
00000100
00000001
00002000
00000000
00003100
00000000
,
00000010
00000000
00000001
00001000
00000020
00000000
00000130
00000000
,
00000001
00000100
00001000
00010000
,
00200000
00000000
01300000
00000000
00010000
10000000
00010000
10000000
,
00010000
00000000
00100000
01000000
00200000
00000000
00310000
00000000
,
10000000
00000000
00010000
01000000
00001000
00000000
00010000
00001000
,
00200000
00310000
02000000
03100000
,
10000000
01000000
00010000
00001000
,
00000200
00000010
00000310
00001000
,
00000001
00000010
00001000
00000010
,
00000200
00000010
00000310
00000001
,
00001000
00000000
00000010
00000100
00000010
00000000
00001001
00000000
,
00000001
00000000
00000100
00000000
00001000
00000100
00001000
00000000
,
00010000
00000000
00100000
00000000
10000000
00010000
10000000
00000000
,
01000000
00000000
00010000
00000000
00001000
00000100
00001000
00000000
,
00000100
00000000
00000010
00001000
00000002
00000000
00000003
00000000
,
00001000
00000000
00000100
00000001
00000100
00000000
00001000
00000000
,
00000010
00000000
00000001
00000010
00000001
00000000
00000010
00000000
,
00001000
00000100
00010000
00001000
,
00100000
00010000
10000000
01000000
00100000
00000000
10010000
00000000
,
10000000
00000000
00100000
00000000
00010000
00100000
00010000
00000000
,
00001000
00000000
00000100
00000000
00000001
00001000
00000001
00000000
,
00000010
00000000
00001000
00000000
00010000
00100000
00010000
00000000
,
00100000
00000000
01000000
00010000
20000000
00000000
30000000
00000000
,
00010000
00000000
00100000
10000000
00100000
00000000
00010000
00000000
,
01000000
00000000
10000000
01000000
10000000
00000000
01000000
00000000
,
00010000
00100000
00001000
00010000
,
00000100
00001000
00000001
00000010
00000100
00000000
00001001
00000000
,
00000002
00000003
00002000
00003000
,
00000001
00000100
00001000
00010000
00100000
00000000
10010000
00000000
,
10000000
00000000
01000000
00000000
00010000
01000000
00010000
00000000
,
01000000
00000000
10000000
00000000
00100000
01000000
00100000
00000000
,
00010000
00000000
00100000
00000000
01000000
00001000
00010000
00000000
,
00000100
00000000
00000100
00000000
00000010
00000001
00000010
00000001
,
00002000
00003000
00000020
00000030
,
00020000
00030000
00002000
00003000
,
00200000
00300000
00020000
00030000
,
10000000
00000000
00100000
00000000
00010000
00001000
00000100
00000010
,
00002000
00000000
00000000
00000000
,
00000000
00000000
00000000
00000000
,
00003000
00000000
00000000
00000000
;
