#TITLE:SEB 4 U;
#SUBTITLE:;
#ARTIST:SEB ALL STARS;
#TITLETRANSLIT:;
#SUBTITLETRANSLIT:;
#ARTISTTRANSLIT:;
#GENRE:EUROBEAT ANTHEM;
#CREDIT:;
#BANNER:SEB 4 U.png;
#BACKGROUND:SEB 4 U-bg.png;
#LYRICSPATH:;
#CDTITLE:;
#MUSIC:SEB 4 U.mp3;
#OFFSET:-2.220000;
#SAMPLESTART:65.239998;
#SAMPLELENGTH:17.219999;
#SELECTABLE:YES;
#BPMS:0.000000=156.000000
;
#STOPS:
;
#BGCHANGES:;
#KEYSOUNDS:;
#ATTACKS:;

//---------------dance-single - ----------------
#NOTES:
     dance-single:
     :
     Hard:
     11:
     0.492232,0.554219,0.446128,0.484096,0.056952,363.000000,316.000000,47.000000,51.000000,0.000000,0.000000,0.492232,0.554219,0.446128,0.484096,0.056952,363.000000,316.000000,47.000000,51.000000,0.000000,0.000000:
0000
0000
0000
0000
,
0000
0000
0000
0000
,
0000
0000
0000
0000
,
0000
0000
0000
0000
,
0000
0000
0000
0000
,
0000
0000
0000
0000
,
0000
0000
0000
0000
,
0000
0000
0000
0000
,
2200
0000
0000
3300
,
0202
0300
2000
3003
,
2002
0000
0000
0000
,
3003
0000
0000
0000
,
2010
0001
0010
3100
,
0012
1000
0010
0103
,
0102
1003
2100
3001
,
0012
1003
2010
3001
,
2002
0000
0000
3003
,
1100
0000
0000
0000
0101
0000
0000
0000
1000
0001
0000
1000
0001
0000
0000
0000
,
1000
1000
0010
0010
0100
0100
0001
1000
,
1010
0000
0011
0000
1000
1000
1000
0000
,
0001
0001
0010
0010
0100
1000
0001
1000
,
1010
0000
0000
0000
0101
0000
0000
0000
0001
1000
0000
0001
1000
0000
0000
0000
,
0001
0001
0010
0010
1000
1000
0010
0100
,
1100
0000
0011
0000
1000
1000
1000
0000
,
0001
0001
0100
0100
1000
0100
0010
1000
,
0002
0023
2030
3200
,
0302
0000
0013
0010
0200
0000
1300
0000
,
0001
0100
0001
0100
1000
0100
1000
0100
,
0010
0000
1000
0100
0010
0010
0001
0001
,
2000
3020
0032
0203
,
2300
0000
3010
0010
0200
0000
0301
0000
,
1000
0100
1000
0100
0001
0100
0000
0100
,
0020
0000
0031
1000
0010
0010
0100
0100
,
0002
0000
0023
0000
2030
0000
3010
0100
,
2000
0000
3010
0010
0200
0000
0301
0000
,
1000
0100
0001
0100
2000
0000
3001
0100
,
0001
0010
1000
0010
0002
0000
1003
0000
,
1001
0002
0203
2300
,
3002
0000
0013
0010
0200
0000
0301
0000
,
1000
0100
1000
1000
0001
0100
0001
0001
,
1000
0010
0100
0002
0000
1000
1003
0000
,
1100
1100
0101
0101
,
1000
0100
0001
0010
2000
0000
3001
0000
,
1000
0010
0100
0010
0001
0000
0011
0000
,
1020
0000
0000
0000
0130
0000
0100
0000
0001
0000
0001
0010
0000
0010
0100
0000
,
1000
0000
0001
0100
1000
0100
0002
0000
,
1003
0000
0100
0001
0100
1000
0001
0000
,
1000
0010
0100
0010
0001
0000
0010
1010
,
0000
0101
0000
0011
0000
2200
0000
3300
,
0011
0011
1010
1010
,
0001
0010
1000
0100
0002
0000
1003
0000
,
0001
0100
0010
0100
1000
0000
1100
0000
,
0201
0000
0000
0000
0310
0000
0010
0000
1000
0000
1000
0100
0000
0100
0010
0000
,
0001
0000
1000
0010
0001
0010
2000
0000
,
3001
0000
0010
1000
0010
0001
1000
0000
,
0001
0100
0010
0100
1000
0100
0010
0100
,
0101
0101
0000
1010
0000
2002
0000
3003
,
0011
0000
0000
0000
1010
0000
0000
0000
0001
1000
0000
0001
1000
0000
0000
0000
,
0001
0001
0100
0100
0010
0010
1000
0001
,
0101
0000
1100
0000
0001
0001
0001
0000
,
1000
1000
0100
0100
0010
0001
1000
0001
,
0101
0000
0000
0000
1010
0000
0000
0000
1000
0001
0000
1000
0001
0000
0000
0000
,
1000
1000
0100
0100
0001
0001
0100
0010
,
0011
0000
1100
0000
0001
0001
0001
0000
,
1000
1000
0010
0010
0001
0010
0100
0001
;

//---------------dance-single - ----------------
#NOTES:
     dance-single:
     :
     Easy:
     5:
     0.294254,0.338037,0.218318,0.113905,0.000000,217.000000,194.000000,23.000000,12.000000,0.000000,0.000000,0.294254,0.338037,0.218318,0.113905,0.000000,217.000000,194.000000,23.000000,12.000000,0.000000,0.000000:
0000
0000
0000
0000
,
0000
0000
0000
0000
,
0000
0000
0000
0000
,
0000
0000
0000
0000
,
0000
0000
0000
0000
,
0000
0000
0000
0000
,
0000
0000
0000
0000
,
0000
0000
0000
0000
,
1001
0000
0000
0000
,
1000
0000
0010
0000
,
0100
0000
0000
0000
,
0000
0000
0000
0000
,
0001
0001
0001
0001
,
0010
0010
0010
0010
,
0100
0100
0100
0100
,
1000
1000
1000
1000
,
2002
0000
0000
3003
,
1000
1000
0010
0010
,
0100
0001
1000
0000
,
0001
0010
1000
0010
,
0110
0000
1001
0000
,
0001
0100
0001
0001
,
1000
0100
1000
1000
,
0001
0100
0010
1000
,
0001
0011
1000
1010
,
1000
0100
1000
0100
,
0002
0003
0200
0300
,
1000
0010
0100
0001
,
1000
0000
1001
1001
,
0001
0010
0001
0010
,
2000
3000
0020
0030
,
0001
0100
0010
1000
,
0001
0000
1001
1001
,
2000
0100
3100
1000
,
0002
0100
0103
0001
,
2000
0010
3010
1000
,
0002
0010
0013
0001
,
1000
0010
1000
0010
,
0001
0010
0001
0010
,
1000
0100
0001
0100
,
1000
0001
2002
3003
,
1000
1000
0010
0010
,
0100
0001
1000
0000
,
0001
0010
1000
0010
,
0110
0000
1001
0000
,
0001
0100
0001
0001
,
1000
0100
1000
1000
,
0001
0100
0010
1000
,
0001
0011
1000
1010
,
0001
0001
0100
0100
,
0010
1000
0001
0000
,
1000
0100
0001
0100
,
0110
0000
1001
0000
,
1000
0010
1000
1000
,
0001
0010
0001
0001
,
1000
0010
0100
0001
,
1000
1100
0001
0101
,
1000
1000
0010
0010
,
0100
0001
1000
0000
,
0001
0010
1000
0010
,
0110
0000
1001
0000
,
0001
0100
0001
0001
,
1000
0100
1000
1000
,
0001
0100
0010
1000
,
0001
0011
1000
1010
;

//---------------dance-double - ----------------
#NOTES:
     dance-double:
     :
     Hard:
     11:
     0.492232,0.554219,0.427144,0.493588,0.056952,363.000000,318.000000,45.000000,52.000000,0.000000,0.000000,0.492232,0.554219,0.427144,0.493588,0.056952,363.000000,318.000000,45.000000,52.000000,0.000000,0.000000:
00000000
00000000
00000000
00000000
,
00000000
00000000
00000000
00000000
,
00000000
00000000
00000000
00000000
,
00000000
00000000
00000000
00000000
,
00000000
00000000
00000000
00000000
,
00000000
00000000
00000000
00000000
,
00000000
00000000
00000000
00000000
,
00000000
00000000
00000000
00000000
,
00022000
00000000
00000000
00033000
,
00120000
00000000
10030000
00000000
,
20020000
00000000
30030000
00000000
,
00020000
00000000
00130000
00001000
,
00021000
00000100
00001000
00030100
,
00012000
01000000
00010000
01003000
,
20100000
30010000
00120000
10030000
,
21000000
30010000
01020000
10030000
,
20020000
00000000
00000000
30030000
,
11000000
00000000
00000000
00000000
01010000
00000000
00000000
00000000
10000000
00010000
00000000
10000000
00010000
00000000
00000000
00000000
,
10000000
10000000
00100000
00100000
00010000
00010000
00001000
00000100
,
00001010
00000000
00000011
00000000
00001000
00001000
00001000
00000000
,
00000001
00000001
00000010
00000010
00001000
00000010
00000001
00001000
,
00000101
00000000
00000000
00000000
00001100
00000000
00000000
00000000
00000001
00001000
00000000
00000001
00001000
00000000
00000000
00000000
,
00000001
00000001
00000010
00000010
00001000
00001000
00010000
01000000
,
00110000
00000000
10100000
00000000
00010000
00010000
00010000
00000000
,
10000000
10000000
00100000
00100000
00010000
00100000
10000000
00010000
,
20000000
32000000
03020000
00032000
,
00003200
00000000
00000310
00000010
00002000
00000000
00003001
00000000
,
00001000
00000100
00001000
00000100
00000001
00000100
00000001
00000100
,
00001000
00000000
00000010
00000100
00000001
00000001
00001000
00001000
,
00000002
00000023
00002030
00023000
,
00230000
00000000
01300000
01000000
00020000
00000000
10030000
00000000
,
00010000
00100000
00010000
00100000
10000000
00100000
00000000
00100000
,
00010000
00000000
10000000
00100000
01000000
01000000
00010000
00010000
,
20000000
00000000
32000000
00000000
03020000
00000000
00031000
00001000
,
00200000
00000000
01300000
01000000
20000000
00000000
30010000
00000000
,
10000000
00100000
00010000
00001000
00020000
00000000
00130000
10000000
,
00010000
01000000
10000000
01000000
00002000
00000000
00013000
00000000
,
00011000
00002000
00003020
00000032
,
00000203
00002300
00003200
00000310
,
00001000
00000100
00001000
00001000
00000001
00000100
00000001
00000001
,
00001000
00000100
00010000
00002000
00000000
00100000
00013000
00000000
,
01001000
01001000
10100000
10010000
,
10000000
01000000
00010000
00001000
00000200
00000000
00000310
00000000
,
00001000
00000100
00000001
00000100
00000010
00000000
00000001
00000000
,
00000102
00000000
00000000
00000000
00001000
00000000
00001003
00000000
00000001
00000000
00000001
00000100
00000000
00000100
00000010
00000000
,
00001000
00000000
00000100
00010000
00001000
00010000
00000200
00000000
,
00000310
00000000
00000001
00000100
00001000
00000100
00000020
00000000
,
00001030
00000100
00100000
00010000
01000000
00000000
00100000
10100000
,
00000000
00110000
00000000
00011000
00000000
00002200
00000000
00003300
,
00010010
00010010
00000101
00001001
,
00000001
00000010
00001000
00010000
00200000
00000000
01300000
00000000
,
00010000
00100000
10000000
00100000
01000000
00000000
10000000
00000000
,
20100000
00000000
00000000
00000000
00010000
00000000
30010000
00000000
10000000
00000000
10000000
00100000
00000000
00100000
01000000
00000000
,
00010000
00000000
00100000
00001000
00010000
00001000
00200000
00000000
,
01300000
00000000
10000000
00100000
00010000
00100000
02000000
00000000
,
03010000
00100000
10000000
00010000
01000000
00100000
00001000
00010000
,
00011000
00011000
00000000
00101000
00000000
00020200
00000000
00030300
,
00000011
00000000
00000000
00000000
00001010
00000000
00000000
00000000
00000001
00001000
00000000
00000001
00001000
00000000
00000000
00000000
,
00000001
00000001
00000100
00000100
00001000
00001000
00010000
00100000
,
01010000
00000000
11000000
00000000
00010000
00010000
00010000
00000000
,
10000000
10000000
01000000
01000000
00010000
01000000
10000000
00010000
,
10100000
00000000
00000000
00000000
00110000
00000000
00000000
00000000
10000000
00010000
00000000
10000000
00010000
00000000
00000000
00000000
,
10000000
10000000
01000000
01000000
00010000
00010000
00001000
00000010
,
00001100
00000000
00000101
00000000
00001000
00001000
00001000
00000000
,
00000001
00000001
00000100
00000100
00001000
00000100
00000001
00001000
;

//---------------dance-single - ----------------
#NOTES:
     dance-single:
     :
     Beginner:
     3:
     0.170857,0.245845,0.047460,0.000000,0.000000,126.000000,121.000000,5.000000,0.000000,0.000000,0.000000,0.170857,0.245845,0.047460,0.000000,0.000000,126.000000,121.000000,5.000000,0.000000,0.000000,0.000000:
0000
0000
0000
0000
,
0000
0000
0000
0000
,
0000
0000
0000
0000
,
0000
0000
0000
0000
,
0000
0000
0000
0000
,
0000
0000
0000
0000
,
0000
0000
0000
0000
,
0000
0000
0000
0000
,
1000
0000
0000
0000
,
0001
0000
0000
0000
,
0010
0000
0000
0000
,
0000
0000
0000
0000
,
0001
0000
0000
0000
,
1000
0000
0000
0000
,
0010
0000
0010
0000
,
0100
0000
0100
0000
,
1001
0000
0000
0000
,
1000
0000
1000
0000
,
0010
0000
0010
0000
,
0100
0000
0100
0000
,
0001
0000
0001
0000
,
1000
0000
1000
0000
,
0100
0000
0100
0000
,
0010
0000
0010
0000
,
0001
0000
0001
0001
,
0001
0000
0001
0000
,
0100
0000
0100
0000
,
1000
0000
1000
0000
,
0100
0000
0100
0000
,
0010
0000
0010
0000
,
1000
0000
1000
0000
,
0001
0000
0001
0000
,
0010
0000
0010
0000
,
0100
0000
1000
0000
,
0010
0000
1000
0000
,
0100
0000
0010
0000
,
0001
0000
0100
0000
,
0001
0000
0010
0000
,
0100
0000
1000
0000
,
0001
0000
0100
0000
,
0010
0010
0010
0000
,
1000
1000
1000
0000
,
0001
0001
0001
0000
,
0010
0000
0100
0000
,
1000
0000
0001
0000
,
0100
0100
0100
0000
,
0010
0010
0010
0000
,
1000
0000
0001
0000
,
1001
0000
1001
0000
,
0001
0001
0001
0000
,
1000
1000
1000
0000
,
0100
0000
0010
0000
,
0001
0000
1000
0000
,
0010
0010
0010
0000
,
0100
0100
0100
0000
,
0001
0000
1000
0000
,
1001
0000
1001
0000
,
1000
1000
1000
0000
,
0010
0000
0100
0000
,
0001
0001
0001
0000
,
0010
0000
0100
0000
,
1000
1000
1000
0000
,
0100
0000
0001
0000
,
0100
0100
0100
0000
,
0010
0000
0001
0001
;

//---------------dance-single - ----------------
#NOTES:
     dance-single:
     :
     Medium:
     7:
     0.375615,0.461849,0.294254,0.446128,0.009492,277.000000,246.000000,31.000000,47.000000,0.000000,0.000000,0.375615,0.461849,0.294254,0.446128,0.009492,277.000000,246.000000,31.000000,47.000000,0.000000,0.000000:
0000
0000
0000
0000
,
0000
0000
0000
0000
,
0000
0000
0000
0000
,
0000
0000
0000
0000
,
0000
0000
0000
0000
,
0000
0000
0000
0000
,
0000
0000
0000
0000
,
0000
0000
0000
0000
,
1001
0000
0000
0000
,
0110
0000
0000
0000
,
1001
0000
0000
0000
,
0000
0000
0000
0000
,
2000
0100
3100
1000
,
0002
0100
0103
0001
,
2000
3010
0002
0013
,
2000
3100
0002
0103
,
2002
0000
0000
3003
,
1010
0000
0011
0000
1000
0001
1000
0000
,
0002
0010
0100
1003
,
0101
0000
1100
0000
0001
1000
0001
0000
,
2000
0000
3020
0000
0130
0001
0100
0001
,
1000
0000
0011
0000
1000
0001
1000
0000
,
0002
0010
1000
0103
,
0011
0000
1100
0000
1000
0001
1000
0000
,
0002
0000
0203
0000
0310
1000
0001
1000
,
0002
0023
2030
3020
,
0032
0103
0020
1030
,
0001
0100
0001
0000
1000
0100
1000
0000
,
0001
1000
1001
1001
,
2000
3200
0302
0203
,
2300
3010
0200
0301
,
1000
0010
1000
0000
0001
0010
0001
0000
,
1000
0001
1001
1001
,
2000
0100
3001
1000
,
0002
0100
1003
0001
,
1000
0010
0100
0000
0002
0000
1003
0000
,
0001
0010
0100
0000
2000
0000
3001
0000
,
1001
2000
3020
0032
,
0023
2030
3002
0103
,
0001
0010
0001
0000
1000
0010
1000
0000
,
0001
1000
0001
1000
0000
0100
0100
0000
,
0010
0010
1001
1001
,
0001
0100
1000
0200
0000
0000
0310
0000
,
1000
0100
0001
1000
,
0020
0000
0000
0000
0130
0000
0000
0000
1000
0000
0000
1000
0000
0000
1000
0000
,
0001
0000
0100
0000
1000
0100
1000
0000
,
0001
0000
0010
0000
1000
0001
1000
0000
,
0001
0010
1000
0100
,
0101
0101
1010
1001
,
0100
0100
1001
1001
,
1000
0010
0001
0020
0000
0000
0130
0000
,
0001
0010
1000
0001
,
0200
0000
0000
0000
0310
0000
0000
0000
0001
0000
0000
0001
0000
0000
0001
0000
,
1000
0000
0010
0000
0001
0010
0001
0000
,
1000
0000
0100
0000
0001
1000
0001
0000
,
1000
0100
0001
0010
,
1000
1000
0000
0001
0000
0200
0000
0300
,
0011
0000
1010
0000
0001
1000
0001
0000
,
2000
0010
0100
3001
,
1100
0000
0101
0000
1000
0001
1000
0000
,
0002
0000
0023
0000
0130
1000
0100
1000
,
0001
0000
1010
0000
0001
1000
0001
0000
,
2000
0010
0001
3100
,
1010
0000
0101
0000
0001
1000
0001
0000
,
2000
0000
3200
0000
0310
0001
1000
0001
;

//---------------dance-double - ----------------
#NOTES:
     dance-double:
     :
     Easy:
     6:
     0.280694,0.307306,0.066445,0.075937,0.000000,207.000000,200.000000,7.000000,8.000000,0.000000,0.000000,0.280694,0.307306,0.066445,0.075937,0.000000,207.000000,200.000000,7.000000,8.000000,0.000000,0.000000:
00000000
00000000
00000000
00000000
,
00000000
00000000
00000000
00000000
,
00000000
00000000
00000000
00000000
,
00000000
00000000
00000000
00000000
,
00000000
00000000
00000000
00000000
,
00000000
00000000
00000000
00000000
,
00000000
00000000
00000000
00000000
,
00000000
00000000
00000000
00000000
,
00011000
00000000
00000000
00000000
,
00110000
00000000
00000000
00000000
,
10010000
00000000
00000000
00000000
,
00000000
00000000
00000000
00000000
,
10000000
00100000
10000000
00100000
,
01000000
00010000
01000000
00010000
,
00100000
00001000
00100000
00001000
,
00010000
00000100
00010000
00000100
,
00001001
00000000
00000000
00000000
,
00000001
00000001
00000100
00000100
,
00001000
00000100
00000010
00001000
,
00000001
00000001
00000010
00000010
,
00001000
00010000
01000000
10000000
,
00010000
00010000
10000000
10000000
,
00010000
01000000
10000000
01000000
,
00010000
00010000
10000000
10000000
,
00010000
00100000
00001000
00010000
,
00000100
00000100
00000100
00000100
,
00000200
00000300
00000020
00000030
,
00000001
00000100
00001000
00000100
,
00000010
00000000
00010000
00001000
,
00100000
00100000
00100000
00100000
,
00200000
00300000
02000000
03000000
,
10000000
00100000
00010000
00100000
,
01000000
00000000
00001000
00010000
,
00001000
00001000
00001000
00100000
,
00010000
00010000
00010000
10000000
,
00010000
01000000
10000000
01000000
,
00001000
00010000
00000100
00001000
,
00000001
00000001
00000001
00000100
,
00001000
00001000
00001000
00000100
,
00000010
00001000
00000100
00010000
,
00001000
00100000
00010000
10010000
,
10000000
10000000
00010000
00010000
,
00100000
00001000
00010000
00000000
,
00000100
00001000
00000010
00000100
,
00000002
00000003
00002000
00003000
,
00000001
00000010
00000001
00000001
,
00001000
00000010
00001000
00001000
,
00000001
00000010
00001000
00010000
,
01000000
10000000
00010000
10010000
,
10000000
10000000
00010000
00010000
,
01000000
00001000
00010000
00000000
,
00000010
00001000
00000100
00000010
,
00000002
00000003
00002000
00003000
,
00000001
00000100
00000001
00000001
,
00001000
00000100
00001000
00001000
,
00000001
00000100
00001000
00010000
,
00100000
10000000
00010000
10010000
,
10000000
10000000
00100000
00100000
,
00010000
00100000
01000000
00010000
,
10000000
10000000
01000000
01000000
,
00010000
00001000
00000010
00000001
,
00001000
00001000
00000001
00000001
,
00001000
00000010
00000001
00000010
,
00001000
00001000
00000001
00000001
,
00001000
00000100
00010000
00001000
;

//---------------dance-double - ----------------
#NOTES:
     dance-double:
     :
     Medium:
     8:
     0.379683,0.431059,0.275270,0.503080,0.009492,280.000000,251.000000,29.000000,53.000000,0.000000,0.000000,0.379683,0.431059,0.275270,0.503080,0.009492,280.000000,251.000000,29.000000,53.000000,0.000000,0.000000:
// measure 0
00000000
00000000
00000000
00000000
,  // measure 1
00000000
00000000
00000000
00000000
,  // measure 2
00000000
00000000
00000000
00000000
,  // measure 3
00000000
00000000
00000000
00000000
,  // measure 4
00000000
00000000
00000000
00000000
,  // measure 5
00000000
00000000
00000000
00000000
,  // measure 6
00000000
00000000
00000000
00000000
,  // measure 7
00000000
00000000
00000000
00000000
,  // measure 8
00011000
00000000
00000000
00000000
,  // measure 9
00001100
00000000
00000010
00000000
,  // measure 10
00001001
00000000
00000000
00000000
,  // measure 11
00000000
00000000
00000000
00000000
,  // measure 12
00000102
00001000
00000100
00001003
,  // measure 13
00002100
00000001
00000100
00003001
,  // measure 14
00001200
00010300
00012000
00103000
,  // measure 15
01020000
10030000
21000000
30010000
,  // measure 16
20020000
00000000
00000000
30030000
,  // measure 17
10100000
00000000
00110000
00000000
10000000
00010000
10000000
00000000
,  // measure 18
00020000
00000000
00230000
00000000
00302000
00000000
00013000
00000100
,  // measure 19
00001100
00000000
00000101
00000000
00001000
00000001
00001000
00000000
,  // measure 20
00000002
00000000
00000023
00000000
00000130
00010000
00000100
00010000
,  // measure 21
00001000
00000000
00110000
00000000
00010000
10000000
00010000
00000000
,  // measure 22
20000000
00000000
00100000
00000000
00010000
00000000
31000000
10000000
,  // measure 23
00001000
00000000
00011000
00000000
00000100
00001000
00000001
00000000
,  // measure 24
00002000
00000000
00003020
00000000
00000130
00000001
00000100
00000001
,  // measure 25
00002000
00003200
00000302
00000203
,  // measure 26
00020300
00031000
00200000
00310000
,  // measure 27
10000000
00100000
10000000
00000000
00010000
00100000
00010000
00000000
,  // measure 28
10000000
00010000
10010000
10010000
,  // measure 29
00020000
00230000
20300000
30200000
,  // measure 30
00302000
00013000
00000200
00001300
,  // measure 31
00000001
00000100
00000001
00000000
00001000
00000100
00001000
00000000
,  // measure 32
00000001
00001000
00001001
00001001
,  // measure 33
00000002
00000100
00001003
00000001
,  // measure 34
00002000
00000100
00003001
00001000
,  // measure 35
00000001
00000010
00001000
00000000
00000020
00000000
00000130
00000000
,  // measure 36
00001000
00000010
00000001
00000000
00000020
00000000
00000130
00000000
,  // measure 37
00001001
00000002
00000203
00002300
,  // measure 38
00023000
02030000
23000000
30010000
,  // measure 39
10000000
00100000
10000000
00000000
00010000
00100000
00010000
00000000
,  // measure 40
10000000
00100000
01000000
00020000
00000000
10000000
10030000
00000000
,  // measure 41
10000000
00001000
00010000
00011000
,  // measure 42
00001000
00000010
00000001
00000200
00000000
00000000
00000310
00000000
,  // measure 43
00001000
00000100
00000001
00000100
,  // measure 44
00020000
00000000
00000000
00000000
00031000
00000000
00000000
00000000
00100000
00000000
00000000
00100000
00000000
00000000
00100000
00000000
,  // measure 45
00010000
00000000
01000000
00000000
10000000
01000000
10000000
00000000
,  // measure 46
00010000
00000000
00100000
00000000
10000000
00010000
10000000
00000000
,  // measure 47
00010000
00000000
00100000
00000000
00001000
00000000
00010000
00000100
,  // measure 48
00000000
00001000
00000000
00000001
00000000
00000200
00000000
00000300
,  // measure 49
00000001
00010000
00001000
00011000
,  // measure 50
00010000
01000000
10000000
00200000
00000000
00000000
01300000
00000000
,  // measure 51
00010000
00100000
10000000
00100000
,  // measure 52
00002000
00000000
00000000
00000000
00013000
00000000
00000000
00000000
00000100
00000000
00000000
00000100
00000000
00000000
00000100
00000000
,  // measure 53
00001000
00000000
00000010
00000000
00000001
00000010
00000001
00000000
,  // measure 54
00001000
00000000
00000100
00000000
00000001
00001000
00000001
00000000
,  // measure 55
00001000
00000000
00000100
00000000
00010000
00000000
00001000
00100000
,  // measure 56
00000000
00010000
00000000
10000000
00000000
00200000
00000000
00300000
,  // measure 57
11000000
00000000
01010000
00000000
10000000
00010000
10000000
00000000
,  // measure 58
00020000
00000000
02030000
00000000
03002000
00000000
00013000
00000010
,  // measure 59
00001010
00000000
00000011
00000000
00001000
00000001
00001000
00000000
,  // measure 60
00000002
00000000
00000203
00000000
00000310
00010000
00000010
00010000
,  // measure 61
00001000
00000000
01010000
00000000
00010000
10000000
00010000
00000000
,  // measure 62
20000000
00000000
01000000
00000000
00010000
00000000
30100000
10000000
,  // measure 63
00001000
00000000
00011000
00000000
00000010
00001000
00000001
00000000
,  // measure 64
00002000
00000000
00003200
00000000
00000310
00000001
00001000
00000001
;
