#VERSION:0.83;
#TITLE:きょうもハレバレ;
#SUBTITLE:;
#ARTIST:GUMI's;
#TITLETRANSLIT:Kyou mo harebare;
#SUBTITLETRANSLIT:;
#ARTISTTRANSLIT:;
#GENRE:VOCALO POP;
#ORIGIN:;
#CREDIT:;
#BANNER:Kyou mo harebare.png;
#BACKGROUND:Kyou mo harebare-bg.png;
#PREVIEWVID:;
#JACKET:Kyou mo harebare-jacket.png;
#CDIMAGE:;
#DISCIMAGE:;
#LYRICSPATH:;
#CDTITLE:;
#MUSIC:Kyou mo harebare.mp3;
#OFFSET:1.824970;
#SAMPLESTART:51.186626;
#SAMPLELENGTH:15.620000;
#SELECTABLE:YES;
#BPMS:0.000=134.000;
#STOPS:;
#DELAYS:;
#WARPS:;
#TIMESIGNATURES:0.000=4=4;
#TICKCOUNTS:0.000=4;
#COMBOS:0.000=1;
#SPEEDS:0.000=1.000=0.000=0;
#SCROLLS:0.000=1.000;
#FAKES:;
#LABELS:0.000=Song Start;
#BGCHANGES:2.000=Kyou mo harebare.mp4=1.000=0=0=1=====,
99999=-nosongbg-=1.000=0=0=0 // don't automatically add -songbackground-
;
#KEYSOUNDS:;
#ATTACKS:
;

//---------------dance-single - ----------------
#NOTEDATA:;
#CHARTNAME:;
#STEPSTYPE:dance-single;
#DESCRIPTION:;
#CHARTSTYLE:;
#DIFFICULTY:Hard;
#METER:12;
#RADARVALUES:0.572811,0.607701,0.369970,0.579954,0.444964,401.000000,364.000000,37.000000,58.000000,0.000000,0.000000,0.000000,0.000000,0.000000,0.572811,0.607701,0.369970,0.579954,0.444964,401.000000,364.000000,37.000000,58.000000,0.000000,0.000000,0.000000,0.000000,0.000000;
#CREDIT:;
#NOTES:
0000
0000
0000
0000
,
0000
0000
0000
0000
,
0000
0000
0000
0000
,
1000
0000
0100
1000
0000
0010
0000
0000
0100
0000
0001
0010
0000
0010
0001
0000
,
1000
0000
0010
0100
0000
0100
0010
0000
2020
0000
3030
0000
2002
0000
3003
0000
,
0001
0000
0010
0001
0000
0100
0000
0000
0010
0000
1000
0100
0000
0100
1000
0000
,
0001
0000
0100
0010
0000
0010
0100
0000
0202
0000
0303
0000
2002
0000
3003
0000
,
0001
0000
0010
0100
0000
1000
0000
0000
0001
0000
0100
0010
0000
0010
1000
0000
,
0100
0000
0010
0001
0000
0001
1000
0000
2200
0000
3300
0000
2002
0000
3003
0000
,
1000
0000
0010
0100
0000
0001
0000
0000
1000
0000
0100
0010
0000
0010
0001
0000
,
1000
0001
1000
0001
1000
0001
0100
0010
0200
0000
0000
0000
0301
0000
1000
0000
,
2100
0000
0000
0000
3001
0000
0000
0000
1000
0000
1000
0010
0000
0010
0100
0000
,
0002
1000
1003
0000
0001
0010
0100
1000
,
0001
0000
0001
1000
0001
0000
0001
0000
0001
0000
0000
0000
0210
0000
0300
0010
,
1000
0000
1000
0001
1000
0000
1000
0000
1000
0000
0000
0000
0001
0000
1000
0000
,
2010
0000
0000
0000
3001
0000
0000
0000
1000
0000
1000
0100
0000
0100
0010
0000
,
0002
1000
1003
0000
0001
0100
0010
1000
,
0001
0000
0001
1000
0001
0000
0001
0000
0010
0000
0010
0000
0100
0000
2000
0000
,
0000
0001
3002
0000
0103
0001
0100
1000
,
0200
0000
0010
0010
0301
0000
1001
0000
,
0002
0000
0013
0010
0200
0000
1300
0001
,
2000
0000
0010
0010
3100
0000
1001
0000
,
1000
0000
0000
0010
0000
0000
0001
0000
0020
0000
0000
0000
0130
0000
0001
1000
,
0002
0000
0010
1000
0103
0000
0101
0000
,
0001
0000
0000
0010
0000
0000
1000
0000
0020
0000
0000
0000
0130
0000
1000
0000
,
0001
0000
0000
0101
0000
0000
1000
0000
0000
1100
0000
0000
0001
0000
0000
0011
,
0000
0000
1000
0000
0000
1010
0000
0000
1000
0000
0010
0000
0001
0000
0010
0000
,
0200
0000
0000
0001
0000
0000
0010
0000
1300
0000
0100
0000
0001
0000
0010
0000
,
0100
0100
0100
2002
3003
1000
0010
0100
,
0010
0010
0010
2002
3003
0001
0010
0100
,
1000
0000
0000
0000
1100
0000
0000
1000
0010
0000
0100
0000
0001
0000
0000
0001
,
1000
0000
0100
0000
0001
0000
0000
0001
0200
0000
0000
0000
0310
0000
0000
0001
,
1000
2010
3001
0021
,
0031
0000
0100
0000
1000
0000
0000
0100
0010
0000
1000
0000
0001
0000
0000
0001
,
1000
0000
0000
0000
0101
0000
0000
0001
1000
0000
0100
0000
0001
0000
0000
0001
,
0100
0000
0010
0000
0001
0000
0000
0001
2000
0000
0000
0000
3010
0000
0000
0010
,
0100
0102
1003
1200
,
1300
0000
0010
0000
0001
0000
0000
0001
0010
0000
0100
0000
0001
0000
0001
0000
,
2000
0000
0000
0000
0100
0000
0100
0000
3001
0000
0000
0000
1001
0000
0000
0001
,
1000
0000
0010
0000
0001
0000
0000
1000
0200
0000
0000
0000
0310
0000
1000
0000
,
0002
0000
0000
0000
0010
0000
0010
0000
1003
0000
0000
0000
1001
0000
0000
0001
,
1000
0000
0010
0000
0001
0000
0000
1000
0200
0000
0000
0000
0310
0000
0000
1000
,
0001
0000
0000
0000
0101
0000
0000
0001
1000
0000
0010
0000
1001
0000
0000
1000
,
0100
0000
0010
0000
1001
0000
0000
0001
2000
0000
0000
0000
3010
0000
0000
0100
,
1000
1200
0301
1001
,
0001
0000
0010
0000
1000
0000
0000
1000
0100
0000
0001
0000
2000
0000
3100
0000
,
1000
0000
0010
1000
0000
0100
0000
0000
0010
0000
0001
0100
0000
0100
0001
0000
,
1000
0000
0100
0010
0000
0010
0100
0000
2200
0000
3300
0000
2002
0000
3003
0000
,
0001
0000
0100
0001
0000
0010
0000
0000
0100
0000
1000
0010
0000
0010
1000
0000
,
0001
0000
0010
0100
0000
0100
0010
0000
0022
0000
0033
0000
2002
0000
3003
0000
,
0001
0000
0100
0010
0000
1000
0000
0000
0001
0000
0010
0100
0000
0100
1000
0000
,
0010
0000
0100
0001
0000
0001
1000
0000
2020
0000
3030
0000
2002
0000
3003
0000
,
1000
0000
0100
0010
0000
0001
0000
0000
1000
0000
0010
0100
0000
0100
0001
0000
,
1000
0001
1000
0001
1000
0001
0010
0100
0020
0000
0000
0000
0000
0000
0000
0000
,
0000
0000
0000
0000
,
0000
0030
0000
0000
;

//---------------dance-single - ----------------
#NOTEDATA:;
#CHARTNAME:;
#STEPSTYPE:dance-single;
#DESCRIPTION:;
#CHARTSTYLE:;
#DIFFICULTY:Easy;
#METER:5;
#RADARVALUES:0.289977,0.303851,0.169986,0.189985,0.000000,203.000000,186.000000,17.000000,19.000000,0.000000,0.000000,0.000000,0.000000,0.000000,0.289977,0.303851,0.169986,0.189985,0.000000,203.000000,186.000000,17.000000,19.000000,0.000000,0.000000,0.000000,0.000000,0.000000;
#CREDIT:;
#NOTES:
0000
0000
0000
0000
,
0000
0000
0000
0000
,
0000
0000
0000
0000
,
1000
1000
0100
0100
,
0010
0001
1000
1001
,
0001
0001
0100
0100
,
0010
1000
0001
1001
,
1000
1000
0100
0100
,
0001
0100
1000
1001
,
1000
1000
0010
0010
,
0100
0001
2002
3003
,
0001
0010
0001
0010
,
0100
2000
3000
0001
,
1000
1000
1000
0110
,
0001
0001
0001
1001
,
1000
0100
1000
0100
,
0010
0002
0003
1000
,
0001
0001
0001
0001
,
0010
0020
0030
0100
,
2000
3000
0020
0030
,
0100
0001
1000
0000
,
0002
0003
0020
0030
,
0100
1000
0001
0000
,
2000
3000
0020
0030
,
0001
0010
1000
0000
,
0001
0001
0010
0010
,
0100
0100
1000
1000
,
0001
0001
0002
0103
,
0010
0010
0020
0130
,
0001
1000
0001
1001
,
1000
1000
0100
0100
,
0001
0100
1000
0001
,
1000
1000
0010
0010
,
0001
0010
1000
1001
,
0001
0001
0010
0010
,
1000
0001
0100
1001
,
1000
1000
0010
0010
,
0001
1000
0100
1001
,
0002
0003
0020
0030
,
0100
1000
0001
1001
,
2000
3000
0020
0030
,
0100
0001
1000
1001
,
0001
0001
0010
0010
,
1000
0001
0100
0010
,
0001
0001
0100
0100
,
1000
0001
0010
1001
,
0001
0001
0010
0010
,
0100
1000
0001
1001
,
1000
1000
0010
0010
,
0100
0001
1000
1001
,
0001
0001
0010
0010
,
1000
0010
0001
1001
,
0001
0001
0100
0100
,
0010
1000
2002
0000
,
0000
0000
0000
0000
,
0000
3003
0000
0000
;

//---------------dance-single - ----------------
#NOTEDATA:;
#CHARTNAME:;
#STEPSTYPE:dance-single;
#DESCRIPTION:;
#CHARTSTYLE:;
#DIFFICULTY:Medium;
#METER:8;
#RADARVALUES:0.445679,0.441965,0.279978,0.179986,0.024998,312.000000,284.000000,28.000000,18.000000,0.000000,0.000000,0.000000,0.000000,0.000000,0.445679,0.441965,0.279978,0.179986,0.024998,312.000000,284.000000,28.000000,18.000000,0.000000,0.000000,0.000000,0.000000,0.000000;
#CREDIT:;
#NOTES:
0000
0000
0000
0000
,
0000
0000
0000
0000
,
0000
0000
0000
0000
,
1000
0010
1000
0000
0001
0010
0001
0000
,
1000
0010
0100
0001
1001
0000
1001
0000
,
0001
0010
0001
0000
1000
0010
1000
0000
,
0001
0010
0100
1000
1001
0000
1001
0000
,
1000
0100
1000
0000
0001
0100
0001
0000
,
1000
0100
0010
0001
1001
0000
1001
0000
,
0001
0100
0001
0000
1000
0100
1000
0000
,
0001
0100
0010
1000
2002
0000
3003
0000
,
2000
0000
3100
0000
0001
0100
1000
0000
,
0010
0010
0010
0000
0100
0001
1000
0000
,
0001
0001
0001
0001
0001
0000
1100
0000
,
1000
1000
1000
1000
1000
0000
0101
0000
,
0002
0000
0013
0000
1000
0010
0001
0000
,
0100
0100
0100
0000
0010
1000
0001
0000
,
1000
1000
1000
1000
1000
1000
1000
1000
,
0000
0001
0002
0000
0010
0000
0103
0000
,
0001
0010
1000
0001
,
0100
0000
0010
0001
1000
0000
1001
0000
,
1000
0010
0001
1000
,
0100
0000
0010
1000
0001
0000
1001
0000
,
2000
0000
3100
0100
0020
0000
0031
0000
,
2000
0000
3010
0010
0200
0000
0301
0000
,
1000
0000
0000
1000
0000
0000
0001
0000
0000
0001
0000
0000
0010
0000
0000
0010
,
0000
0000
0100
0000
0000
0100
0000
0000
2000
0000
0000
0000
3001
0000
0000
0000
,
1000
0000
0000
0010
0000
0000
0100
0000
0002
0000
0000
0000
1003
0000
0000
0000
,
0100
0010
0100
0010
0000
0001
1000
0000
,
0010
0100
0010
0100
0000
0001
1000
0001
,
1000
0000
1100
0000
1000
0100
0001
0000
,
0100
0010
0100
0010
0001
0000
1000
0010
,
0100
1001
0010
1001
,
0001
0010
1000
0010
0002
0000
1003
0000
,
0001
0000
0011
0000
0001
0010
1000
0000
,
0010
0100
0010
0100
1000
0000
0001
0100
,
0010
1001
0100
1001
,
1000
0100
0001
0100
1000
0000
0001
0100
,
0020
0130
0002
1003
,
0001
0010
1000
0010
0100
0000
1001
0000
,
0200
0310
2000
3001
,
1000
0100
0001
0100
0010
0000
1001
0000
,
0002
0000
0103
0000
1000
0100
0010
0000
,
1000
0010
1000
0010
0100
0000
0001
0010
,
1000
1010
0010
0011
,
0001
0100
1000
0100
0001
1000
1001
0000
,
1000
0100
0010
0000
0001
0010
0100
0000
,
1000
0010
0001
0010
1010
0000
1001
0000
,
0001
0010
0100
0000
1000
0100
0010
0000
,
0001
0100
1000
0100
0101
0000
1001
0000
,
0001
0100
1000
0000
0100
0001
1000
0000
,
0001
0010
1000
0010
0110
0000
1001
0000
,
1000
0100
0001
0000
0100
1000
0001
0000
,
1000
0010
0001
0010
0200
0000
0000
0000
,
0000
0000
0000
0000
,
0000
0300
0000
0000
;

//---------------dance-single - ----------------
#NOTEDATA:;
#CHARTNAME:;
#STEPSTYPE:dance-single;
#DESCRIPTION:;
#CHARTSTYLE:;
#DIFFICULTY:Beginner;
#METER:2;
#RADARVALUES:0.168558,0.193360,0.019998,0.059995,0.000000,118.000000,116.000000,2.000000,6.000000,0.000000,0.000000,0.000000,0.000000,0.000000,0.168558,0.193360,0.019998,0.059995,0.000000,118.000000,116.000000,2.000000,6.000000,0.000000,0.000000,0.000000,0.000000,0.000000;
#CREDIT:;
#NOTES:
0000
0000
0000
0000
,
0000
0000
0000
0000
,
0000
0000
0000
0000
,
1000
0000
1000
0000
,
0010
0000
0010
0000
,
0100
0000
0100
0000
,
0001
0000
0001
0000
,
1000
0000
1000
0000
,
0100
0000
0100
0000
,
0010
0000
0010
0000
,
0001
0000
1001
0000
,
0001
0000
0001
0000
,
0100
0000
0100
0000
,
0010
0010
0010
0000
,
0100
0100
0100
0000
,
0001
0000
1000
0000
,
0010
0000
1000
0000
,
0100
0100
0100
0100
,
0000
0020
0000
0030
,
0001
0000
0010
0000
,
0100
0100
0100
0000
,
1000
0000
0001
0000
,
0010
0010
0010
0000
,
0001
0000
0100
0000
,
1000
1000
1000
0000
,
0100
0000
0010
0000
,
1000
1000
1000
1000
,
2000
0000
0000
3000
,
0010
0010
0010
0000
,
0100
0100
0100
0000
,
0001
0000
0010
0000
,
0100
0000
1000
0000
,
0001
0000
0100
0000
,
0010
0000
1000
0000
,
0001
0000
0010
0000
,
1000
0000
0010
0000
,
0001
0000
0100
0000
,
1000
0000
0100
0000
,
0002
0000
0000
0003
,
0010
0010
0010
0000
,
0200
0000
0000
0300
,
1000
1000
1000
0000
,
0001
0000
0100
0000
,
1000
0000
0100
0000
,
0001
0000
0010
0000
,
1000
0000
0010
0010
,
0001
0000
0100
0000
,
0010
0010
0010
0000
,
1000
0000
0100
0000
,
0001
0001
0001
0000
,
0100
0000
1000
0000
,
0010
0010
0010
0000
,
0100
0000
0001
0000
,
1000
1000
2002
0000
,
0000
0000
0000
0000
,
0000
3003
0000
0000
;

//---------------dance-double - ----------------
#NOTEDATA:;
#CHARTNAME:;
#STEPSTYPE:dance-double;
#DESCRIPTION:;
#CHARTSTYLE:;
#DIFFICULTY:Hard;
#METER:12;
#RADARVALUES:0.571383,0.662947,0.369970,0.469962,0.439965,400.000000,363.000000,37.000000,47.000000,0.000000,0.000000,0.000000,0.000000,0.000000,0.571383,0.662947,0.369970,0.469962,0.439965,400.000000,363.000000,37.000000,47.000000,0.000000,0.000000,0.000000,0.000000,0.000000;
#CREDIT:;
#NOTES:
00000000
00000000
00000000
00000000
,
00000000
00000000
00000000
00000000
,
00000000
00000000
00000000
00000000
,
00001000
00000000
00100000
00010000
00000000
00010000
00000000
00000000
10000000
00000000
00100000
01000000
00000000
01000000
00001000
00000000
,
00100000
00000000
00010000
01000000
00000000
01000000
00100000
00000000
10010000
00000000
00000000
00000000
10020000
00000000
00000000
00000000
,
10030000
00000000
01000000
00010000
00000000
00010000
00000000
00000000
00001000
00000000
00100000
00010000
00000000
00010000
01000000
00000000
,
00001000
00000000
00010000
00000100
00000000
00000100
00001000
00000000
00001001
00000000
00000000
00000000
00002001
00000000
00000000
00000000
,
00003001
00000000
00000100
00000010
00000000
00000010
00000000
00000000
00001000
00000000
00000100
00000001
00000000
00000001
00000100
00000000
,
00001000
00000000
00000010
00010000
00000000
00010000
00001000
00000000
00011000
00000000
00000000
00000000
00012000
00000000
00000000
00000000
,
00103000
00000000
00010000
10000000
00000000
10000000
00000000
00000000
00010000
00000000
01000000
00100000
00000000
00100000
10000000
00000000
,
00010000
00100000
00010000
10000000
00100000
10000000
00001000
00010000
00002000
00000000
00000000
00000000
00013000
00000000
00001000
00000000
,
00000020
00000000
00000000
00000000
00000032
00000000
00000000
00000000
00000103
00000000
00000010
00001000
00000000
00001000
00000001
00000000
,
00002000
00000100
00003100
00000000
00001000
00000100
00000001
00000100
,
00010000
00000000
00010000
00001000
00010000
00000000
00010000
00000000
00010000
00000000
00000000
00000000
00210000
00000000
00000000
10300000
,
00010000
00000000
00010000
10000000
00010000
00000000
00010000
00000000
00010000
00000000
00000000
00000000
10000000
00000000
01000000
00000000
,
02010000
00000000
00000000
00000000
23000000
00000000
00000000
00000000
30100000
00000000
01000000
00010000
00000000
00010000
10000000
00000000
,
02000000
00100000
03100000
00000000
00010000
01000000
10000000
01000000
,
00001000
00000000
00001000
00010000
00001000
00000000
00001000
00000000
00000010
00000000
00000010
00000000
00000001
00000000
00002000
00000000
,
00000000
00000100
00003200
00000000
00000310
00000001
00000100
00001000
,
00000002
00000000
00000013
00000010
00002000
00000000
00003002
00000000
,
00000203
00000000
00001300
00001000
00020000
00000000
00130000
01000000
,
00020000
00000000
00100000
00100000
20030000
00000000
30200000
00000000
,
00320000
00000000
00000000
00032000
00000000
00000000
00003200
00000000
00000320
00000000
00000000
00000000
00010030
00000000
00001000
00000000
,
00020000
00000000
00130000
00100000
02000000
00000000
03002000
00000000
,
00023000
00000000
00000000
00030200
00000000
00000000
00002300
00000000
00003020
00000000
00000000
00000000
00000130
00000000
00000001
00000000
,
00001000
00000000
00000000
00001100
00000000
00000000
00001000
00000000
00000000
00001010
00000000
00000000
00000010
00000000
00000000
00000110
,
00000000
00000000
00000100
00000000
00000000
00001100
00000000
00000000
00001000
00000000
00010000
00000000
00100000
00000000
01000000
00000000
,
00020000
00000000
00000000
00100000
00000000
00000000
10000000
00000000
10030000
00000000
00010000
00000000
00100000
00000000
01000000
00000000
,
11000000
11000000
11000000
12000000
00000000
03010000
00001000
00000100
,
00000101
00000101
00000101
00000201
00000000
00001300
00010000
00100000
,
01000000
00000000
00000000
00000000
10010000
00000000
00000000
10000000
00010000
00000000
01000000
00000000
10000000
00000000
00000000
10000000
,
01000000
00000000
00010000
00000000
00100000
00000000
00000000
00100000
00001000
00000000
00000000
00000000
00010000
00000000
00000000
00010000
,
00000010
00000102
00001003
00002100
,
00003001
00000000
00000100
00000000
00001000
00000000
00000000
00000001
00000010
00000000
00001000
00000000
00000001
00000000
00000000
00000001
,
00010000
00000000
00000000
00000000
00101000
00000000
00000000
00001000
01000000
00000000
10000000
00000000
00010000
00000000
00000000
00010000
,
00100000
00000000
01000000
00000000
00001000
00000000
00000000
00001000
00010000
00000000
00000000
00000000
00000010
00000000
00000000
00000010
,
00000100
00000012
00001003
00002010
,
00003001
00000000
00000010
00000000
00001000
00000000
00000000
00010000
01000000
00000000
10000000
00000000
00100000
00000000
01000000
00000000
,
00020000
00000000
00000000
00000000
00100000
00000000
00100000
00000000
01030000
00000000
00000000
00000000
00011000
00000000
00000000
00010000
,
00000010
00000000
00000100
00000000
00000001
00000000
00000000
00000001
00001000
00000000
00000000
00000000
00000100
00000000
00000100
00000000
,
00020000
00000000
00000000
00000000
00100000
00000000
00100000
00000000
00031000
00000000
00000000
00000000
00011000
00000000
00000000
00001000
,
01000000
00000000
00100000
00000000
10000000
00000000
00000000
10000000
00010000
00000000
00000000
00000000
10000000
00000000
00000000
01000000
,
00010000
00000000
00000000
00000000
01010000
00000000
00000000
00010000
01000000
00000000
00100000
00000000
00001000
00000000
00000000
00001000
,
00010000
00000000
00000010
00000000
00000100
00000000
00000000
00000100
00000001
00000000
00000000
00000000
00001000
00000000
00000000
00000100
,
00000001
00000201
00001300
00001200
,
00010300
00000000
00100000
00000000
10000000
00000000
00000000
10000000
00010000
00000000
01000000
00000000
10000000
00000000
01000000
00000000
,
00001000
00000000
00100000
00010000
00000000
00010000
00000000
00000000
10000000
00000000
00100000
01000000
00000000
01000000
00001000
00000000
,
00100000
00000000
00010000
01000000
00000000
01000000
00100000
00000000
10010000
00000000
00000000
00000000
10020000
00000000
00000000
00000000
,
10030000
00000000
01000000
00010000
00000000
00010000
00000000
00000000
00001000
00000000
00100000
00010000
00000000
00010000
01000000
00000000
,
00001000
00000000
00010000
00000100
00000000
00000100
00001000
00000000
00001001
00000000
00000000
00000000
00002001
00000000
00000000
00000000
,
00003001
00000000
00000100
00000010
00000000
00000010
00000000
00000000
00001000
00000000
00000100
00000001
00000000
00000001
00000100
00000000
,
00001000
00000000
00000010
00010000
00000000
00010000
00001000
00000000
00011000
00000000
00000000
00000000
00012000
00000000
00000000
00000000
,
00103000
00000000
00010000
10000000
00000000
10000000
00000000
00000000
00010000
00000000
01000000
00100000
00000000
00100000
10000000
00000000
,
00010000
00100000
00010000
10000000
00100000
10000000
00001000
00010000
00002000
00000000
00000000
00000000
00000000
00000000
00000000
00000000
,
00000000
00000000
00000000
00000000
,
00000000
00003000
00000000
00000000
;

//---------------dance-double - ----------------
#NOTEDATA:;
#CHARTNAME:;
#STEPSTYPE:dance-double;
#DESCRIPTION:;
#CHARTSTYLE:;
#DIFFICULTY:Medium;
#METER:8;
#RADARVALUES:0.447107,0.469587,0.249980,0.129990,0.024998,313.000000,288.000000,25.000000,13.000000,0.000000,0.000000,0.000000,0.000000,0.000000,0.447107,0.469587,0.249980,0.129990,0.024998,313.000000,288.000000,25.000000,13.000000,0.000000,0.000000,0.000000,0.000000,0.000000;
#CREDIT:;
#NOTES:
00000000
00000000
00000000
00000000
,
00000000
00000000
00000000
00000000
,
00000000
00000000
00000000
00000000
,
00001000
00100000
00001000
00000000
01000000
00010000
01000000
00000000
,
00100000
10000000
00010000
10000000
01000000
00000000
10010000
00000000
,
10000000
00100000
10000000
00000000
00001000
01000000
00001000
00000000
,
00100000
00001000
00010000
00001000
00000100
00000000
00001001
00000000
,
00000001
00000010
00001000
00000000
00001000
00000010
00000100
00000000
,
00000010
00000001
00000100
00001000
00000100
00000000
00011000
00000000
,
00100000
10000000
00010000
00000000
01000000
00010000
10000000
00000000
,
00010000
00100000
10000000
00100000
00002000
00000000
00013000
00010000
,
00000200
00001300
00000020
00000130
,
00000001
00001000
00000001
00000000
00010000
00001000
00010000
00001000
,
00100000
00100000
00100000
00100000
00100000
00000000
00011000
00000000
,
00000010
00000010
00000010
00000010
00000010
00000000
00011000
00000000
,
00000100
00000000
00000010
00000000
00000001
00000100
00001000
00000000
,
00001000
00000100
00000010
00000000
00010000
00001000
00010000
00000000
,
00100000
00100000
00100000
00100000
01000000
01000000
01000000
01000000
,
00000000
00010000
20000000
00000000
01000000
00000000
30010000
00000000
,
10000000
00100000
00010000
00001000
,
00000100
00000000
00000010
00001000
00000002
00000000
00001003
00000000
,
00000001
00000010
00001000
00010000
,
01000000
00000000
10000000
00100000
02000000
00000000
03010000
10000000
,
00010000
01010000
10000000
11000000
,
00010000
00110000
10000000
10100000
,
10000000
00000000
00000000
00100000
00000000
00000000
01000000
00000000
00000000
00010000
00000000
00000000
00100000
00000000
00000000
00001000
,
00000000
00000000
00010000
00000000
00000000
00000010
00000000
00000000
00000200
00000000
00000000
00000000
00000301
00000000
00000000
00000000
,
00001000
00000000
00000000
00001000
00000000
00000000
00001000
00000000
00000020
00000000
00000000
00000000
00000130
00000000
00000000
00000000
,
00000001
00000001
00000001
00000001
00000000
00001100
00001100
00000000
,
00100000
00100000
00100000
00100000
00000000
10010000
10010000
00000000
,
10000000
00000000
01010000
00000000
10000000
00010000
10000000
00000000
,
00010000
01000000
10000000
01000000
00001000
00000000
00010000
00000100
,
00001000
00001010
00000001
00000011
,
00001000
00000010
00000001
00000010
00000100
00000000
00000001
00010000
,
00001000
00000000
00110000
00000000
00010000
10000000
00010000
00000000
,
10000000
00100000
00010000
00100000
01000000
00000000
00001000
00010000
,
00001000
00000011
00000100
00001001
,
00000001
00000100
00001000
00010000
00001000
00000100
00000010
00010000
,
00002000
00103000
00020000
10030000
,
01000000
10000000
00100000
01000000
00010000
00000000
10000000
00010000
,
20000000
31000000
00020000
00031000
,
00010000
00100000
10000000
00010000
01000000
00000000
00100000
10000000
,
00010000
00000000
10010000
00000000
10000000
01000000
00010000
00000000
,
00010000
00001000
00000100
00000010
00001000
00000000
00000001
00001000
,
00000001
00000011
00001000
00001010
,
00000001
00000010
00001000
00000100
00000001
00001000
00000001
00000000
,
00001000
00000100
00000001
00000000
00000001
00000100
00000010
00000000
,
00000001
00000100
00001000
00010000
00001000
00000000
00011000
00000000
,
00010000
00100000
10000000
00000000
00010000
01000000
00100000
00000000
,
10000000
01000000
00010000
00001000
00010000
00000000
00011000
00000000
,
00001000
00000010
00000001
00000000
00000100
00000010
00001000
00000000
,
00000001
00000100
00001000
00010000
00100000
00000000
10010000
00000000
,
10000000
01000000
00010000
00000000
10000000
00100000
00010000
00000000
,
10000000
00100000
01000000
00001000
00020000
00000000
00000000
00000000
,
00000000
00000000
00000000
00000000
,
00000000
00030000
00000000
00000000
;

//---------------dance-double - ----------------
#NOTEDATA:;
#CHARTNAME:;
#STEPSTYPE:dance-double;
#DESCRIPTION:;
#CHARTSTYLE:;
#DIFFICULTY:Easy;
#METER:6;
#RADARVALUES:0.297119,0.303851,0.069994,0.069994,0.000000,208.000000,201.000000,7.000000,7.000000,0.000000,0.000000,0.000000,0.000000,0.000000,0.297119,0.303851,0.069994,0.069994,0.000000,208.000000,201.000000,7.000000,7.000000,0.000000,0.000000,0.000000,0.000000,0.000000;
#CREDIT:;
#NOTES:
00000000
00000000
00000000
00000000
,
00000000
00000000
00000000
00000000
,
00000000
00000000
00000000
00000000
,
00010000
00010000
00001000
00001000
,
00100000
00010000
01000000
00100000
,
10000000
10000000
00010000
00010000
,
10000000
01000000
00100000
00001000
,
00010000
00010000
00001000
00001000
,
00010000
00000100
00001000
00000010
,
00000100
00000100
00000010
00000010
,
00010000
00001000
00022000
00033000
,
00001000
00001000
00100000
00100000
,
00010000
10000000
01000000
10000000
,
00010000
00010000
00010000
01000000
,
00001000
00001000
00001000
00010000
,
00000100
00001000
00000010
00000100
,
00000001
00000010
00001000
00000010
,
00000001
00000001
00001000
00001000
,
00000100
00020000
00000000
00130000
,
10000000
10000000
10000000
01000000
,
00010000
00010000
00010000
01000000
,
10000000
10000000
10000000
00100000
,
00010000
00010000
00010000
00001000
,
00000100
00000100
00000100
00000010
,
00001000
00001000
00001000
00000001
,
00001000
00001000
00000100
00000100
,
00000010
00000010
00000001
00000001
,
00001000
00001000
00002000
00003100
,
00010000
00010000
00010000
00001000
,
00100000
00100000
00100000
00010000
,
10000000
10000000
00100000
00100000
,
00010000
00100000
01000000
00001000
,
00010000
00010000
00000100
00000100
,
00001000
00000010
00000200
00000301
,
00001000
00001000
00000001
00000001
,
00001000
00000100
00000001
00000100
,
00010000
00010000
00001000
00001000
,
00100000
00010000
10000000
10010000
,
10000000
10000000
00100000
00100000
,
00010000
00100000
01000000
00001000
,
00010000
00010000
00000100
00000100
,
00001000
00000010
00000001
00000010
,
00000100
00000100
00000001
00000001
,
00001000
00000100
00010000
00001000
,
00100000
00100000
00010000
00010000
,
01000000
00100000
10000000
10010000
,
10000000
10000000
01000000
01000000
,
00010000
00001000
00010000
01010000
,
10000000
10000000
00100000
00100000
,
00010000
00001000
00010000
10100000
,
10000000
10000000
00010000
00010000
,
00100000
00001000
00010000
00001001
,
00000001
00000001
00000100
00000100
,
00000010
00010000
00022000
00000000
,
00000000
00000000
00000000
00000000
,
00000000
00033000
00000000
00000000
;
