#VERSION:0.83;
#TITLE:純白;
#SUBTITLE:;
#ARTIST:島田奈美;
#TITLETRANSLIT:Junpaku;
#SUBTITLETRANSLIT:;
#ARTISTTRANSLIT:Nami Shimada;
#GENRE:PURITY;
#ORIGIN:;
#CREDIT:;
#BANNER:Junpaku.png;
#BACKGROUND:Junpaku-bg.png;
#PREVIEWVID:;
#JACKET:Junpaku-jacket.png;
#CDIMAGE:;
#DISCIMAGE:;
#LYRICSPATH:;
#CDTITLE:;
#MUSIC:Junpaku.mp3;
#OFFSET:-0.262906;
#SAMPLESTART:70.434616;
#SAMPLELENGTH:14.820000;
#SELECTABLE:YES;
#BPMS:0.000=147.000;
#STOPS:;
#DELAYS:;
#WARPS:;
#TIMESIGNATURES:0.000=4=4;
#TICKCOUNTS:0.000=4;
#COMBOS:0.000=1;
#SPEEDS:0.000=1.000=0.000=0;
#SCROLLS:0.000=1.000;
#FAKES:;
#LABELS:0.000=Song Start;
#BGCHANGES:;
#KEYSOUNDS:;
#ATTACKS:
;

//---------------dance-single - ----------------
#NOTEDATA:;
#CHARTNAME:;
#STEPSTYPE:dance-single;
#DESCRIPTION:;
#CHARTSTYLE:;
#DIFFICULTY:Hard;
#METER:11;
#RADARVALUES:0.463371,0.538576,0.355582,0.563727,0.004336,374.000000,333.000000,41.000000,65.000000,0.000000,0.000000,0.000000,0.000000,0.000000,0.463371,0.538576,0.355582,0.563727,0.004336,374.000000,333.000000,41.000000,65.000000,0.000000,0.000000,0.000000,0.000000,0.000000;
#CREDIT:;
#NOTES:
0000
0000
0000
0000
,
0000
0000
0000
0000
,
2000
0000
3100
0100
0002
0000
0103
0100
,
2000
0000
0001
3001
0000
1000
0010
0100
,
0002
0000
0013
0010
2000
0000
3010
0010
,
0002
0000
1000
1003
0000
0001
0100
0010
,
2000
0000
3100
0100
0002
0000
1003
1000
,
0020
0000
0001
0031
0000
1000
0010
0100
,
0101
0000
1100
0000
2002
0000
3003
0110
,
0000
0010
1000
0100
0001
0100
1000
0001
,
1000
0000
0010
1000
0001
0000
0010
0001
,
2000
0000
0100
0100
0000
3010
1001
0000
,
0001
0000
0100
0001
1000
0000
0100
1000
,
0002
0000
0010
0010
0000
0103
1001
0000
,
0001
0000
0010
1000
0000
0010
0001
0100
,
0010
1001
0100
1001
,
0010
2002
0000
3003
,
0012
0000
0010
0010
0000
0100
0103
0000
,
2001
0010
0100
3001
,
1000
0000
0010
0100
0000
0000
0101
0000
,
0001
0010
0001
0010
1000
0010
1000
0010
,
0100
0000
1000
0001
0000
0000
1001
0000
,
0001
2000
3020
0032
,
1003
0000
0100
0010
0000
0000
1001
0000
,
0001
0010
0001
0010
1000
0010
0001
0100
,
0010
0101
0010
1100
,
0010
2001
0010
3100
,
1000
0000
0010
0100
0000
0100
0001
0000
,
1000
0100
1000
0100
0001
0100
0001
0100
,
0010
0000
0001
1000
0000
1000
0100
0000
,
1000
0002
0203
2300
,
3001
0000
0010
0100
0001
0001
1000
0000
,
0002
0000
0023
0000
0230
0000
1300
1000
,
0001
0000
0100
1000
0100
0010
1000
1002
,
0000
0013
0100
1100
1000
0010
0110
0100
,
0002
0000
0000
0000
0003
1000
0100
2000
,
0000
0000
0000
0000
3000
0000
0000
0000
0010
0000
0000
0100
0000
0000
0001
0000
,
0020
0000
0000
0000
0030
0100
1000
0002
,
0000
0000
0000
0003
0000
0100
0010
2000
,
0000
0001
0001
3002
0000
0003
0000
0010
,
0020
0000
0230
0000
2300
0000
3001
0001
,
0200
0000
0310
0000
1000
0001
1000
1002
,
0000
0013
1000
0001
0100
1000
0000
0000
,
2001
0000
3010
0001
1000
0000
0100
0010
,
2000
0000
0100
0100
0000
3001
1001
0000
,
0002
0000
0103
1000
0001
0000
0010
0100
,
0002
0000
0010
0010
0000
1003
1001
0000
,
0001
0000
0100
1000
0000
0100
0010
1000
,
0001
1100
0010
0101
,
0010
2002
0000
3003
,
0002
0000
0010
0103
0000
0001
0010
1200
,
0000
0301
1000
0010
0001
1000
0010
0100
,
0001
0000
0011
0001
1000
0000
1010
1000
,
0001
0000
0101
0001
0000
1000
1001
0000
,
1000
0000
1100
1000
0001
0000
0101
0001
,
1000
0000
1010
1000
0000
0001
1001
0000
,
1000
0000
0100
0001
0000
1000
0010
0001
,
0100
1010
0100
0011
,
0100
2002
0000
3003
,
0002
0000
0013
0010
2000
0000
3010
0010
,
0002
0000
1000
1003
0000
0001
0100
0010
,
2000
0000
3100
0100
0002
0000
0103
0100
,
2000
0000
0001
3001
0000
1000
0010
0100
,
0002
0000
0013
0010
2000
0000
3001
0001
,
0200
0000
1000
1300
0000
0001
0100
0010
,
2020
0000
0030
0200
0000
0300
0002
3003
,
2002
0000
0000
0000
0000
0000
0000
3000
,
0200
0000
0000
0000
,
0000
0000
0000
0000
,
0303
0000
0000
0000
;

//---------------dance-single - ----------------
#NOTEDATA:;
#CHARTNAME:;
#STEPSTYPE:dance-single;
#DESCRIPTION:;
#CHARTSTYLE:;
#DIFFICULTY:Easy;
#METER:5;
#RADARVALUES:0.245314,0.299209,0.043364,0.234164,0.000000,198.000000,193.000000,5.000000,27.000000,0.000000,0.000000,0.000000,0.000000,0.000000,0.245314,0.299209,0.043364,0.234164,0.000000,198.000000,193.000000,5.000000,27.000000,0.000000,0.000000,0.000000,0.000000,0.000000;
#CREDIT:;
#NOTES:
0000
0000
0000
0000
,
0000
0000
0000
0000
,
1000
0010
0100
0001
,
0100
0010
2000
3000
,
0001
0010
0100
1000
,
0100
0010
0002
0003
,
1000
0100
0001
0100
,
1000
0010
0001
0010
,
0100
0100
0020
0030
,
1000
0001
1000
0001
,
1000
0100
0010
0001
,
1000
0001
2000
3000
,
0001
0100
0010
1000
,
0001
1000
0002
0003
,
1000
0100
0001
0100
,
0010
0000
0100
0000
,
1000
2002
0000
3003
,
1000
0010
0001
0100
,
2000
0000
0000
3000
,
0001
0000
1000
0000
,
0010
0100
0010
0100
,
0001
0000
1000
0000
,
0100
0010
0100
0010
,
0001
0000
0100
0000
,
1000
0100
1000
0100
,
0010
0000
1000
0000
,
0001
0010
0100
1000
,
0001
0000
0100
0000
,
1000
0100
0010
1000
,
0001
0000
0010
0000
,
1000
0010
0100
1000
,
0001
0000
0100
0000
,
0010
1000
0001
0010
,
0100
0100
0010
0010
,
0001
0100
0010
1000
,
0002
0000
0000
0003
,
0020
0000
0000
0030
,
0200
0000
0000
0300
,
2000
0000
0000
3000
,
0002
0000
0000
0003
,
0200
0000
0000
0300
,
0020
0000
0000
0030
,
1000
0001
1001
0000
,
1000
0100
0001
0100
,
0010
0001
2000
3000
,
0001
0100
1000
0100
,
0010
1000
0002
0003
,
1000
0100
0001
0010
,
1000
0000
0010
0000
,
0100
0000
0001
1000
,
2002
0000
0000
3003
,
0001
0010
0100
1001
,
1000
0010
0001
1000
,
0100
0010
2000
3000
,
0001
0010
1000
0001
,
0100
0010
0002
0003
,
1000
0100
0001
0010
,
1000
0000
0001
0000
,
0010
2002
0000
3003
,
1000
0100
0010
0001
,
0010
0100
2000
3000
,
0001
0100
0010
1000
,
0010
0100
0002
0003
,
1000
0100
0001
0100
,
1000
0010
0001
0010
,
0100
0000
0000
0010
0000
0000
1000
0000
,
0002
0000
0000
0003
,
0020
0000
0000
0000
,
0000
0000
0000
0000
,
0030
0000
0000
0000
;

//---------------dance-single - ----------------
#NOTEDATA:;
#CHARTNAME:;
#STEPSTYPE:dance-single;
#DESCRIPTION:;
#CHARTSTYLE:;
#DIFFICULTY:Medium;
#METER:7;
#RADARVALUES:0.382839,0.478734,0.216818,0.303545,0.000000,309.000000,284.000000,25.000000,35.000000,0.000000,0.000000,0.000000,0.000000,0.000000,0.382839,0.478734,0.216818,0.303545,0.000000,309.000000,284.000000,25.000000,35.000000,0.000000,0.000000,0.000000,0.000000,0.000000;
#CREDIT:;
#NOTES:
0000
0000
0000
0000
,
0000
0000
0000
0000
,
2000
3010
0200
0301
,
1000
0000
0100
0001
0000
0001
0100
0000
,
2000
3100
0020
0031
,
1000
0000
0010
0001
0000
0001
0010
0000
,
2000
3010
0002
0013
,
0100
0000
0001
1000
0000
1000
0001
0000
,
0011
0000
0110
0000
1100
0000
0000
1001
,
0000
1000
0010
0100
0001
0100
0010
1000
,
0002
0013
2000
3010
,
0001
0000
0100
0010
0000
1000
0001
0000
,
2000
3100
0002
0103
,
1000
0000
0100
0010
0000
0001
1000
0000
,
0001
0000
0100
0010
0000
0010
0100
0000
,
0001
0101
1000
1100
,
0001
2002
0000
3003
,
1000
0000
0010
0100
0000
0100
0010
0000
,
2001
0010
0100
3001
,
1000
0000
0000
1000
0000
0000
0101
0000
,
0001
0000
0000
0001
0000
0000
1100
0000
,
1000
0000
0000
1000
0000
0000
1010
0000
,
0001
0000
0000
0001
0000
0000
0011
0000
,
0010
0000
0000
0010
0000
0000
1001
0000
,
0100
0000
0000
0100
0000
0000
1001
0000
,
0000
0101
0000
1100
,
1000
2002
0000
3003
,
1000
0000
0010
0100
0000
0100
0010
0000
,
1000
0100
0001
0100
,
1000
0000
0001
0100
0000
0100
0001
0000
,
1000
0001
0010
1000
,
0020
0000
0130
0000
1000
0001
1000
0000
,
0001
0000
0100
0000
1000
0000
0100
0010
,
0000
0010
1000
0000
0001
0000
1000
0100
,
0000
0100
0010
0001
0000
0001
1000
0000
,
0002
0100
1003
0001
,
1000
0100
0001
0100
,
2000
0100
3001
1000
,
0001
0000
0100
0000
1000
0000
0100
0010
,
0200
0010
0310
0100
,
0002
0000
1000
0000
1003
0000
0001
0010
,
0000
0000
0100
0000
1000
0000
0001
1000
,
0000
0001
0100
0001
0100
0010
0000
0000
,
2000
3100
0002
0103
,
1000
0000
0010
0100
0000
0001
1000
0000
,
0002
0013
2000
3010
,
0001
0000
0010
0100
0000
1000
0001
0000
,
1000
0000
0010
0100
0000
0100
0010
0000
,
1000
1010
0001
0011
,
1000
2002
0000
3003
,
0001
0000
0100
0010
0000
0010
0100
0001
,
0000
1000
0100
0010
0001
0010
0100
1000
,
0001
0000
0100
0010
0100
0000
0001
1000
,
0001
0000
1000
0100
0000
0010
0001
0000
,
1000
0000
0010
0100
0010
0000
1000
0001
,
1000
0000
0001
0010
0000
0100
1000
0000
,
0001
0000
0100
1000
0000
0100
0010
0100
,
0010
1001
0100
1001
,
0010
2002
0000
3003
,
1000
0000
0010
0010
0100
0000
0001
0001
,
1000
0000
0100
0200
0000
0300
0011
0000
,
0001
0000
0100
0100
0010
0000
1000
1000
,
0100
0000
0010
0020
0000
0030
0101
0000
,
0001
0000
0010
1000
0001
0000
0100
1000
,
0001
0000
0100
0100
0000
0010
1000
0001
,
2000
0000
0000
3020
0000
0000
0230
0000
,
0302
0000
0000
0000
,
2000
0000
0000
0000
,
0000
0000
0000
0000
,
3003
0000
0000
0000
;

//---------------dance-double - ----------------
#NOTEDATA:;
#CHARTNAME:;
#STEPSTYPE:dance-double;
#DESCRIPTION:;
#CHARTSTYLE:;
#DIFFICULTY:Easy;
#METER:5;
#RADARVALUES:0.271332,0.299209,0.043364,0.199473,0.000000,219.000000,214.000000,5.000000,23.000000,0.000000,0.000000,0.000000,0.000000,0.000000,0.271332,0.299209,0.043364,0.199473,0.000000,219.000000,214.000000,5.000000,23.000000,0.000000,0.000000,0.000000,0.000000,0.000000;
#CREDIT:;
#NOTES:
00000000
00000000
00000000
00000000
,
00000000
00000000
00000000
00000000
,
00001000
00100000
00001000
00100000
,
00010000
01000000
00100000
00000000
,
10000000
01000000
10000000
01000000
,
00100000
00001000
00010000
00000000
,
00000100
00001000
00000100
00001000
,
00000001
00000010
00000100
00001000
,
00000001
00000001
00000001
00000000
,
00000100
00000010
00001000
00000001
,
00001000
00000010
00001000
00000010
,
00000001
00000010
00001000
00000000
,
00000100
00010000
00001000
00010000
,
00100000
01000000
00010000
00000000
,
10000000
01000000
00010000
01000000
,
10000000
00000000
00010000
00000000
,
00100000
00000000
00001000
00010000
,
00022000
00000000
00000000
00033000
,
00000000
00001000
00100000
00010000
,
01000000
00100000
10000000
00000000
,
01000000
00100000
01000000
00100000
,
00001000
00010000
00000100
00000000
,
00001000
00000010
00001000
00000010
,
00000100
00000001
00001000
00000000
,
00000001
00000010
00001000
00000010
,
00000001
00000000
00001000
00000000
,
00000001
00002002
00000000
00003003
,
00000001
00000100
00000001
00000100
,
00001000
00010000
00001000
00000100
,
00000010
00001000
00000010
00001000
,
00000100
00010000
00001000
00100000
,
00010000
00010000
01000000
01000000
,
10000000
01000000
00100000
10000000
,
00010000
00010000
00100000
00100000
,
00001000
00010000
00000100
00001000
,
00000020
00000030
00000200
00000300
,
00000002
00000003
00002000
00003100
,
00020000
00030000
00002000
00003000
,
00200000
00300000
00020000
01030000
,
00200000
00300000
02000000
03000000
,
00002000
00013000
00020000
00031000
,
00000010
00000001
00000100
00000010
,
00001000
00000001
00001001
00000000
,
00000001
00000010
00000100
00010000
,
00001000
00100000
00010000
00000000
,
10000000
00100000
01000000
00001000
,
00010000
00000100
00001000
00000000
,
00000001
00000100
00001000
00000100
,
00000001
00000000
00000010
00000000
,
00000100
00000000
00010000
00001000
,
00020000
00030000
00002000
00003000
,
00100000
00010000
01000000
00100000
,
10000000
01000000
00010000
00001000
,
00000100
00000001
00001000
00000000
,
00000001
00000010
00001000
00010000
,
00100000
10000000
00010000
00000000
,
10000000
00100000
00010000
00100000
,
10000000
00000000
00010000
00000000
,
10000000
20020000
00000000
30030000
,
10000000
00100000
00010000
00001000
,
00010000
00100000
10000000
00000000
,
01000000
00010000
00001000
00000100
,
00001000
00010000
01000000
00000000
,
10000000
00100000
00010000
00001000
,
00000100
00000010
00001000
00000001
,
00000010
00000000
00000100
00000100
,
00002000
00000000
00000000
00003000
,
00000202
00000000
00000000
00000000
,
00000000
00000000
00000000
00000000
,
00000303
00000000
00000000
00000000
;

//---------------dance-single - ----------------
#NOTEDATA:;
#CHARTNAME:;
#STEPSTYPE:dance-single;
#DESCRIPTION:;
#CHARTSTYLE:;
#DIFFICULTY:Beginner;
#METER:2;
#RADARVALUES:0.162304,0.209446,0.043364,0.026018,0.000000,131.000000,126.000000,5.000000,3.000000,0.000000,0.000000,0.000000,0.000000,0.000000,0.162304,0.209446,0.043364,0.026018,0.000000,131.000000,126.000000,5.000000,3.000000,0.000000,0.000000,0.000000,0.000000,0.000000;
#CREDIT:;
#NOTES:
0000
0000
0000
0000
,
0000
0000
0000
0000
,
1000
0000
1000
0000
,
1000
0000
0000
0000
,
0010
0000
0010
0000
,
0010
0000
0000
0000
,
0100
0000
0100
0000
,
0100
0000
0100
0000
,
0001
0000
0001
0000
,
0001
0001
0001
0001
,
0001
0000
0001
0000
,
0001
0000
0000
0000
,
0010
0000
0010
0000
,
0010
0000
0000
0000
,
0100
0000
0100
0000
,
1000
0000
1000
0000
,
0001
0000
0001
0000
,
1001
0000
0000
0000
,
1001
0000
0000
0000
,
1000
0000
0000
0000
,
0010
0000
0010
0000
,
0010
0000
0000
0000
,
0100
0000
0100
0000
,
0100
0000
0000
0000
,
0001
0000
0001
0000
,
0001
0000
1000
0000
,
1001
0000
0000
0000
,
0001
0001
0001
0000
,
0010
0000
0100
0000
,
1000
1000
1000
0000
,
0010
0000
0100
0000
,
0001
0000
0001
0000
,
1000
0000
1000
0000
,
0010
0000
0010
0000
,
0100
0100
0100
0100
,
0100
0000
0000
0000
,
0010
0000
0000
0000
,
1000
0000
0000
0000
,
0001
0000
0000
0000
,
0010
0000
0000
0000
,
0100
0000
0000
0000
,
1000
0000
0000
0000
,
0001
0001
0001
0000
,
0010
0000
0010
0000
,
0100
0000
0100
0000
,
1000
0000
1000
0000
,
0001
0000
0001
0000
,
0100
0000
0100
0000
,
0010
0000
0010
0000
,
0100
0000
0001
0001
,
0002
0000
0000
0003
,
0010
0010
0010
0010
,
0010
0000
0100
0000
,
1000
0000
0001
0000
,
0100
0000
0010
0000
,
1000
0000
0001
0000
,
1000
0000
0100
0000
,
0010
0000
0001
0000
,
1000
0000
0010
0010
,
0010
0000
0100
0000
,
0001
0001
0001
0000
,
0010
0000
0100
0000
,
1000
1000
1000
0000
,
0001
0000
0100
0000
,
0010
0010
0010
0000
,
1000
0000
0001
0000
,
1001
0000
0000
0000
,
0220
0000
0000
0000
,
0000
0000
0000
0000
,
0330
0000
0000
0000
;

//---------------dance-double - ----------------
#NOTEDATA:;
#CHARTNAME:;
#STEPSTYPE:dance-double;
#DESCRIPTION:;
#CHARTSTYLE:;
#DIFFICULTY:Medium;
#METER:7;
#RADARVALUES:0.360538,0.418893,0.173455,0.503018,0.000000,291.000000,271.000000,20.000000,58.000000,0.000000,0.000000,0.000000,0.000000,0.000000,0.360538,0.418893,0.173455,0.503018,0.000000,291.000000,271.000000,20.000000,58.000000,0.000000,0.000000,0.000000,0.000000,0.000000;
#CREDIT:;
#NOTES:
00000000
00000000
00000000
00000000
,
00000000
00000000
00000000
00000000
,
00002000
00103000
00002000
00013000
,
00001000
00000000
00100000
00010000
00000000
00010000
10000000
00000000
,
00020000
01030000
00020000
00130000
,
00010000
00000000
00100000
00001000
00000000
00001000
00010000
00000000
,
00000200
00001300
00000020
00001030
,
00000100
00000000
00010000
00001000
00000000
00100000
00010000
00000000
,
10000000
00000000
00010000
00000000
10010000
00000000
00000000
10010000
,
00000000
10000000
01000000
00100000
00001000
00010000
00000100
00001000
,
00000020
00000130
00000002
00001003
,
00000001
00000000
00000010
00001000
00000000
00000010
00000001
00000000
,
00000200
00000310
00002000
00003100
,
00010000
00000000
00001000
00100000
00000000
00010000
01000000
00000000
,
00200000
00000000
01300000
00000000
00020000
00000000
10030000
10000000
,
01000000
00110000
00000000
00011000
,
00000000
00000220
00000000
00000330
,
00000001
00000000
00000010
00000100
00000000
00000100
00001000
00000000
,
00002002
00000000
00000000
00003003
,
00000001
00000000
00000100
00001000
00000000
00001000
00000100
00000000
,
00000010
00001000
00000100
00010000
,
00001000
00000000
00100000
00010000
00000000
00010000
01000000
00000000
,
10000000
01000000
00100000
10000000
,
00010000
00000000
00100000
10000000
00000000
10000000
00100000
00000000
,
00010000
01000000
00001000
00010000
,
00000100
00001100
00000000
00000101
,
00000000
00002002
00000000
00003003
,
00000001
00000000
00000010
00001000
00000000
00001000
00010000
00000000
,
01000000
10000000
00010000
00100000
,
00010000
00000000
01000000
10000000
00000000
10000000
01000000
00000000
,
00010000
00100000
00001000
00010000
,
00000200
00000000
00000310
00000000
00000001
00001000
00000001
00000000
,
00001000
00000000
00000010
00000000
00000001
00000000
00000010
00001000
,
00000000
00001000
00000100
00000000
00010000
00000000
00001000
00100000
,
00000000
00100000
00010000
00000000
10000000
00010000
10000000
00010000
,
20000000
30000000
00200000
00300000
,
02000000
03000000
00010000
00100000
,
00002000
00003000
00020000
00030000
,
00000200
00000300
00001000
00000010
,
00000200
00000300
00000020
00000030
,
00001000
00000100
00000001
00000100
,
00002000
00000000
00003000
00000000
00000002
00000000
00000100
00000103
,
00000000
00000001
00000010
00001000
00000010
00000001
00000000
00000000
,
00002000
00003010
00000002
00000013
,
00001000
00000000
00000100
00010000
00000000
00010000
00001000
00000000
,
00200000
00310000
02000000
03020000
,
00130000
00000000
01000000
10000000
00000000
10000000
00010000
00000000
,
20000000
00000000
30100000
00000000
00020000
00000000
00130000
10000000
,
00010000
10010000
00000000
00011000
,
00000000
00002002
00000000
00003003
,
00000001
00000000
00000010
00000100
00000000
00000100
00001000
00000020
,
00000000
00001030
00000010
00010000
00001000
00100000
00010000
10000000
,
00020000
01030000
20000000
31000000
,
00010000
00000000
00100000
00001000
00000000
00001000
00010000
00000000
,
00000200
00001300
00000020
00002030
,
00003100
00000000
00000010
00000001
00000000
00000001
00001000
00000000
,
00000002
00000000
00000103
00000000
00002000
00000000
00003100
00000001
,
00001000
00001001
00000000
00011000
,
00000000
20020000
00000000
30030000
,
20000000
00000000
31000000
01000000
00200000
00000000
00310000
00010000
,
10000000
00000000
00100000
01000000
00000000
01000000
00001000
00000000
,
00020000
00000000
00030100
00000100
00002000
00000000
00003010
00000010
,
00000100
00000000
00000001
00001000
00000000
00001000
00000100
00000000
,
00020000
00000000
00031000
00001000
00200000
00000000
00310000
00010000
,
01000000
00000000
00100000
10000000
00000000
10000000
00010000
00000000
,
10010000
00000000
00000000
01010000
00000000
00000000
00101000
00000000
,
00022000
00000000
00000000
00033000
,
00002002
00000000
00000000
00000000
,
00000000
00000000
00000000
00000000
,
00003003
00000000
00000000
00000000
;

//---------------dance-double - ----------------
#NOTEDATA:;
#CHARTNAME:;
#STEPSTYPE:dance-double;
#DESCRIPTION:;
#CHARTSTYLE:;
#DIFFICULTY:Hard;
#METER:11;
#RADARVALUES:0.449743,0.448814,0.234164,0.485673,0.004336,363.000000,336.000000,27.000000,56.000000,0.000000,0.000000,0.000000,0.000000,0.000000,0.449743,0.448814,0.234164,0.485673,0.004336,363.000000,336.000000,27.000000,56.000000,0.000000,0.000000,0.000000,0.000000,0.000000;
#CREDIT:;
#NOTES:
// measure 0
00000000
00000000
00000000
00000000
,  // measure 1
00000000
00000000
00000000
00000000
,  // measure 2
00002000
00000000
00103000
00100000
00020000
00000000
01030000
01000000
,  // measure 3
00100000
00000000
10000000
01000000
00000000
01000000
00010000
00000000
,  // measure 4
02000000
00000000
03100000
00100000
00002000
00000000
00013000
00010000
,  // measure 5
00000100
00000000
00001000
00000010
00000000
00000010
00000100
00000000
,  // measure 6
00000002
00000000
00000013
00000010
00002000
00000000
00003010
00000010
,  // measure 7
00000001
00000000
00000100
00001000
00000000
00000100
00000010
00010000
,  // measure 8
00001000
00000000
00011000
00000000
00220000
00000000
00330000
10010000
,  // measure 9
00000000
00010000
01000000
10000000
00010000
00100000
01000000
00001000
,  // measure 10
00020000
00000000
00030100
00000100
00002000
00000000
00003010
00000010
,  // measure 11
00000100
00000000
00000001
00001000
00000000
00001000
00000100
00000000
,  // measure 12
00000020
00000000
00000031
00000001
00000200
00000000
00001300
00001000
,  // measure 13
00000100
00000000
00000010
00010000
00000000
00010000
00001000
00000000
,  // measure 14
00100000
00000000
00010000
01000000
00000000
00010000
10000000
00010000
,  // measure 15
10000000
11000000
00010000
01010000
,  // measure 16
10000000
20020000
00000000
30030000
,  // measure 17
10000000
00000000
00100000
00010000
00000000
00010000
00001000
00000000
,  // measure 18
00000202
00000000
00000000
00000303
,  // measure 19
00000001
00000000
00000010
00000100
00000000
00000100
00000010
00000000
,  // measure 20
00000001
00000100
00000010
00001000
00001000
00000010
00000100
00000001
,  // measure 21
00001000
00000000
00000100
00010000
00000000
00010000
00001000
00000000
,  // measure 22
00100000
00020000
02030000
23000000
,  // measure 23
31000000
00000000
00100000
10000000
00000000
10000000
00010000
00000000
,  // measure 24
00100000
00001000
00100000
00001000
00010000
00000100
00001000
00000010
,  // measure 25
00000100
00001001
00000010
00001001
,  // measure 26
00000100
00022000
00000000
00033000
,  // measure 27
00001000
00000000
00100000
00010000
00000000
00010000
01000000
00000000
,  // measure 28
00100000
10000000
00010000
01000000
00001000
01000000
00100000
10000000
,  // measure 29
00010000
00000000
10000000
01000000
00000000
01000000
00010000
00000000
,  // measure 30
01000000
00200000
00302000
00023000
,  // measure 31
00030100
00000000
00001000
00000010
00000100
00000100
00000001
00000000
,  // measure 32
00000101
00000000
00001100
00000000
00001002
00000000
00000010
00000013
,  // measure 33
00000000
00000001
00000100
00000000
00000010
00001000
00000100
00001100
,  // measure 34
00000000
00000100
00010000
00001000
00100000
00010000
01000000
00001000
,  // measure 35
00020000
00000000
00001000
00000000
00030100
00010000
00001000
00100000
,  // measure 36
00010000
00000000
00000000
00000000
10010000
00000000
00000000
00000000
00010000
00000000
00000000
01000000
00000000
00000000
00100000
00000000
,  // measure 37
20000000
00000000
01000000
00000000
30010000
10000000
01000000
00010000
,  // measure 38
02000000
00000000
00100000
00000000
03010000
01000000
00100000
00010000
,  // measure 39
00002000
00000000
01003000
00000000
00200000
00000000
10300000
10000000
,  // measure 40
00020000
00000000
00130000
00000000
00002000
00000000
00013000
00010000
,  // measure 41
00000200
00000000
00000310
00000000
00000001
00001000
00000001
00001001
,  // measure 42
00000000
00000001
00000100
00001000
00010000
01000000
00000000
00000000
,  // measure 43
20000000
00000000
30100000
00100000
02000000
00000000
03001000
00001000
,  // measure 44
00010000
00000000
00000100
00001000
00000000
00001000
00000001
00000000
,  // measure 45
00002000
00000000
00003010
00000010
00020000
00000000
00031000
00001000
,  // measure 46
00100000
00000000
00010000
01000000
00000000
01000000
10000000
00000000
,  // measure 47
02000000
00000000
00100000
03100000
00000000
10000000
00010000
10000000
,  // measure 48
00010000
10010000
00001000
00011000
,  // measure 49
00000001
00002002
00000000
00003003
,  // measure 50
00000001
00000000
00000010
00001000
00000000
00000010
00000001
00001001
,  // measure 51
00000000
00000001
00000100
00001000
00010000
00100000
10000000
00010000
,  // measure 52
20000000
00000000
31000000
01000000
00020000
00000000
00031000
00001000
,  // measure 53
00010000
00000000
01000000
10000000
00000000
10000000
00010000
00000000
,  // measure 54
20000000
00000000
30100000
00100000
00020000
00000000
00031000
00001000
,  // measure 55
00010000
00000000
00100000
10000000
00000000
10000000
00010000
00000000
,  // measure 56
00100000
00000000
00001000
00010000
00000000
00000100
00001000
00000010
,  // measure 57
00000100
00001010
00000100
00000011
,  // measure 58
00000100
00022000
00000000
00033000
,  // measure 59
00020000
00000000
00130000
00100000
20000000
00000000
30010000
00010000
,  // measure 60
00100000
00000000
00001000
00010000
00000000
00010000
00000100
00000000
,  // measure 61
00002000
00000000
00003010
00000010
00000002
00000000
00000013
00000010
,  // measure 62
00010000
00000000
00001000
00100000
00000000
00100000
00010000
00000000
,  // measure 63
02000000
00000000
03100000
00100000
20000000
00000000
30010000
00010000
,  // measure 64
00100000
00000000
00001000
00010000
00000000
01000000
10000000
00010000
,  // measure 65
00100000
00000000
00000000
00011000
00000000
00000000
00001100
00000000
,  // measure 66
00000220
00000000
00000000
00000330
,  // measure 67
00002002
00000000
00000000
00000000
,  // measure 68
00000000
00000000
00000000
00000000
,  // measure 69
00003003
00000000
00000000
00000000
;
