#VERSION:0.83;
#TITLE:HARD de KONEKO;
#SUBTITLE:;
#ARTIST:cranky;
#TITLETRANSLIT:;
#SUBTITLETRANSLIT:;
#ARTISTTRANSLIT:;
#GENRE:KITTENCORE;
#ORIGIN:;
#CREDIT:;
#BANNER:HARD de KONEKO.png;
#BACKGROUND:HARD de KONEKO-bg.png;
#PREVIEWVID:;
#JACKET:HARD de KONEKO-jacket.png;
#CDIMAGE:;
#DISCIMAGE:nyan.png;
#LYRICSPATH:;
#CDTITLE:;
#MUSIC:HARD de KONEKO.mp3;
#OFFSET:2.214000;
#SAMPLESTART:101.754753;
#SAMPLELENGTH:15.620000;
#SELECTABLE:YES;
#BPMS:0.000=150.000;
#STOPS:;
#DELAYS:;
#WARPS:;
#TIMESIGNATURES:0.000=4=4;
#TICKCOUNTS:0.000=4;
#COMBOS:0.000=1;
#SPEEDS:0.000=1.000=0.000=0;
#SCROLLS:0.000=1.000;
#FAKES:;
#LABELS:0.000=Song Start;
#BGCHANGES:226.833=nyan.png=1.000=0=0=1=====,
228.000=HARD de KONEKO-bg.png=1.000=0=0=1=====,
99999=-nosongbg-=1.000=0=0=0 // don't automatically add -songbackground-
;
#KEYSOUNDS:;
#ATTACKS:
;

//---------------dance-single - ----------------
#NOTEDATA:;
#CHARTNAME:;
#STEPSTYPE:dance-single;
#DESCRIPTION:;
#CHARTSTYLE:;
#DIFFICULTY:Hard;
#METER:14;
#RADARVALUES:0.664429,0.784771,0.357769,0.392170,0.553855,676.000000,624.000000,52.000000,57.000000,0.000000,0.000000,0.000000,0.000000,0.000000,0.664429,0.784771,0.357769,0.392170,0.553855,676.000000,624.000000,52.000000,57.000000,0.000000,0.000000,0.000000,0.000000,0.000000;
#CREDIT:;
#NOTES:
0000
0000
0000
0000
,
0000
0000
0000
0000
,
0000
0000
0000
0000
,
1000
0010
0100
0001
1000
0100
0010
0001
,
2000
0000
0000
3100
0000
0000
0000
0000
,
1000
0010
0001
0010
0100
0000
0001
2000
,
0000
0000
3000
0000
0000
0000
0000
1000
,
0002
0000
0003
0010
2000
0000
3000
0010
,
0200
1300
1100
0101
,
1002
0000
0103
0000
0001
0100
1000
0100
,
0001
0010
0100
1000
,
0001
0100
0000
1000
0100
0000
0110
0000
,
2000
0002
0000
3003
0000
1000
0100
0010
,
0001
0000
0100
0010
0000
0010
0000
1000
0000
1000
0000
0010
0200
0000
0301
0000
,
1000
0000
0100
0000
0010
0001
0000
0001
2000
0000
0000
0000
3100
1000
0000
1000
,
0001
0000
0100
0010
0000
0010
0000
1000
0001
0000
0001
0000
0010
0100
0000
1000
,
0010
0000
0000
0000
0101
0000
0000
0000
0010
0000
0000
0000
1100
0000
0000
1000
,
0001
0000
0100
0010
0000
0010
0000
1000
0000
1000
0000
0100
2000
0000
3001
0000
,
1000
0000
0010
0000
0100
0001
0000
0100
0001
0000
0010
0000
0100
1000
0000
0100
,
1000
0000
0001
0000
0000
0010
0000
0010
0001
0000
0100
0000
1000
0000
0100
0000
,
0010
0000
0000
1010
0000
0000
1000
0000
0001
0000
0000
1001
0000
0000
1000
0000
,
0001
0100
0000
0001
0100
0000
0010
1000
0000
0010
1000
0000
0001
0000
1000
0000
,
0020
0200
0000
0330
2002
0000
3003
0000
,
1000
0000
0001
0000
0100
0001
0100
0001
0000
0100
0000
0010
2000
0000
3001
1000
,
0001
0000
1000
0000
0010
1000
0010
1000
0000
0010
0000
0100
0002
0000
1003
0001
,
1000
0000
0100
0000
0001
0100
0001
0100
0000
1000
0000
0010
0200
0000
0301
1000
,
0001
0000
0010
0000
0100
0000
1000
0010
0100
0001
0000
1000
0000
0000
1001
0000
,
1000
0000
0010
0000
0001
0010
0001
0010
0000
0100
0000
0001
2000
0000
3010
0100
,
0001
0000
0100
0000
1000
0100
1000
0100
0000
0010
0000
1000
0002
0000
0103
0010
,
1000
0000
1000
0000
0000
0001
0000
0001
1000
0000
0010
0000
0001
0000
0010
0000
,
0101
1010
1100
0011
,
0001
0100
1000
0100
0001
0010
1000
0001
,
0200
0000
0310
0010
0001
0000
1001
0000
,
0001
0100
1000
0100
0010
0000
1000
0001
,
1000
0000
1100
0000
0001
0000
0101
0001
,
2000
0000
3100
0100
0002
0000
0013
0010
,
2000
3001
0101
1100
,
1002
0000
0103
0000
0001
0100
1000
0100
,
0010
1010
1000
1001
,
1000
0100
0000
0001
0101
0000
1100
0000
,
2000
0002
0000
3003
1000
0100
0001
0100
,
1000
0010
1000
0000
0010
0000
0100
0000
0001
0100
0000
0010
0000
1000
0000
0000
,
0001
0000
0010
0100
0000
0010
0100
0000
1000
0000
0010
0100
0000
0001
0000
0000
,
1000
0100
0000
0001
0000
0000
0100
0000
1000
0001
1000
0000
1001
0000
0000
0000
,
1000
0000
0010
0000
0100
0001
1000
0000
0001
0000
0010
0000
0100
1000
0001
0000
,
1000
0010
0000
0001
0000
0010
0000
0100
0001
0000
1000
0000
0100
0000
0100
0000
,
0000
1000
0000
0010
0100
0000
0001
0100
0000
0001
0000
0010
0200
0000
1300
0000
,
0001
0100
0001
0000
1000
0010
1000
0000
0001
0010
0001
0000
1000
0100
1000
0000
,
0001
0000
0100
0000
1000
0000
0100
0000
0001
0010
0100
1000
0100
0010
0001
1000
,
0001
0000
0100
0000
0010
0000
1000
0001
1000
0000
0100
0000
0010
0000
0001
1000
,
0001
0000
0100
0000
1000
0000
0100
0000
0010
0000
1000
0000
0001
0000
1000
0001
,
1000
0000
0010
0000
0100
0000
0001
1000
0001
0000
0010
0000
0100
0000
1000
0001
,
1000
0000
0010
0000
0001
0000
0010
0000
0100
0000
0001
0000
1000
0000
0001
0100
,
1000
0000
0100
0000
0010
0000
1000
0100
0001
0000
0100
0000
1000
0000
0001
0010
,
1000
0000
0010
0000
0100
0000
0010
0000
0001
0000
1000
0000
0100
0000
1000
0010
,
0001
0000
1000
0000
0100
0000
0001
0010
1000
0000
0001
0000
0100
0000
1000
0001
,
1000
0010
0001
0100
1000
0001
2002
0000
,
3003
0000
0000
0000
,
0000
0000
0000
0000
,
0000
0000
0000
0000
,
0000
0000
0000
0000
0000
0000
0000
0000
0000
0000
0000
0000
0000
0000
1000
0001
,
2000
0010
0100
3001
,
0002
0010
0100
1003
,
0001
0100
0001
0100
0010
0000
1000
0000
0001
0010
0001
0010
0100
0000
1000
0000
,
0001
1000
0001
1000
0010
0100
0010
0100
0000
0100
0000
0100
0002
0000
1003
0000
,
0001
0000
1000
0000
0010
1000
0010
1000
0000
0010
0000
0100
0002
0000
1003
0001
,
1000
0000
0001
0000
0100
0001
0100
0001
0000
0100
0000
0010
2000
0000
3001
1000
,
0001
0000
0010
0000
1000
0010
1000
0010
0000
0001
0000
0100
0020
0000
1030
0001
,
1000
0000
0100
0000
0010
0000
0001
0100
0010
1000
0000
0001
0000
0000
1001
0000
,
0001
0000
0100
0000
1000
0100
1000
0100
0000
0010
0000
1000
0002
0000
0103
0010
,
1000
0000
0010
0000
0001
0010
0001
0010
0000
0100
0000
0001
2000
0000
3010
0100
,
0001
0000
0001
0000
0000
1000
0000
1000
0001
0000
0100
0000
1000
0000
0100
0000
,
1010
0101
0011
1100
,
1000
0010
0001
0010
1000
0100
0001
1000
,
0020
0000
0130
0100
1000
0000
1001
0000
,
1000
0010
0001
0010
0100
0000
0101
0000
,
2001
0000
3010
0000
1000
0000
1010
1000
,
0002
0000
0013
0010
2000
0000
3100
0100
,
0002
1003
1010
0011
,
2001
0000
3010
0000
1000
0010
0001
0010
,
0100
0101
0001
1001
,
0001
0010
0000
1000
1010
0000
0011
0000
,
0001
1000
1100
0000
1000
0001
0101
0000
,
1000
0100
0000
0001
0101
0000
1100
0000
,
1000
0001
0011
0000
0001
1000
1010
0000
,
1000
0100
0001
0010
2000
3000
0002
0003
,
0202
0303
2020
3030
0022
0033
2200
3300
,
1000
0010
0000
0100
0000
0000
0000
0001
0000
0010
0000
0100
1000
0000
0000
0002
,
0000
0000
0103
0010
0100
0000
0001
0010
0000
1000
0000
0010
0001
0000
0100
1000
,
0000
0100
0010
0100
0010
1000
0001
2000
0000
0000
0000
0000
0000
0000
0000
0000
,
0000
0000
0000
0000
0000
0000
0000
0000
0000
0000
0000
0000
0000
0000
0000
0000
0000
0000
3000
0000
0000
0001
1000
0001
,
0200
0300
0000
0000
;

//---------------dance-single - ----------------
#NOTEDATA:;
#CHARTNAME:;
#STEPSTYPE:dance-single;
#DESCRIPTION:;
#CHARTSTYLE:;
#DIFFICULTY:Easy;
#METER:6;
#RADARVALUES:0.321403,0.406963,0.165124,0.206405,0.000000,327.000000,303.000000,24.000000,30.000000,0.000000,0.000000,0.000000,0.000000,0.000000,0.321403,0.406963,0.165124,0.206405,0.000000,327.000000,303.000000,24.000000,30.000000,0.000000,0.000000,0.000000,0.000000,0.000000;
#CREDIT:;
#NOTES:
0000
0000
0000
0000
,
0000
0000
0000
0000
,
0000
0000
0000
0000
,
1000
0010
0100
0001
,
2000
3000
0001
0000
,
1000
0100
0001
0100
,
0020
0030
0001
0000
,
2000
3000
0020
0030
,
0200
0300
0001
0001
,
1000
0000
0100
0100
,
0010
0000
0001
0000
,
1000
0010
0001
0010
,
0200
0300
0010
1001
,
1000
0100
0010
0001
,
0010
0100
2000
3000
,
0001
0100
1000
0100
,
0002
0003
1000
0000
,
0001
0010
0100
1000
,
0001
0001
1000
1000
,
0001
0100
1000
0010
,
0002
0000
0000
0003
,
1000
0010
0100
0001
,
1000
2000
0000
0000
3000
0000
0000
0000
,
0001
0010
0001
0011
,
1000
0010
1000
1010
,
0001
0100
0001
0101
,
1000
0100
0001
0100
,
1000
0010
1000
0101
,
0001
0010
0001
1100
,
1000
0010
0001
0100
,
1000
1001
1001
1001
,
0001
0100
1000
0100
,
0020
0130
0002
1003
,
0001
0010
1000
0010
,
0200
0010
0310
1001
,
0002
0103
2000
3100
,
0020
1030
0001
0001
,
1000
0100
0001
0010
,
2000
0000
3000
0000
,
0001
0010
0100
1000
,
0001
0002
0000
0000
0003
0000
0000
0000
,
1000
0010
0100
0100
,
0001
0100
0010
0010
,
1000
0100
0010
0010
,
0001
0010
0100
0100
,
1000
0010
0001
0001
,
1000
0100
0001
0001
,
0010
0010
0100
0100
,
1000
0001
1000
1001
,
0001
0001
0100
0100
,
0010
0010
1000
0001
,
1000
1000
0100
0100
,
0010
0010
0001
1000
,
0001
0001
0100
0100
,
1000
1000
0001
0010
,
1000
1000
0100
0100
,
0001
1000
0010
2002
,
3003
0000
0000
0000
,
0000
0000
0000
0000
,
0000
0000
0000
0000
,
0000
0000
0000
0000
,
1000
1000
1000
1000
,
0001
0001
0001
0001
,
0010
0010
0100
0100
,
1000
0001
1000
1001
,
1000
0100
1000
1100
,
0001
0100
0001
0101
,
1000
0010
1000
1010
,
0001
0010
1000
0010
,
0001
0100
0001
1010
,
1000
0100
1000
0011
,
0001
0100
1000
0010
,
0001
1001
1001
1001
,
1000
0010
0001
0010
,
0200
0310
2000
3001
,
1000
0100
0001
0100
,
0020
0100
0130
1001
,
2000
3010
0002
0013
,
0200
0301
1000
1000
,
0001
0010
1000
0100
,
0002
0000
0003
0000
,
1000
0100
0010
0001
,
1000
2000
0000
0000
3000
0000
0000
0000
,
0001
0100
0010
1000
,
0001
0002
0000
0000
0003
0000
0000
0000
,
1000
0100
0010
0001
,
1000
1010
0001
0011
,
1000
0010
0001
0010
,
1000
0100
0001
0100
,
1000
0001
1000
0001
0200
0000
0000
0000
,
0000
0000
0000
0000
,
0310
0000
0000
0000
;

//---------------dance-single - ----------------
#NOTEDATA:;
#CHARTNAME:;
#STEPSTYPE:dance-single;
#DESCRIPTION:;
#CHARTSTYLE:;
#DIFFICULTY:Medium;
#METER:8;
#RADARVALUES:0.463921,0.500877,0.412811,0.364650,0.000000,472.000000,412.000000,60.000000,53.000000,0.000000,0.000000,0.000000,0.000000,0.000000,0.463921,0.500877,0.412811,0.364650,0.000000,472.000000,412.000000,60.000000,53.000000,0.000000,0.000000,0.000000,0.000000,0.000000;
#CREDIT:;
#NOTES:
0000
0000
0000
0000
,
0000
0000
0000
0000
,
0000
0000
0000
0000
,
1000
0010
1000
0000
0001
0010
0001
0000
,
2000
0001
3001
1000
,
0001
0100
0001
0000
1000
0000
0100
1000
,
0200
0010
0310
1001
,
0002
0103
2000
3100
,
0020
0130
1001
1001
,
1200
0000
0301
0000
0100
1000
0001
0000
,
1000
0010
0100
0001
,
1000
0100
0000
0001
0100
0000
1000
0000
,
2002
0000
3003
0000
0000
1000
0010
0100
,
0001
0101
0001
1001
,
0001
0010
1000
0010
0002
0000
1003
0000
,
0001
0000
1100
0000
1000
0000
0002
1000
,
1003
0101
0001
1100
,
1000
1010
1000
1001
,
1000
0010
0001
0000
0001
0010
1000
0001
,
1000
0000
1001
0000
0001
0010
1000
0010
,
0002
0013
0200
1300
,
0001
0010
0000
1000
0010
0000
0001
0000
,
2002
3003
0220
0330
,
0010
1000
0100
0000
0010
0000
1001
0000
,
0010
0001
0100
0000
0010
0000
1001
0000
,
1000
0100
0001
0000
0100
0000
1001
0000
,
0001
0100
0010
1000
0010
0100
0001
0000
,
1000
0010
0001
0000
0010
0000
1001
0000
,
0001
0010
1000
0000
0010
0000
1001
0000
,
0001
0010
0100
0000
1000
0010
0100
0000
,
0010
1001
0110
1001
,
1000
0100
0001
0000
0100
1000
0001
0000
,
0200
0010
0310
1001
,
0001
0010
1000
0000
0010
0000
0001
1000
,
0002
0103
0020
1030
,
2100
3001
0102
1003
,
2001
3100
1001
1001
,
0210
0000
0301
0000
0010
0001
0100
0000
,
0020
1030
0002
0103
,
0001
0010
0000
1000
0010
0000
0001
0000
,
2002
0000
3003
0000
0001
0100
0010
0000
,
1000
0000
0100
0000
0010
0010
0010
0000
,
0100
0000
1000
0000
0001
0001
0001
0000
,
1000
0000
0010
0000
0100
0100
0100
0000
,
0010
0000
1000
0000
0001
1000
1001
0000
,
0001
0000
0010
0000
1000
0010
0001
0000
,
1000
0000
0001
0000
1000
0100
0001
0000
,
0110
1001
0110
1001
,
0001
0010
1000
0001
0100
1000
0001
0000
,
1000
0010
1000
0000
0001
0010
0001
0000
,
1000
0001
1000
0001
0100
0100
0100
0000
,
0001
0100
0001
0000
1000
0100
1000
0000
,
0001
1000
0001
1000
0010
0010
0010
0000
,
1000
0010
0100
0000
0001
0100
0010
0000
,
1000
0010
0001
0010
1000
0001
1000
0000
,
0001
0010
0100
0000
1000
0100
0010
0000
,
0001
0100
1000
0100
0001
0000
2002
0000
,
3003
0000
0000
0000
,
0000
0000
0000
0000
,
0000
0000
0000
0000
,
0000
0000
0000
0000
,
2000
0010
0100
3001
,
0002
0010
0100
1003
,
0202
0303
2200
3300
,
2002
0000
3003
0000
1000
0010
0100
0000
,
0010
1000
0100
0000
0010
0000
1001
0000
,
0010
0001
0100
0000
0010
0000
1001
0000
,
1000
0100
0001
0000
0100
0000
1001
0000
,
0001
0100
0010
1000
0010
0100
0001
0000
,
1000
0010
0001
0000
0010
0000
1001
0000
,
0001
0010
1000
0000
0010
0000
1001
0000
,
0001
0010
0100
0000
1000
0010
0100
0000
,
0010
1001
0110
1001
,
1000
0100
0001
0000
0100
1000
0001
0000
,
0200
0010
0310
1001
,
0001
0010
1000
0000
0010
0000
0001
1000
,
0002
0103
0020
1030
,
2100
3001
0102
1003
,
2001
3100
1001
1001
,
0210
0000
0301
0000
0010
0001
0100
0000
,
0020
1030
0002
0103
,
0001
0010
0000
1000
0010
0000
0001
0000
,
2002
0000
3003
0000
0001
0100
0010
0000
,
1000
0100
0000
0001
0100
0000
0010
0000
,
2002
0000
3003
0000
0001
0100
0010
0000
,
1000
0010
0001
0010
2000
0000
3002
0000
,
0013
0101
0010
1100
,
0100
1000
0001
0000
0100
0001
1000
0000
,
0010
1000
0001
0000
0010
0001
1000
0000
,
0001
0100
1000
0100
0020
0000
0000
0000
,
0000
0000
0000
0030
,
1001
0000
0000
0000
;

//---------------dance-single - ----------------
#NOTEDATA:;
#CHARTNAME:;
#STEPSTYPE:dance-single;
#DESCRIPTION:;
#CHARTSTYLE:;
#DIFFICULTY:Beginner;
#METER:3;
#RADARVALUES:0.196577,0.281743,0.027521,0.006880,0.000000,200.000000,196.000000,4.000000,1.000000,0.000000,0.000000,0.000000,0.000000,0.000000,0.196577,0.281743,0.027521,0.006880,0.000000,200.000000,196.000000,4.000000,1.000000,0.000000,0.000000,0.000000,0.000000,0.000000;
#CREDIT:;
#NOTES:
0000
0000
0000
0000
,
0000
0000
0000
0000
,
0000
0000
0000
0000
,
1000
0000
0000
0000
,
0001
0000
0000
0000
,
0010
0000
0010
0000
,
0010
0000
0000
0000
,
0001
0000
0000
0000
,
1000
0000
0000
0000
,
0100
0000
0100
0000
,
0100
0000
0000
0000
,
0010
0000
0010
0000
,
1001
0000
0000
0000
,
1000
0000
1000
0000
,
0010
0000
0010
0000
,
0100
0000
0100
0000
,
0001
0000
0001
0000
,
1000
0000
0100
0000
,
0010
0000
0001
0000
,
1000
0000
0010
0000
,
0100
0000
0001
0000
,
1000
0000
0001
0000
,
1001
0000
1001
0000
,
1000
0000
0010
0010
,
0010
0000
0100
0100
,
0100
0000
0001
0001
,
0001
0000
1000
1000
,
1000
0000
0100
0100
,
0100
0000
0010
0010
,
0010
0000
0100
0000
,
1000
1000
1000
1000
,
0001
0000
0100
0000
,
0010
0000
1000
0000
,
0001
0000
0010
0000
,
1000
0000
0010
0000
,
0001
0000
0100
0000
,
0010
0000
1000
0000
,
0001
0000
0100
0000
,
1000
0000
0100
0000
,
0001
0000
0010
0000
,
1001
0000
0000
0000
,
0001
0001
0001
0000
,
0010
0010
0010
0000
,
0100
0100
0100
0000
,
1000
1000
1000
0000
,
0001
0001
0001
0000
,
0100
0100
0100
0000
,
0010
0010
0010
0010
,
0100
0100
0100
0100
,
0001
0000
0001
0000
,
0010
0010
0010
0000
,
0100
0000
0100
0000
,
1000
1000
1000
0000
,
0001
0000
0001
0000
,
0100
0100
0100
0000
,
0010
0000
0010
0000
,
0100
0100
0100
0000
,
0000
0000
0000
0000
,
0000
0000
0000
0000
,
0000
0000
0000
0000
,
0000
0000
0000
0000
,
1000
1000
1000
1000
,
0001
0001
0001
0001
,
0010
0000
0100
0000
,
1000
0000
0001
0001
,
1000
1000
1000
0000
,
0010
0010
0010
0000
,
0100
0100
0100
0000
,
0001
0001
0001
0000
,
1000
1000
1000
0000
,
0100
0100
0100
0000
,
0010
0010
0010
0000
,
0001
0001
0001
0001
,
0001
0000
0100
0000
,
0010
0000
1000
0000
,
0001
0000
0010
0000
,
1000
0000
0010
0000
,
0001
0000
0100
0000
,
0010
0000
1000
0000
,
0001
0000
0100
0000
,
1000
0000
0100
0000
,
0001
0000
0010
0000
,
1000
0000
0010
0000
,
0001
0000
0100
0000
,
1000
0000
0001
0000
,
0010
0000
1000
1000
,
1000
0000
0001
0000
,
0010
0000
0100
0000
,
1000
0000
0001
0000
,
0100
0100
0200
0000
,
0000
0000
0000
0000
,
0300
0000
0000
0000
;

//---------------dance-double - ----------------
#NOTEDATA:;
#CHARTNAME:;
#STEPSTYPE:dance-double;
#DESCRIPTION:;
#CHARTSTYLE:;
#DIFFICULTY:Hard;
#METER:14;
#RADARVALUES:0.661480,0.786921,0.330249,0.488493,0.536654,673.000000,625.000000,48.000000,71.000000,0.000000,0.000000,0.000000,0.000000,0.000000,0.661480,0.786921,0.330249,0.488493,0.536654,673.000000,625.000000,48.000000,71.000000,0.000000,0.000000,0.000000,0.000000,0.000000;
#CREDIT:;
#NOTES:
00000000
00000000
00000000
00000000
,
00000000
00000000
00000000
00000000
,
00000000
00000000
00000000
00000000
,
00001000
00010000
01000000
00010000
00001000
00000100
00001000
00010000
,
00200000
00000000
00000000
01300000
00000000
00000000
00000000
00000000
,
00010000
00100000
10000000
00100000
00001000
00000000
00010000
00000200
,
00000000
00000000
00000300
00000000
00000000
00000000
00000000
00000010
,
00000002
00000000
00000000
00000103
00002000
00000000
00000000
00003100
,
00000020
00000130
00000101
00001100
,
00002001
00000000
00003100
00000000
00001000
00000100
00000001
00000100
,
00010000
00012000
00103000
00120000
,
10030000
00100000
00000000
00010000
00110000
00000000
10100000
00000000
,
20000000
00020000
00000000
30030000
10000000
01000000
00010000
01000000
,
10000000
00000000
00100000
01000000
00000000
01000000
00000000
00001000
00000000
00001000
00000000
00010000
00000200
00000000
00000310
00000000
,
00000001
00000000
00000100
00000000
00001000
00000100
00000000
00000100
00000020
00000000
00000000
00000000
00001030
00000001
00000000
00000001
,
00001000
00000000
00000100
00000001
00000000
00000001
00000000
00000100
00001000
00000000
00001000
00000000
00000010
00010000
00000000
00010000
,
00001000
00000000
00000000
00000000
00101000
00000000
00000000
00000000
10000000
00000000
00000000
00000000
10100000
00000000
00000000
10000000
,
00010000
00000000
01000000
10000000
00000000
10000000
00000000
01000000
00000000
01000000
00000000
00100000
20000000
00000000
30010000
00000000
,
00100000
00000000
00001000
00000000
00010000
00000100
00000000
00000100
00001000
00000000
00000010
00000000
00010000
00001000
00000000
00001000
,
00100000
00000000
00100000
00000000
00000000
00010000
00000000
00010000
01000000
00000000
10000000
00000000
01000000
00000000
00100000
00000000
,
10000000
00000000
00000000
01010000
00000000
00000000
00100000
00000000
00001000
00000000
00000000
00010100
00000000
00000000
00001000
00000000
,
00000001
00000100
00000000
00000001
00000100
00000000
00000010
00001000
00000000
00000010
00001000
00000000
00000100
00000000
00010000
00000000
,
00002000
00200000
00000000
00303000
20020000
00000000
30030000
00000000
,
10000000
00000000
01000000
00000000
00010000
01000000
00010000
01000000
00000000
10000000
00000000
00010000
20000000
00000000
30010000
00000000
,
10000000
00000000
00100000
00000000
00010000
00100000
00010000
00100000
00000000
10000000
00000000
00010000
20000000
00000000
30010000
00000000
,
10000000
00000000
00100000
00000000
00010000
00001000
00010000
00001000
00000000
00010000
00000000
00001000
00000020
00000000
00000031
00000000
,
00001000
00000000
00000010
00000000
00000001
00000000
00000010
00000100
00000010
00000100
00000000
00000001
00000000
00000000
00001001
00000000
,
00000001
00000000
00000010
00000000
00001000
00000010
00001000
00000010
00000000
00000001
00000000
00001000
00000002
00000000
00001003
00000000
,
00000001
00000000
00000100
00000000
00001000
00000100
00001000
00000100
00000000
00000001
00000000
00001000
00000002
00000000
00001003
00000000
,
00000010
00000000
00000010
00000000
00000000
00000100
00000000
00000100
00000001
00000000
00000010
00000000
00001000
00000000
00000010
00000000
,
00000011
00001100
00011000
10010000
,
10000000
00100000
00010000
00100000
01000000
00001000
00010000
00000100
,
00002000
00000000
00003010
00000010
00000200
00000000
00000301
00000000
,
00001000
00000100
00000001
00000100
00010000
00000000
00001000
00100000
,
00010000
00000000
01010000
00000000
10000000
00000000
11000000
10000000
,
00020000
00000000
00130000
00100000
02000000
00000000
03001000
00001000
,
00000200
00000310
00000011
00001010
,
00001002
00000000
00000103
00000000
00000001
00000100
00001000
00000010
,
00000001
00000101
00001000
00001100
,
00010000
00001000
00000000
00100000
00110000
00000000
10100000
00000000
,
20000000
00020000
00000000
30030000
10000000
00100000
00010000
00100000
,
10000000
00100000
01000000
00000000
00100000
00000000
10000000
00000000
00010000
01000000
00000000
00001000
00000000
00001000
00000000
00000000
,
00010000
00000000
00000100
00001000
00000000
00000001
00000100
00000000
00000010
00000000
00001000
00000100
00000000
00010000
00000000
00000000
,
00001000
01000000
00000000
00100000
00000000
00000000
10000000
00000000
00010000
10000000
00010000
00000000
10010000
00000000
00000000
00000000
,
10000000
00000000
01000000
00000000
00010000
01000000
00010000
00000000
01000000
00000000
00100000
00000000
00001000
00010000
00001000
00000000
,
00010000
00000010
00000000
00000010
00000000
00000100
00000000
00000100
00000001
00000000
00000010
00000000
00001000
00000000
00000010
00000000
,
00000000
00000001
00000000
00000100
00001000
00000000
00000100
00000010
00000000
00010000
00000000
00001000
00100000
00000000
00010000
00000000
,
10000000
01000000
10000000
00000000
00010000
01000000
00010000
00000000
10000000
00100000
10000000
00000000
00010000
00100000
00010000
00000000
,
10000000
00000000
00100000
00000000
00010000
00000000
00001000
00000000
00000010
00000001
00000100
00000001
00001000
00000001
00001000
00000010
,
00000200
00000000
00000001
00000000
00000301
00000000
00001000
00000100
00020000
00000000
00001000
00000000
00031000
00000000
00100000
00010000
,
20000000
00000000
30100000
00000000
00020000
00000000
00130000
00000000
01000000
00000000
00010000
00000000
10000000
00000000
00010000
01000000
,
00200000
00000000
10000000
00000000
10300000
00000000
00010000
00100000
00002000
00000000
00010000
00000000
00013000
00000000
00000100
00001000
,
00000002
00000000
00000103
00000000
00002000
00000000
00003100
00000000
00000010
00000000
00001000
00000000
00000001
00000000
00001000
00000100
,
00000001
00000000
00000100
00000000
00000010
00000000
00000001
00000100
00001000
00000000
00000100
00000000
00000010
00000000
00001000
00000001
,
00001000
00000000
00000100
00000000
00010000
00000000
00001000
00000000
00100000
00000000
00010000
00000000
10000000
00000000
00010000
01000000
,
10000000
00000000
01000000
00000000
00100000
00000000
10000000
01000000
00010000
00000000
01000000
00000000
00100000
00000000
01000000
10000000
,
00010000
01000000
00001000
00010000
00000100
00001000
00002002
00000000
,
00003003
00000000
00000000
00000000
,
00000000
00000000
00000000
00000000
,
00000000
00000000
00000000
00000000
,
00000000
00000000
00000000
00000000
00000000
00000000
00000000
00000000
00000000
00000000
00000000
00000000
00000000
00000000
00000001
00001000
,
00000002
00001000
00000010
00000103
,
00002000
00000010
00000100
00003001
,
00001000
00000010
00001000
00000010
00000100
00000000
00001000
00000000
00010000
00100000
00010000
00100000
01000000
00000000
00010000
00000000
,
10000000
01000000
00100000
00001000
00100000
01000000
10000000
00010000
00000000
00010000
00000000
00010000
02000000
00000000
03100000
00000000
,
10000000
00000000
01000000
00000000
00010000
01000000
00010000
01000000
00000000
01000000
00000000
00100000
00002000
00000000
00013000
00000100
,
00001000
00000000
00000010
00000000
00000001
00000010
00000001
00000010
00000000
00000010
00000000
00000100
00000002
00000000
00001003
00000001
,
00001000
00000000
00000100
00000000
00000001
00000100
00001000
00000010
00000000
00010000
00000000
00001000
00200000
00000000
00310000
10000000
,
00010000
00000000
01000000
00000000
10000000
00000000
01000000
00100000
10000000
00010000
00000000
10000000
00000000
00000000
10010000
00000000
,
10000000
00000000
01000000
00000000
00010000
01000000
00010000
01000000
00000000
01000000
00000000
00100000
00001000
00000000
00010000
00000100
,
00001000
00000000
00000010
00000000
00000001
00000010
00000001
00000010
00000000
00000010
00000000
00000100
00000001
00000000
00001000
00000001
,
00000010
00000000
00000010
00000000
00000000
00000100
00000000
00000100
00001000
00000000
00000010
00000000
00000001
00000000
00000010
00001000
,
00000002
00000013
00002000
00013000
00200000
10300000
00020000
01030000
,
00010000
00100000
10000000
00100000
00001000
00010000
00000100
00001000
,
00000020
00000000
00000130
00000100
00000002
00000000
00001003
00000000
,
00000001
00000010
00001000
00010000
00100000
00000000
01100000
00000000
,
20010000
00000000
30100000
00000000
02000000
00000000
03010000
10000000
,
00020000
00000000
00130000
10000000
00002000
00000000
01003000
10000000
,
00020000
01030000
10100000
00110000
,
20010000
00000000
31000000
00000000
10000000
01000000
00010000
00001000
,
00000100
00001001
00000010
00001001
,
00000001
00000010
00000000
00001000
00001010
00000000
00000011
00000000
,
00000001
00000100
00001010
00000000
00010000
00001000
00011000
00000000
,
10000000
00100000
00000000
00010000
00110000
00000000
10100000
00000000
,
10000000
01000000
00110000
00000000
00001000
00010000
00011000
00000000
,
00010000
00001000
00000100
00000001
00000020
00000030
00000200
00000300
,
00000022
00000033
00002200
00003300
00000202
00000303
00002020
00003030
,
00000001
00000100
00000000
00001000
00000000
00000000
00000000
00000100
00000000
00000100
00000000
00000010
00001000
00000000
00000100
00020000
,
00000000
00000000
00031000
00000000
01000000
00000000
10000000
01000000
00000000
01000000
00000000
00100000
10000000
00000000
00010000
00100000
,
00000000
00001000
00010000
00000100
00001000
00000010
00000100
00000002
00000000
00000000
00000000
00000000
00000000
00000000
00000000
00000000
,
00000000
00000000
00000000
00000000
00000000
00000000
00000000
00000000
00000000
00000000
00000000
00000000
00000000
00000000
00000000
00000000
00000000
00000000
00000003
00000000
00000000
00001000
00000001
00001000
,
00000200
00000000
00000300
00000000
;

//---------------dance-double - ----------------
#NOTEDATA:;
#CHARTNAME:;
#STEPSTYPE:dance-double;
#DESCRIPTION:;
#CHARTSTYLE:;
#DIFFICULTY:Easy;
#METER:6;
#RADARVALUES:0.316488,0.344353,0.116963,0.192645,0.000000,322.000000,305.000000,17.000000,28.000000,0.000000,0.000000,0.000000,0.000000,0.000000,0.316488,0.344353,0.116963,0.192645,0.000000,322.000000,305.000000,17.000000,28.000000,0.000000,0.000000,0.000000,0.000000,0.000000;
#CREDIT:;
#NOTES:
00000000
00000000
00000000
00000000
,
00000000
00000000
00000000
00000000
,
00000000
00000000
00000000
00000000
,
00010000
00001000
00100000
00010000
,
20000000
30000000
00020000
00030000
,
10000000
00100000
01000000
00001000
,
00020000
00030000
00001000
00010000
,
00000200
00000300
00000020
00000030
,
00000002
00000003
00001000
00001000
,
00002000
00003000
00000010
00000100
,
00000002
00000003
00002000
00003000
,
00000001
00000010
00001000
00010000
,
02000000
03000000
10000000
00010000
,
10000000
00100000
10000000
00100000
,
01000000
00001000
01000000
00001000
,
00010000
00000100
00010000
00000100
,
00000010
00000001
00000010
00000001
,
00001000
00000010
00000100
00001000
,
00010000
00100000
01000000
00001000
,
00010000
00000100
00001000
00000010
,
00000100
00000001
00001000
00000100
,
00010000
00010000
00001000
00001000
,
00022000
00033000
10010000
10010000
,
10000000
00100000
00010000
00100000
,
01000000
00001000
00010000
00000100
,
00001000
00000010
00000001
00000010
,
00010000
00001000
00100000
00010000
,
10000000
01000000
00010000
01000000
,
10000000
00001000
00010000
00000100
,
00001000
00001000
00000010
00000010
,
00000100
00000001
00001000
00001001
,
00000001
00000010
00001000
00000010
,
00000100
00001000
00000001
00000000
,
00001000
00000010
00000001
00000010
,
00020000
00030000
00001000
00100000
,
00020000
00030000
02000000
03000000
,
00200000
00300000
10000000
00010000
,
20000000
30000000
01000000
00010000
,
00001000
00001000
00000010
00000010
,
00000001
00000100
00001000
00010000
,
00022000
00033000
00001001
00001001
,
00000001
00000010
00000100
00000100
,
00001000
00000010
00000100
00000100
,
00001000
00010000
00100000
00100000
,
01000000
00010000
10000000
10010000
,
10000000
01000000
00100000
00100000
,
00001000
00010000
00000100
00000100
,
00001000
00001000
00000001
00000001
,
00001000
00000010
00000001
00000010
,
00000100
00000100
00000010
00000010
,
00001000
00000100
00010000
00001000
,
00100000
00100000
01000000
01000000
,
10000000
00100000
00010000
00100000
,
01000000
01000000
00001000
00001000
,
00010000
00000100
00001000
00000010
,
00000100
00000100
00000001
00000001
,
00001000
00000100
00010000
00022000
,
00033000
00000000
00000000
00000000
,
00000000
00000000
00000000
00000000
,
00000000
00000000
00000000
00000000
,
00000000
00000000
00000000
00000000
,
00010000
00010000
00010000
00010000
,
00001000
00001000
00001000
00001000
,
00110000
00000000
11000000
00000000
,
10010000
00000000
01100000
01100000
,
10000000
00100000
00010000
00100000
,
01000000
00001000
00010000
00000100
,
00001000
00000010
00000001
00000010
,
00010000
00001000
00100000
10010000
,
10000000
01000000
00010000
00001000
,
00010000
01000000
10000000
00100000
,
01000000
01000000
00100000
00100000
,
10000000
00010000
00011000
00011000
,
00010000
00001000
00000010
00000001
,
00000200
00000300
00000020
00000030
,
00001000
00000010
00000001
00000010
,
00002000
00003000
00000001
00000001
,
00000200
00000300
00000020
00000030
,
00020000
00030000
00001000
00001000
,
00100000
00010000
01000000
10000000
,
01000000
01000000
00100000
00100000
,
10000000
01000000
00010000
00001000
,
00000100
00000100
00000010
00000010
,
00001000
00000100
00000001
00000100
,
00010000
00010000
00001000
00001000
,
00100000
00010000
01000000
00100000
,
10000000
10000000
00100000
00100000
,
01000000
01000000
00001000
00001000
,
00010000
00010000
00000100
00000100
,
00001000
00000010
00000200
00000000
,
00000000
00000000
00000000
00000000
,
00000310
00000000
00000000
00000000
;

//---------------dance-double - ----------------
#NOTEDATA:;
#CHARTNAME:;
#STEPSTYPE:dance-double;
#DESCRIPTION:;
#CHARTSTYLE:;
#DIFFICULTY:Medium;
#METER:9;
#RADARVALUES:0.452126,0.532182,0.344009,0.399051,0.006880,460.000000,410.000000,50.000000,58.000000,0.000000,0.000000,0.000000,0.000000,0.000000,0.452126,0.532182,0.344009,0.399051,0.006880,460.000000,410.000000,50.000000,58.000000,0.000000,0.000000,0.000000,0.000000,0.000000;
#CREDIT:;
#NOTES:
// measure 0
00000000
00000000
00000000
00000000
,  // measure 1
00000000
00000000
00000000
00000000
,  // measure 2
00000000
00000000
00000000
00000000
,  // measure 3
00001000
00010000
00001000
00000000
00100000
00010000
10000000
00000000
,  // measure 4
00200000
01300000
00020000
10030000
,  // measure 5
00010000
01000000
00001000
00000000
00010000
00000000
00001000
00010000
,  // measure 6
00000200
00000300
00000010
00000001
,  // measure 7
00002000
00003010
00000002
00000013
,  // measure 8
00020000
00031000
00011000
00011000
,  // measure 9
20010000
00000000
31000000
00000000
10000000
00100000
01000000
00000000
,  // measure 10
00020000
00130000
00002000
00013000
,  // measure 11
00000100
00001000
00000010
00000100
,  // measure 12
00002002
00000000
00003003
00000000
00000010
00000100
00000010
00000100
,  // measure 13
00000001
00000010
00001000
00000010
,  // measure 14
00000100
00010000
00000100
00010000
00002000
00000000
00103000
00000000
,  // measure 15
00010000
00000000
01000000
00000000
10000000
01000000
10000000
01000000
,  // measure 16
00100000
01010000
00100000
00011000
,  // measure 17
00002000
00003010
00000002
00001003
,  // measure 18
00000001
00000100
00001000
00000000
00000100
00000010
00010000
00000000
,  // measure 19
00002000
00000000
00103000
00000000
00010000
01000000
00010000
01000000
,  // measure 20
00100000
10010000
01000000
10010000
,  // measure 21
10000000
00000000
00000000
01000000
00000000
00000000
00100000
00000000
00000000
00001000
00000000
00000000
00000100
00000000
00000000
00000000
,  // measure 22
00000020
00002000
00000000
00003030
00002002
00000000
00003003
00000000
,  // measure 23
00000001
00000010
00000100
00000000
00010000
00000000
00011000
00000000
,  // measure 24
10000000
00100000
01000000
00000000
00001000
00000000
00011000
00000000
,  // measure 25
00001000
00000010
00000001
00000000
00001000
00000000
00001001
00000000
,  // measure 26
00000001
00000100
00000010
00010000
00000010
00000100
00000001
00000000
,  // measure 27
00001000
00000100
00000010
00000000
00000001
00000000
00010100
00000000
,  // measure 28
10000000
00100000
01000000
00000000
00001000
00000000
00010100
00000000
,  // measure 29
00001000
00001000
00000000
00000001
00000001
00000000
00000100
00000010
,  // measure 30
00001000
00001100
00000101
00001001
,  // measure 31
00000001
00000100
00001000
00000000
00000100
00000010
00010000
00001000
,  // measure 32
00200000
00310000
20000000
31000000
,  // measure 33
10000000
00100000
00010000
00000000
00100000
00000000
01000000
00001000
,  // measure 34
00020000
00030100
00001100
00000101
,  // measure 35
00000002
00000013
00002000
00003010
,  // measure 36
00000200
00000310
00000110
00001001
,  // measure 37
00020100
00000000
00031000
00000000
00100000
00010000
10000000
00000000
,  // measure 38
00200000
01300000
00020000
10030000
,  // measure 39
00010000
00100000
00000000
10000000
00100000
00000000
01000000
00000000
,  // measure 40
20020000
00000000
30030000
00000000
10000000
00100000
01000000
00000000
,  // measure 41
00010000
00000000
00100000
00000000
10000000
00100000
00010000
00000000
,  // measure 42
10000000
00000000
00100000
00000000
01000000
00001000
00010000
00000000
,  // measure 43
00000100
00000000
00001000
00000000
00000010
00000001
00000010
00000000
,  // measure 44
00000100
00000000
00000001
00000000
00001000
00000100
00000011
00000000
,  // measure 45
00001000
00000000
00000010
00000000
00000001
00000010
00001000
00000000
,  // measure 46
00000100
00000000
00010000
00000000
00001000
00100000
00010000
00000000
,  // measure 47
10000000
10000000
00100000
00100000
01000000
01000000
00010000
00010000
,  // measure 48
10000000
01000000
00100000
00001000
00010000
00000100
00001000
00000010
,  // measure 49
00000200
00000301
00002000
00003100
,  // measure 50
00000010
00000001
00001000
00000001
00000100
00000100
00000100
00000000
,  // measure 51
00000020
00010030
00002000
00103000
,  // measure 52
00010000
01000000
10000000
01000000
00100000
00100000
00100000
00000000
,  // measure 53
20000000
31000000
00020000
00030100
,  // measure 54
00000010
00001000
00000001
00001000
00000100
00000100
00000100
00000000
,  // measure 55
00000020
00000031
00000200
00001300
,  // measure 56
00010000
00100000
01000000
00010000
10000000
00000000
20020000
00000000
,  // measure 57
30030000
00000000
00000000
00000000
,  // measure 58
00000000
00000000
00000000
00000000
,  // measure 59
00000000
00000000
00000000
00000000
,  // measure 60
00000000
00000000
00000000
00000000
00000000
00000000
00000000
10000000
,  // measure 61
00020000
01000000
00100000
10030000
,  // measure 62
20000000
01000000
00100000
30010000
,  // measure 63
20200000
30300000
02020000
03030000
,  // measure 64
00011000
00000000
00011000
00000000
00001000
00000010
00000001
00001000
,  // measure 65
00000001
00000000
00000100
00000000
00001000
00000100
00000001
00000000
,  // measure 66
00001000
00000000
00000100
00000000
00000001
00000100
00010000
00000000
,  // measure 67
00001000
00000000
00100000
00000000
00010000
01000000
10000000
00000000
,  // measure 68
01000000
00100000
01000000
00100000
10000000
00000000
10010000
00000000
,  // measure 69
10000000
00000000
00100000
00000000
00010000
00100000
10000000
00000000
,  // measure 70
00010000
00000000
00100000
00000000
10000000
00100000
00001000
00000000
,  // measure 71
00010000
00010000
00000000
00000100
00000100
00000000
00000010
00000001
,  // measure 72
00001000
00000101
00001010
00001001
,  // measure 73
00001000
00000100
00000001
00000000
00000001
00000100
00000010
00000000
,  // measure 74
00000002
00000103
00020000
00130000
,  // measure 75
10000000
01000000
00100000
00000000
00010000
00000000
01001000
00000000
,  // measure 76
00201000
00000000
00301000
00000000
00020000
00000000
00030100
00001000
,  // measure 77
00000001
00000101
00001000
00001100
,  // measure 78
00000001
00000011
00001000
00001010
,  // measure 79
00012000
00000000
00103000
00000000
00010000
01000000
10000000
00000000
,  // measure 80
02000000
03100000
20000000
30010000
,  // measure 81
10000000
01000000
01010000
11000000
,  // measure 82
10020000
01030000
20010000
31000000
,  // measure 83
10000000
00100000
00110000
00011000
,  // measure 84
00001200
00000310
00000201
00000310
,  // measure 85
00000001
00000100
00001000
00000000
00010000
00100000
10000000
00000000
,  // measure 86
00010000
01010000
10000000
11000000
,  // measure 87
10000000
00100000
00010000
00000000
00100000
00010000
00001000
00000000
,  // measure 88
00010000
00001000
00000100
00000000
00001000
00000100
00000010
00000000
,  // measure 89
00001000
00000001
00001000
00000001
00000020
00000000
00000000
00000000
,  // measure 90
00000000
00000000
00000000
00000000
,  // measure 91
00000130
00000000
00000000
00000000
;
