#TITLE:Green Night Parade;
#SUBTITLE:;
#ARTIST:fu_mou Feat. 星子;
#TITLETRANSLIT:;
#SUBTITLETRANSLIT:;
#ARTISTTRANSLIT:fu_mou Feat. hoshiko;
#GENRE:DREAMLAND ELECTRO;
#CREDIT:;
#BANNER:Green Night Parade.png;
#BACKGROUND:Green Night Parade-bg.png;
#LYRICSPATH:;
#CDTITLE:;
#MUSIC:Green Night Parade.mp3;
#OFFSET:-0.049130;
#SAMPLESTART:52.274593;
#SAMPLELENGTH:16.460001;
#SELECTABLE:YES;
#BPMS:0.000000=132.000000
;
#STOPS:
;
#BGCHANGES:;
#KEYSOUNDS:;
#ATTACKS:;

//---------------dance-single - ----------------
#NOTES:
     dance-single:
     :
     Hard:
     10:
     0.425177,0.454796,0.225726,0.209006,0.117043,356.000000,329.000000,27.000000,25.000000,0.000000,0.000000,0.425177,0.454796,0.225726,0.209006,0.117043,356.000000,329.000000,27.000000,25.000000,0.000000,0.000000:
// measure 0
0000
0000
0000
0000
,  // measure 1
0000
0000
0000
0000
,  // measure 2
0000
0000
0000
0000
,  // measure 3
0000
0000
0000
0000
,  // measure 4
2100
3001
1000
0010
,  // measure 5
0100
0001
0010
0001
1000
0000
1001
0000
,  // measure 6
0012
1003
0001
0100
,  // measure 7
0010
1000
0100
1000
0001
0000
1001
0000
,  // measure 8
1000
0000
0010
0000
0000
0010
0000
0000
0100
0000
0001
0000
0000
0001
0000
0000
,  // measure 9
1000
0000
0100
0000
0000
0100
0000
0000
0010
0000
0001
0000
0000
0001
0000
0000
,  // measure 10
1000
0000
0010
0000
0000
0010
0000
0000
0001
0000
0010
0000
0000
0010
0000
0000
,  // measure 11
1000
0000
0100
0000
0000
0100
0000
0000
1000
0001
0000
0000
0100
0010
0000
0000
,  // measure 12
2010
0001
0100
3100
,  // measure 13
1000
0000
0100
0000
0010
0000
0001
0100
,  // measure 14
1000
0200
0010
0000
0001
0000
0301
0000
,  // measure 15
0010
0000
0001
0000
0100
0000
0010
1000
,  // measure 16
0002
0100
1000
1003
,  // measure 17
0001
0000
0010
0000
0100
0000
1000
0010
,  // measure 18
0001
0020
0100
0000
1000
0000
1030
0000
,  // measure 19
0010
1000
0100
0010
0001
0001
1000
0001
,  // measure 20
0101
0000
0000
0000
0000
0000
0000
0000
0000
0000
0000
0000
0001
0000
0010
0100
,  // measure 21
0000
0000
0000
0000
1000
0000
0000
0000
0001
0000
0000
0000
0100
0010
0000
0010
,  // measure 22
0000
0000
0000
0000
0000
0000
0000
0000
0000
0000
0000
0000
1000
0000
0100
1000
,  // measure 23
0000
0000
0000
0000
0001
0000
0000
0000
0100
0000
0000
0000
0010
1000
0000
0001
,  // measure 24
0000
0000
0000
0000
0010
0000
0000
0000
0100
0000
0000
0000
1000
0000
0001
0100
,  // measure 25
0000
0000
0000
0000
0010
0000
0000
0000
1000
0000
0000
0000
0001
0010
0000
0000
,  // measure 26
0200
1000
0310
0100
,  // measure 27
1000
0000
0010
0000
0000
0100
0000
0000
0001
0000
0010
0000
0000
0100
0000
0000
,  // measure 28
0000
1000
0001
0000
0100
0000
0010
0000
1000
0000
0100
0000
0010
0000
0001
0000
,  // measure 29
1002
0000
0100
0000
1003
0000
0001
0100
,  // measure 30
1000
0100
0001
1000
0001
0000
1000
0100
,  // measure 31
0001
0000
0100
0001
0010
0000
0001
0010
,  // measure 32
2000
0010
3001
0101
,  // measure 33
2001
0000
0010
0000
3001
0000
1000
0010
,  // measure 34
0001
0010
1000
0001
1000
0000
0001
0010
,  // measure 35
1000
0000
0010
1000
0100
0000
1000
0100
,  // measure 36
0002
0100
1003
1010
,  // measure 37
1000
0010
0001
0010
0000
0100
0001
2000
,  // measure 38
0000
3010
0002
0013
,  // measure 39
1000
0100
0001
0100
0000
0010
0001
2000
,  // measure 40
0000
0000
3100
0000
0001
0100
0100
1000
,  // measure 41
0001
0100
0001
0100
1000
0100
1000
0100
,  // measure 42
0001
0010
0001
0010
1000
0010
1000
0010
,  // measure 43
0001
0010
1000
0001
0100
1000
0010
0200
,  // measure 44
0000
0300
0101
1100
,  // measure 45
2002
0000
3003
0000
1000
0010
0100
0001
,  // measure 46
1000
0000
0000
0000
1100
0000
0000
0000
0002
0000
0000
0100
0000
0103
0000
0000
,  // measure 47
0001
0100
1000
0100
0120
0000
1030
0000
,  // measure 48
0001
0000
0000
0000
0011
0000
0000
0000
2000
0000
0000
0010
0000
3010
0000
0000
,  // measure 49
1000
0010
0001
0010
0110
0000
1001
0000
,  // measure 50
0001
0000
0000
0000
0101
0000
0000
0000
2000
0000
0000
0100
0000
3100
0000
0000
,  // measure 51
1000
0100
0001
0100
0120
0000
0031
0000
,  // measure 52
1000
0000
0000
0000
1010
0000
0000
0000
0002
0000
0000
0010
0000
0013
0000
0000
,  // measure 53
0001
0010
1000
0010
0110
0000
1001
0000
,  // measure 54
1000
0010
0001
0010
0100
0001
1000
0000
,  // measure 55
0001
0010
1000
0010
0100
0100
1001
0000
,  // measure 56
0001
0100
1000
0100
0010
1000
0001
0000
,  // measure 57
1000
0100
0001
0100
0010
0010
1001
0000
,  // measure 58
0001
0010
1000
0001
0100
0010
0001
0000
,  // measure 59
1000
0010
0001
1000
0100
0010
1010
0000
,  // measure 60
1000
0100
0001
1000
0010
0100
1000
0000
,  // measure 61
0001
0100
1000
0001
0010
0100
0001
1000
,  // measure 62
2002
0000
0000
0000
,  // measure 63
0000
0000
0000
0000
,  // measure 64
3003
0000
0000
0000
;

//---------------dance-single - ----------------
#NOTES:
     dance-single:
     :
     Easy:
     5:
     0.256778,0.294280,0.091962,0.142124,0.000000,215.000000,204.000000,11.000000,17.000000,0.000000,0.000000,0.256778,0.294280,0.091962,0.142124,0.000000,215.000000,204.000000,11.000000,17.000000,0.000000,0.000000:
0000
0000
0000
0000
,
0000
0000
0000
0000
,
0000
0000
0000
0000
,
0000
0000
0000
0000
,
1000
0010
0100
0001
,
0100
0010
2000
3001
,
1000
0100
0010
0001
,
0010
0100
2000
3001
,
1000
1000
0010
0010
,
0100
0100
0001
0001
,
1000
1000
0100
0100
,
0010
0010
0001
1001
,
2000
0000
0000
0000
,
0010
0010
3010
1000
,
0001
0010
0001
0010
,
0100
1000
0100
1000
,
0002
0000
0000
0000
,
0100
0100
0103
0010
,
1000
0100
0010
0001
,
1000
1000
0001
0001
,
1001
0000
0000
0010
,
0010
0000
0000
0100
,
0100
0000
0000
0001
,
0001
0000
0000
1000
,
1000
0100
0010
0100
,
1000
0010
0100
0010
,
2000
0000
0000
0001
,
0002
0000
0000
0000
,
0000
0000
3003
1100
,
0102
1000
1003
0001
,
0100
1000
0100
0010
,
0010
1000
1000
0001
,
0002
0010
0103
1001
,
2000
0001
3001
1000
,
0010
0001
0010
0100
,
0100
0001
0001
1000
,
2000
0100
3010
1001
,
1000
0010
0001
0010
,
0200
0300
0010
0010
,
1000
0100
0001
0100
,
0020
0030
0100
0100
,
1000
0010
1000
0010
,
0001
0010
0001
0010
,
1000
0100
0001
0100
,
2000
3000
0002
0003
,
2002
0000
0000
3003
,
1000
0010
0001
0010
,
0100
0001
1000
1000
,
0001
0010
1000
0010
,
0100
1000
0001
0001
,
1000
0010
0001
1000
,
0100
0010
1000
1000
,
0001
0010
1000
0001
,
0100
0010
0001
0001
,
1000
0010
0100
0100
,
0001
0100
0010
1001
,
1000
0100
0010
0010
,
0001
0010
0100
1001
,
1000
0010
0001
0001
,
0010
1000
0001
1001
,
1000
0100
0001
0001
,
0100
1000
0001
1001
,
0200
0000
0000
0000
,
0000
0000
0000
0000
,
0300
0000
0000
0000
;

//---------------dance-single - ----------------
#NOTES:
     dance-single:
     :
     Medium:
     7:
     0.339186,0.428044,0.200645,0.200645,0.000000,284.000000,260.000000,24.000000,24.000000,0.000000,0.000000,0.339186,0.428044,0.200645,0.200645,0.000000,284.000000,260.000000,24.000000,24.000000,0.000000,0.000000:
0000
0000
0000
0000
,
0000
0000
0000
0000
,
0000
0000
0000
0000
,
0000
0000
0000
0000
,
1000
0100
0010
0001
,
1000
0001
1000
0001
1000
0000
1001
0000
,
0001
0010
0100
1000
,
0001
1000
0001
1000
0001
0000
1001
0000
,
2000
3010
0200
0301
,
2000
3100
0020
0031
,
2000
3010
0002
0013
,
0200
0310
1001
1001
,
2000
0100
0001
3100
,
1000
0010
0100
0001
,
1000
0001
2000
0000
0010
0000
0100
0000
,
3001
0000
0010
0000
0100
0000
1000
0010
,
0200
0001
0010
0301
,
0010
0001
0100
0010
,
1000
0002
0000
0000
0000
0000
0000
0000
,
0013
0100
0010
0100
1000
0001
1000
0001
,
0010
0000
0000
0000
0000
0000
0001
0100
,
0010
0000
1000
0000
0001
0000
0010
0100
,
1000
0000
0000
0000
0000
0000
0001
0100
,
0010
0000
1000
0000
0100
0000
0001
0100
,
1000
0000
0010
0000
0100
0000
0001
0010
,
1000
0000
0010
0000
0001
0000
0100
0010
,
2000
0000
0000
3020
,
0230
0000
0000
0000
,
0000
0000
0000
0301
,
1002
0010
0103
0001
,
0010
0100
0010
0100
1000
0000
0001
0100
,
0001
0000
1000
0100
1000
0000
0001
1000
,
0002
0010
0103
0001
,
2001
0100
3010
1000
,
0100
0010
0100
0010
0001
0000
1000
0010
,
1000
0000
0001
0010
0001
0000
1000
0001
,
2000
0100
3010
1000
,
0001
0000
0010
0100
0000
1000
0001
2000
,
0000
0000
0000
3000
,
0001
0000
0100
0010
0000
1000
0001
2000
,
0000
0000
0000
3000
,
0001
0001
0100
0100
,
1000
1000
0010
0010
,
0001
0100
0001
0100
0010
1000
0010
2000
,
0000
3000
0001
1000
,
2002
0000
0000
3003
,
1000
0100
0010
0001
,
1000
0010
0100
0001
1000
0000
1001
0000
,
0001
0010
0100
1000
,
0001
0100
0010
1000
0001
0000
1001
0000
,
1000
0100
0001
0100
,
1000
0010
0100
0001
0010
0000
0011
0000
,
0001
0100
1000
0100
,
0001
0010
0100
1000
0010
1000
0001
0000
,
1100
0000
0101
0000
1000
0100
0001
0000
,
0101
0000
1100
0000
1000
0010
0100
0000
,
0011
0000
1010
0000
0001
0010
1000
0000
,
1010
0000
0011
0000
0001
0100
0010
0000
,
1100
0000
0011
0000
0001
0100
0010
0000
,
1010
0000
0101
0000
0001
0010
0100
0000
,
1100
0000
0101
0000
1000
0100
0001
0000
,
0100
0010
0100
0010
0001
1000
0001
1000
,
0020
0000
0000
0000
,
0000
0000
0000
0000
,
0030
0000
0000
0000
;

//---------------dance-single - ----------------
#NOTES:
     dance-single:
     :
     Beginner:
     2:
     0.162427,0.214022,0.008360,0.066882,0.000000,136.000000,135.000000,1.000000,8.000000,0.000000,0.000000,0.162427,0.214022,0.008360,0.066882,0.000000,136.000000,135.000000,1.000000,8.000000,0.000000,0.000000:
0000
0000
0000
0000
,
0000
0000
0000
0000
,
0000
0000
0000
0000
,
0000
0000
0000
0000
,
1000
0000
1000
0000
,
0010
0000
0010
0000
,
0100
0000
0100
0000
,
0001
0000
0001
0000
,
1000
0000
1000
0000
,
0001
0000
0001
0000
,
0010
0000
0010
0000
,
0100
0000
0100
0100
,
1000
0000
0010
0000
,
0100
0000
0001
0000
,
1000
0000
0100
0000
,
0010
0000
0001
0000
,
1000
0000
0010
0000
,
0001
0000
0010
0000
,
1000
0000
0100
0000
,
0001
0001
0100
0100
,
1000
0000
0000
0010
,
0010
0000
0000
0100
,
0100
0000
0000
0001
,
0001
0000
0000
0010
,
0010
0000
0000
0100
,
0100
0000
0000
1000
,
1000
0000
0000
0001
,
0001
0000
0010
0000
,
0100
0000
1000
1000
,
1000
0000
0010
0000
,
0100
0100
0100
0000
,
0001
0000
1000
0000
,
0002
0000
0003
0001
,
0001
0000
0010
0000
,
0100
0000
1000
0000
,
0001
0000
1000
0000
,
0002
0000
0003
0100
,
0010
0010
0010
0010
,
0020
0000
0000
0030
,
0100
0100
0100
0100
,
0200
0000
0000
0300
,
0001
0001
0001
0001
,
0002
0000
0000
0003
,
1000
1000
1000
1000
,
1000
0000
0010
0010
,
0020
0000
0000
0030
,
1000
0000
0010
0000
,
0100
0000
0001
0000
,
1000
0000
0100
0000
,
0010
0000
0001
0000
,
1000
0000
0010
0000
,
0001
0000
0010
0000
,
1000
0000
0100
0000
,
0001
0000
0100
0000
,
1000
1000
1000
0000
,
0001
0001
0001
0000
,
0010
0010
0010
0000
,
0100
0100
0100
0000
,
1000
1000
1000
0000
,
0001
0001
0001
0000
,
0100
0100
0100
0000
,
0010
0010
0010
0000
,
2002
0000
0000
0000
,
0000
0000
0000
0000
,
3003
0000
0000
0000
;

//---------------dance-double - ----------------
#NOTES:
     dance-double:
     :
     Hard:
     10:
     0.421594,0.454796,0.217366,0.242447,0.091962,353.000000,327.000000,26.000000,29.000000,0.000000,0.000000,0.421594,0.454796,0.217366,0.242447,0.091962,353.000000,327.000000,26.000000,29.000000,0.000000,0.000000:
00000000
00000000
00000000
00000000
,
00000000
00000000
00000000
00000000
,
00000000
00000000
00000000
00000000
,
00000000
00000000
00000000
00000000
,
00012000
00103000
00010000
10000000
,
00010000
01000000
10000000
01000000
00002000
00000000
00013000
00000000
,
00021000
00030100
00001000
00000001
,
00001000
00000010
00000001
00000010
00020000
00000000
00031000
00000000
,
00100000
00000000
00010000
00000000
00000000
00010000
00000000
00000000
10000000
00000000
00100000
00000000
00000000
00100000
00000000
00000000
,
01000000
00000000
00001000
00000000
00000000
00001000
00000000
00000000
00010000
00000000
00000100
00000000
00000000
00000100
00000000
00000000
,
00001000
00000000
00000010
00000000
00000000
00000010
00000000
00000000
00000100
00000000
00000001
00000000
00000000
00000001
00000000
00000000
,
00001000
00000000
00000100
00000000
00000000
00000100
00000000
00000000
00010000
00001000
00000000
00000000
00010000
00001000
00000000
00000000
,
01020000
10000000
00100000
01030000
,
00010000
00000000
01000000
00000000
10000000
00000000
00010000
00100000
,
01000000
00002000
00010000
00000000
00100000
00000000
00013000
00000000
,
00001000
00000000
00010000
00000000
00000100
00000000
00001000
00000010
,
00000200
00000001
00001000
00000310
,
00000100
00000000
00000010
00000000
00001000
00000000
00000001
00000010
,
00001000
00000020
00000001
00000000
00000100
00000000
00001030
00000000
,
00000010
00000001
00000100
00001000
00000100
00000010
00010000
00001000
,
00011000
00000000
00000000
00000000
00000000
00000000
00100000
00010000
,
01000000
00000000
00000000
00000000
00100000
00000000
00000000
00000000
10000000
00000000
00000000
00000000
01000000
00100000
00000000
00100000
,
00000000
00000000
00000000
00000000
00000000
00000000
00001000
00010000
,
00000100
00000000
00000000
00000000
00001000
00000000
00000000
00000000
00000010
00000000
00000000
00000000
00000100
00000001
00000000
00000001
,
00000000
00000000
00000010
00000000
00000100
00000000
00010000
00001000
,
00010000
00000000
00000000
00000000
00100000
00000000
00000000
00000000
10000000
00000000
00000000
00000000
00010000
10000000
00000000
00000000
,
02000000
00100000
03100000
00020000
,
20030000
30100000
00020000
00031000
,
00000100
00000010
00001000
00000100
00010000
00001000
00100000
00001000
,
00012000
00000000
01000000
00000000
00013000
00000000
00001000
00010000
,
00100000
10000000
00100000
00010000
00001000
00000000
00000010
00000001
,
00000100
00000000
00000010
00001000
00000100
00000000
00010000
00001000
,
00020000
00100000
00031000
00010000
,
00021000
00000000
00000010
00000000
00031000
00000000
00010000
00001000
,
00000100
00000001
00000100
00001000
00010000
00000000
01000000
10000000
,
00100000
00000000
01000000
00010000
00100000
00000000
00001000
00010000
,
00002000
00000100
00013000
00011000
,
00001000
00010000
00100000
10000000
00000000
00010000
10000000
00020000
,
00000000
00130000
00002000
00013000
,
00000100
00001000
00000010
00000001
00000000
00000010
00001000
00000002
,
00000000
00000000
00000013
00000000
00002000
00000010
00003010
00000001
,
00001000
00000010
00001000
00000010
00000100
00001000
00000100
00001000
,
00010000
00100000
00010000
00100000
10000000
01000000
10000000
01000000
,
00010000
00001000
00010000
01000000
10000000
00100000
01000000
00020000
,
00000000
00030000
11000000
01010000
,
20020000
00000000
30030000
00000000
10000000
00100000
00010000
00100000
,
10100000
00000000
00000000
00000000
01010000
00000000
00000000
00000000
00200000
00000000
00000000
00001000
00000000
00301000
00000000
00000000
,
00010000
00000100
00001000
00000010
00000100
00000000
00001001
00000000
,
00000101
00000000
00000000
00000000
00001010
00000000
00000000
00000000
00000200
00000000
00000000
00010000
00000000
00010300
00000000
00000000
,
00001000
00100000
00010000
01000000
00100000
00000000
10010000
00000000
,
11000000
00000000
00000000
00000000
01010000
00000000
00000000
00000000
20000000
00000000
00000000
00010000
00000000
30010000
00000000
00000000
,
10000000
00100000
00010000
00001000
00000100
00000000
00001001
00000000
,
00000011
00000000
00000000
00000000
00001010
00000000
00000000
00000000
00000002
00000000
00000000
00001000
00000000
00001003
00000000
00000000
,
00000001
00000100
00001000
00010000
00100000
00000000
10010000
00000000
,
10000000
01000000
00010000
00001000
00010000
01000000
10000000
00000000
,
00010000
01000000
10000000
01000000
00001000
00010000
00011000
00000000
,
00001000
00000010
00000001
00000100
00001000
00010000
00001000
00000000
,
00010000
00100000
01000000
00001000
00010000
00000100
00001001
00000000
,
00000001
00000010
00001000
00010000
00001000
00000010
00000001
00000000
,
00001000
00000010
00000001
00000010
00010000
00001000
00011000
00000000
,
00010000
01000000
10000000
00100000
00010000
00001000
00010000
00000000
,
00001000
00000100
00000010
00010000
00001000
00100000
00010000
10000000
,
20020000
00000000
00000000
00000000
,
00000000
00000000
00000000
00000000
,
30030000
00000000
00000000
00000000
;

//---------------dance-double - ----------------
#NOTES:
     dance-double:
     :
     Easy:
     5:
     0.266333,0.294280,0.050161,0.083602,0.000000,223.000000,217.000000,6.000000,10.000000,0.000000,0.000000,0.266333,0.294280,0.050161,0.083602,0.000000,223.000000,217.000000,6.000000,10.000000,0.000000,0.000000:
00000000
00000000
00000000
00000000
,
00000000
00000000
00000000
00000000
,
00000000
00000000
00000000
00000000
,
00000000
00000000
00000000
00000000
,
00010000
00001000
00010000
00001000
,
00100000
00010000
00100000
00010000
,
10000000
00100000
10000000
00100000
,
01000000
00010000
00100000
00001000
,
00010000
00000000
00000100
00000000
,
00001000
00000000
00000010
00000000
,
00000100
00000000
00000001
00000000
,
00001000
00000000
00000100
00000000
,
00000100
00010000
00001000
00010000
,
00001000
00010000
00000100
00010000
,
00000100
00001000
00000010
00001000
,
00000010
00000100
00000001
00000100
,
00000001
00001000
00000100
00001000
,
00000100
00000001
00000100
00000001
,
00000100
00001000
00000010
00010000
,
00001000
00100000
00010000
10000000
,
01000000
00000000
00000000
00100000
,
00100000
00001000
00010000
00000100
,
00001000
00000000
00000000
00000010
,
00000010
00000100
00000001
00001000
,
00000100
00010000
00000100
00010000
,
00001000
00100000
00001000
00100000
,
00010000
01000000
10000000
01000000
,
00010000
00100000
10000000
00100000
,
00010000
01000000
00001000
00010000
,
00002000
00010000
00013000
00001000
,
00000010
00000001
00000100
00000001
,
00000001
00001000
00001000
00000100
,
00020000
00001000
00031000
00100000
,
00020000
01000000
01030000
00010000
,
01000000
10000000
01000000
00001000
,
00001000
00010000
00010000
00000100
,
00000200
00000010
00000310
00000001
,
00001000
00001000
00000001
00000001
,
00000200
00000300
00000010
00000010
,
00010000
00001000
00010000
00001000
,
00200000
00300000
00010000
00010000
,
10000000
00100000
00010000
00100000
,
10000000
01000000
00010000
01000000
,
10000000
00100000
00010000
00001000
,
00000200
00000300
00000010
00001000
,
00000002
00000000
00000010
00001003
,
00000001
00000100
00001000
00000100
,
00000010
00010000
00001000
00100000
,
00010000
01000000
10000000
01000000
,
00010000
00100000
01000000
10010000
,
10000000
00100000
00010000
00100000
,
01000000
00001000
00010000
00000100
,
00001000
00000010
00000001
00000010
,
00001000
00000100
00000010
00001001
,
00000001
00000010
00001000
00001000
,
00010000
01000000
10000000
10010000
,
10000000
00100000
00010000
00010000
,
00001000
00000100
00000001
00001001
,
00000001
00000010
00001000
00010000
,
00000100
00001000
00000001
00001001
,
00000001
00000100
00001000
00010000
,
01000000
10000000
00001000
00010000
,
00022000
00000000
00000000
00000000
,
00000000
00000000
00000000
00000000
,
00033000
00000000
00000000
00000000
;

//---------------dance-double - ----------------
#NOTES:
     dance-double:
     :
     Medium:
     7:
     0.369044,0.401291,0.133764,0.250807,0.000000,309.000000,293.000000,16.000000,30.000000,0.000000,0.000000,0.369044,0.401291,0.133764,0.250807,0.000000,309.000000,293.000000,16.000000,30.000000,0.000000,0.000000:
00000000
00000000
00000000
00000000
,
00000000
00000000
00000000
00000000
,
00000000
00000000
00000000
00000000
,
00000000
00000000
00000000
00000000
,
00001000
00010000
01000000
10000000
,
00010000
10000000
00010000
00000000
00100000
00000000
00011000
00000000
,
00010000
00001000
00000010
00000001
,
00001000
00000001
00001000
00000000
00000100
00000000
00011000
00000000
,
00200000
00310000
02000000
03010000
,
00200000
00301000
00020000
00030100
,
00002000
00003010
00000002
00000013
,
00010000
00001000
00011000
00011000
,
00200000
00010000
00310000
00100000
,
00010000
01000000
00100000
10000000
,
00010000
10000000
00020000
00000000
00100000
00000000
01030000
00000000
,
00010000
00000000
00100000
00000000
00001000
00000000
00010000
00000100
,
00002000
00000010
00000001
00003100
,
00001000
00000010
00000001
00000010
,
00000100
00000001
00002000
00000000
00000010
00000000
00003001
00000000
,
00001000
00000010
00000100
00000000
00000001
00001000
00000100
00010000
,
00011000
00000000
00000000
00000000
00000000
00000000
00100000
00010000
,
01000000
00000000
00100000
00000000
10000000
00000000
01000000
00010000
,
01000000
00000000
00000000
00000000
00000000
00000000
10000000
00010000
,
10000000
00000000
00100000
00000000
00010000
00000000
00100000
01000000
,
00100000
00000000
10000000
00000000
00010000
00000000
00100000
00001000
,
00010000
00000000
00000100
00000000
00001000
00000000
00000010
00000100
,
00000002
00000010
00001003
00000001
,
00000200
00001300
00000200
00000310
,
00001000
00000100
00010000
00001000
00100000
00010000
10000000
00100000
,
02000000
00100000
03100000
10000000
,
00010000
00100000
00001000
00010000
00000100
00000000
00001000
00000010
,
00001000
00000000
00000001
00000010
00000001
00000000
00001000
00000001
,
00002000
00000010
00003100
00001000
,
00000002
00000100
00001003
00000001
,
00000100
00001000
00010000
00100000
01000000
00000000
00010000
00100000
,
00010000
00000000
10000000
00100000
10000000
00000000
00010000
10000000
,
00020000
00130000
02000000
13000000
,
00010000
01000000
00001000
00100000
00000000
00001000
00010000
00000200
,
00000000
00000310
00000002
00001003
,
00001000
00000010
00010000
00000100
00000000
00010000
00001000
00200000
,
00000000
01300000
20000000
30010000
,
10000000
00100000
10000000
00000000
00100000
00010000
00100000
00000000
,
00010000
00001000
00010000
00000000
00001000
00000100
00001000
00000000
,
00000100
00000001
00000100
00000000
00000001
00001000
00000001
00002000
,
00000000
00003000
00001010
00000011
,
00002002
00000000
00003003
00000000
00000001
00000100
00001000
00000100
,
00000010
00001010
00002000
00003100
,
00010000
00001000
00100000
00010000
10000000
00000000
10100000
00000000
,
01000000
01010000
00020000
00130000
,
00001000
00010000
00000100
00001000
00000001
00000000
00000101
00000000
,
00001000
00001001
00000002
00000103
,
00000010
00010000
00001000
00100000
00010000
00000000
10010000
00000000
,
00010000
10010000
20000000
30100000
,
01000000
00001000
00010000
00000100
00001000
00000000
00001001
00000000
,
00000001
00000100
00000001
00000000
00000100
00001000
00000100
00000000
,
00001000
00010000
00001000
00000000
00010000
00100000
10000000
00000000
,
10000000
00100000
10000000
00000000
00100000
00010000
00100000
00000000
,
00010000
00001000
00010000
00000000
00001000
00000100
00000001
00000000
,
00000010
00000100
00001000
00000000
00000010
00000100
00000001
00000000
,
00001000
00000100
00010000
00000000
00001000
00100000
00010000
00000000
,
01000000
00100000
10000000
00000000
01000000
00100000
00010000
00000000
,
10000000
00100000
01000000
00001000
00010000
00000100
00001000
00000010
,
00000200
00000000
00000000
00000000
,
00000000
00000000
00000000
00000000
,
00000300
00000000
00000000
00000000
;
