#VERSION:0.83;
#TITLE:Funny shuffle;
#SUBTITLE:;
#ARTIST:猫叉Master+;
#TITLETRANSLIT:;
#SUBTITLETRANSLIT:;
#ARTISTTRANSLIT:Nekomata Master+;
#GENRE:JAG GLITCH;
#ORIGIN:;
#CREDIT:;
#BANNER:Funny shuffle.png;
#BACKGROUND:Funny shuffle-bg.png;
#PREVIEWVID:;
#JACKET:Funny shuffle-jacket.png;
#CDIMAGE:;
#DISCIMAGE:;
#LYRICSPATH:;
#CDTITLE:;
#MUSIC:Funny shuffle.mp3;
#OFFSET:-0.393209;
#SAMPLESTART:25.399988;
#SAMPLELENGTH:15.620000;
#SELECTABLE:YES;
#BPMS:0.000=115.000;
#STOPS:;
#DELAYS:;
#WARPS:;
#TIMESIGNATURES:0.000=4=4;
#TICKCOUNTS:0.000=4;
#COMBOS:0.000=1;
#SPEEDS:0.000=1.000=0.000=0;
#SCROLLS:0.000=1.000;
#FAKES:;
#LABELS:0.000=Song Start;
#BGCHANGES:;
#KEYSOUNDS:;
#ATTACKS:
;

//---------------dance-single - ----------------
#NOTEDATA:;
#CHARTNAME:;
#STEPSTYPE:dance-single;
#DESCRIPTION:;
#CHARTSTYLE:;
#DIFFICULTY:Hard;
#METER:12;
#RADARVALUES:0.603329,0.729854,0.582524,0.300971,0.334951,435.000000,375.000000,60.000000,31.000000,0.000000,0.000000,0.000000,0.000000,0.000000,0.603329,0.729854,0.582524,0.300971,0.334951,435.000000,375.000000,60.000000,31.000000,0.000000,0.000000,0.000000,0.000000,0.000000;
#CREDIT:;
#NOTES:
0000
0000
0000
0000
,
0000
0000
0000
0000
,
0000
0000
0000
0000
,
0000
0000
0000
0000
0000
0000
1001
1001
,
1000
0000
0000
0001
0000
0000
0100
0000
0000
0001
0000
0000
1000
0000
0000
0001
0000
0010
0000
0000
0010
0000
0000
0000
,
0001
0000
0000
1000
0000
0000
0010
0000
0000
1000
0000
0000
0001
0000
0000
1000
0000
0100
0000
0000
0100
0000
0000
0000
,
1000
0000
0000
0010
0000
0000
0001
0000
0000
0010
0000
0000
0100
0000
0000
0001
0000
1000
0000
0000
1000
0000
0000
0000
,
1100
0001
0101
1000
1001
0110
2002
3003
,
0001
0000
0000
0010
0000
0000
1000
0000
0000
0001
0000
0000
0100
0000
0000
1000
0000
0001
0000
0000
0001
0000
0000
0000
,
1000
0000
0000
0010
0000
0000
0001
0000
0000
1000
0000
0000
0100
0000
0000
0001
0000
1000
0000
0000
1000
0000
0000
0000
,
0001
0000
0000
0010
0000
0000
1000
0000
0000
0100
0000
0000
1000
0000
0000
0010
0000
0001
0000
0000
0001
0000
0000
0000
,
0011
1000
1010
0001
1001
0001
0100
0010
,
1000
1000
0100
0100
0001
0001
0100
1000
,
0001
0001
0100
0100
1000
1000
0100
0001
,
1000
1000
0010
0010
0001
0001
0010
1000
,
0001
0010
1000
1000
0001
0100
1000
1000
,
0001
0100
1010
0010
0100
0001
0101
0001
,
1000
0100
0011
0001
0010
0100
1100
1000
,
0010
0100
1001
0001
0010
0100
1001
1000
,
0001
0000
0000
0100
0000
0000
1000
0000
0000
0100
0000
0000
0001
0000
0000
0010
0000
0001
0000
0000
1001
0000
0000
0000
,
1000
0000
0000
0010
0000
1000
0000
0000
1001
0000
0000
0000
0001
0000
0000
0010
0000
0200
0000
0000
0000
0000
0000
0000
,
0000
0000
0000
0000
0000
0000
0300
0000
0000
0000
0000
1000
0001
0000
0000
0100
0000
0000
0010
0000
0000
1000
0000
0000
,
2100
0000
0000
0001
0000
0000
0010
0000
3010
0000
0000
0000
0102
0000
0000
1000
0000
0000
0010
0000
0013
0000
0000
0000
,
0011
0000
0000
0001
0000
0000
1001
0000
0000
1000
0000
1000
0010
0000
0000
0010
0000
0000
0100
0000
0000
0001
0000
0000
,
0012
0000
0000
1000
0000
0000
0100
0000
0103
0000
0000
0000
2010
0000
0000
0001
0000
0000
0100
0000
3100
0000
0000
0000
,
1100
0000
0000
1000
0000
1000
0001
0000
0000
0100
0000
0000
0010
0000
0010
1000
0000
1000
0001
0000
0000
0000
0000
0000
,
0102
0000
0000
1000
0000
0000
0010
0000
0013
0000
0000
0000
2100
0000
0000
0001
0000
0000
0010
0000
3010
0000
0000
0000
,
1010
1000
1001
0001
0101
0110
0010
1000
,
2010
0000
0000
0001
0000
0000
0100
0000
3100
0000
0000
0000
0012
0000
0000
1000
0000
0000
0103
0000
0000
0001
0000
0000
,
0011
0000
0000
0010
0000
0010
0100
0000
0100
1000
0000
1000
0001
0000
0000
0100
0000
0000
0010
0000
0000
1000
0000
0000
,
0001
1000
0002
0103
0020
0130
2000
3100
,
0020
0000
0000
0100
0000
0000
0130
0000
0000
0001
0000
0001
2000
0000
0000
3100
0000
0000
0002
0000
0000
0103
0000
0000
,
1000
0001
2000
3010
0200
0310
0002
0013
,
0200
0000
0000
0010
0000
0000
0310
0000
0000
1000
0000
1000
0002
0000
0000
0013
0000
0000
2000
0000
0000
3010
0000
0000
,
0001
0000
0000
0100
0000
0000
2010
0000
0000
3001
0000
0001
1000
0000
0000
0100
0000
0000
0012
0000
0000
1003
0000
1000
,
0010
0100
0101
0001
0010
0100
1100
1000
,
0001
0000
0000
0010
0000
0000
1020
0000
0000
0031
0000
0001
0100
0000
0000
0010
0000
0000
2010
0000
0000
3100
0000
0100
,
0001
0000
0000
0100
0000
0000
1000
0000
0000
0001
0000
0000
1000
0000
1000
0010
0000
0010
0100
0000
0100
0001
0000
0001
,
2000
0000
0100
0000
3001
0000
1100
1001
,
0002
0000
0100
0000
1003
0011
0101
1001
,
1000
0010
0110
0100
0001
1000
1001
0001
,
1000
0000
0000
0100
0000
0000
0010
0000
0010
0001
0000
0000
1000
0000
0000
0010
0000
0000
0100
0000
0100
0001
0000
0001
,
1000
0000
0000
1100
0000
0000
1000
0000
0000
1100
0000
0000
0001
0000
0000
0101
0000
0000
0001
0000
0001
1000
0000
1000
,
0001
0000
0000
0011
0000
0000
0001
0000
0000
0011
0000
0000
1000
0000
0000
1010
0000
0000
1000
0000
1000
0001
0000
0001
,
1000
0000
0000
1010
0000
0000
0010
0000
0000
0011
0000
0000
0001
0000
0000
0101
0000
0000
0100
0000
0100
1000
0000
1000
,
0001
0000
0001
0100
0000
0100
0010
0000
0010
1000
0000
1000
0001
0000
0010
0100
0000
1000
0000
0000
1001
0000
0000
1000
,
0010
0000
0100
0001
0000
1000
0000
0000
1001
0000
0000
0001
0010
0000
1000
0010
0000
0100
0000
0000
1100
0000
0000
1000
,
0010
0000
0001
0010
0000
2002
0000
0000
0000
0000
0000
0000
0000
0000
0000
0000
0000
0000
0000
0000
0000
0000
0000
0000
,
0000
0000
3003
0000
;

//---------------dance-single - ----------------
#NOTEDATA:;
#CHARTNAME:;
#STEPSTYPE:dance-single;
#DESCRIPTION:;
#CHARTSTYLE:;
#DIFFICULTY:Easy;
#METER:5;
#RADARVALUES:0.233010,0.234223,0.019417,0.029126,0.000000,168.000000,166.000000,2.000000,3.000000,0.000000,0.000000,0.000000,0.000000,0.000000,0.233010,0.234223,0.019417,0.029126,0.000000,168.000000,166.000000,2.000000,3.000000,0.000000,0.000000,0.000000,0.000000,0.000000;
#CREDIT:;
#NOTES:
0000
0000
0000
0000
,
0000
0000
0000
0000
,
0000
0000
0000
0000
,
0000
0000
0000
0000
,
1000
0100
1000
0100
,
0010
0001
0010
0001
,
1000
0010
1000
0010
,
0100
0100
0001
1001
,
0001
0010
0001
0010
,
0100
1000
0100
1000
,
0001
0100
0001
0100
,
0010
0010
1000
1000
,
0001
0001
0001
0010
,
1000
1000
1000
0010
,
0001
0001
0001
0100
,
1000
0100
0010
1000
,
0001
0001
0001
0010
,
1000
1000
1000
0010
,
0001
0001
0001
0100
,
1000
0001
0010
0010
,
0100
0100
0001
2000
,
0000
0000
3000
0000
,
0010
0010
0100
0100
,
0001
0010
1000
0010
,
0100
0100
0010
0010
,
0001
0100
1000
0100
,
0001
0001
0010
0010
,
1000
0001
0100
1000
,
0001
0001
0100
0100
,
1000
0001
0010
1000
,
0000
0001
0010
0100
,
1000
1000
0001
0001
,
0000
1000
0010
0100
,
0001
0001
1000
1000
,
0000
0001
0010
1000
,
0010
0010
0100
0100
,
0000
1000
0010
0001
,
0010
0010
0100
0100
,
0001
0001
0001
0010
,
1000
1000
1000
0010
,
0001
0001
0001
0100
,
1000
1000
0100
0010
,
1000
1000
0100
0100
,
0001
0001
1000
1000
,
0010
0010
0001
0001
,
0100
0010
1000
1000
,
0001
0001
0010
0010
,
0100
2002
0000
0000
,
0000
3003
0000
0000
;

//---------------dance-single - ----------------
#NOTEDATA:;
#CHARTNAME:;
#STEPSTYPE:dance-single;
#DESCRIPTION:;
#CHARTSTYLE:;
#DIFFICULTY:Medium;
#METER:9;
#RADARVALUES:0.414702,0.400243,0.174757,0.135922,0.000000,299.000000,281.000000,18.000000,14.000000,0.000000,0.000000,0.000000,0.000000,0.000000,0.414702,0.400243,0.174757,0.135922,0.000000,299.000000,281.000000,18.000000,14.000000,0.000000,0.000000,0.000000,0.000000,0.000000;
#CREDIT:;
#NOTES:
0000
0000
0000
0000
,
0000
0000
0000
0000
,
0000
0000
0000
0000
,
0000
0000
0000
0000
0000
0000
1000
1000
,
0001
0000
0100
0000
0010
1000
0010
1000
,
0001
0000
0010
0000
0100
1000
0100
1000
,
0001
0000
0100
0000
1000
0100
1000
0100
,
0010
0000
1000
0000
0001
1000
1001
0000
,
1000
0000
0100
0000
0010
0001
1000
0001
,
0100
0000
0010
0000
1000
0010
1000
0001
,
1000
0000
0100
0000
0010
0001
0100
1000
,
0100
0100
0010
0010
1000
0001
1000
0001
,
1000
1000
1000
1000
1000
1000
0010
0000
,
0100
0100
0100
0100
0100
0100
0001
0000
,
0010
0010
0010
0010
0010
0010
0100
0000
,
1000
0010
1100
0000
0001
0010
0101
0000
,
0001
0001
0001
0001
0001
0001
0010
0000
,
0100
0100
0100
0100
0100
0100
1000
0000
,
0001
0001
0001
0001
0001
0001
0100
0000
,
0010
1000
0100
0001
0100
1000
0002
0003
,
0100
0001
2000
3000
0100
1000
0002
0000
,
0000
0000
0000
0003
0000
0000
0000
0000
,
1000
0010
1010
0000
0001
0010
0011
0000
,
0001
0010
0100
1000
0001
0001
0001
0000
,
1000
0100
1100
0000
0001
0100
0101
0000
,
1000
0010
0100
0001
1000
1000
1000
0000
,
0001
0010
1100
0000
1000
0010
0101
0000
,
0001
0100
1000
0100
0010
1000
0001
0000
,
1000
0100
0011
0000
1000
0010
0101
0000
,
0001
0010
1000
0010
0100
0100
1000
1000
,
0001
0100
1000
0100
,
0020
0000
1030
0001
1001
0000
1001
0000
,
0001
0010
1000
0010
,
0002
0000
0103
0010
1010
0000
1001
0000
,
1000
1000
0200
0000
0301
0001
0200
0000
,
1300
0010
0100
0001
0101
0000
1001
0000
,
0001
0001
0020
0000
1030
1000
0020
0000
,
0031
0100
1000
0100
0010
1000
1000
1000
,
0001
0001
0001
0001
0001
0001
0010
0100
,
1000
1000
1000
1000
1000
1000
0010
0100
,
0001
0001
0001
0001
0001
0001
0100
0010
,
1000
0001
0010
0010
0001
1000
0010
0010
,
1000
0100
1000
0100
0001
0100
1000
1000
,
0001
0100
0001
0100
1000
0100
0001
0001
,
1000
0010
1000
0010
0001
0010
1000
1000
,
0001
0010
0100
1000
0010
0100
0002
0003
,
0010
0100
2000
3000
0010
1000
0002
0003
,
0010
0001
2002
0000
0000
0000
0000
0000
,
0000
0000
3003
0000
;

//---------------dance-single - ----------------
#NOTEDATA:;
#CHARTNAME:;
#STEPSTYPE:dance-single;
#DESCRIPTION:;
#CHARTSTYLE:;
#DIFFICULTY:Beginner;
#METER:4;
#RADARVALUES:0.155340,0.182524,0.009709,0.000000,0.000000,112.000000,111.000000,1.000000,0.000000,0.000000,0.000000,0.000000,0.000000,0.000000,0.155340,0.182524,0.009709,0.000000,0.000000,112.000000,111.000000,1.000000,0.000000,0.000000,0.000000,0.000000,0.000000,0.000000;
#CREDIT:;
#NOTES:
0000
0000
0000
0000
,
0000
0000
0000
0000
,
0000
0000
0000
0000
,
0000
0000
0000
0000
,
1000
0000
0010
0000
,
0100
0000
0001
0000
,
1000
0000
0100
0000
,
0010
0010
0010
0000
,
0100
0000
1000
0000
,
0010
0000
0100
0000
,
0001
0000
0010
0000
,
0001
0001
0001
0000
,
0100
0000
0100
0000
,
0010
0000
0010
0000
,
1000
0000
1000
0000
,
0001
0000
0001
0001
,
0001
0000
0001
0000
,
0010
0000
0010
0000
,
0100
0000
0100
0000
,
1000
0000
0001
0000
,
0100
0000
0010
0010
,
0000
0000
0000
0000
,
1000
0000
0001
0000
,
0100
0100
0100
0000
,
0001
0000
1000
0000
,
0100
0100
0100
0000
,
1000
0000
0001
0000
,
0010
0010
0010
0000
,
0001
0000
1000
0000
,
0010
0010
0010
0000
,
0000
1000
1000
1000
,
1000
0000
0001
0001
,
0000
0100
0100
0100
,
0100
0000
0010
0010
,
0000
1000
1000
1000
,
1000
0000
0010
0010
,
0000
0100
0100
0100
,
0100
0000
0001
0001
,
1000
1000
1000
0000
,
0001
0001
0001
0000
,
0010
0010
0010
0000
,
0100
0100
0100
0000
,
1000
1000
1000
1000
,
1000
1000
1000
0000
,
0001
0001
0001
0001
,
0001
0001
0001
0000
,
1000
0000
0001
0000
,
1001
0000
0000
0000
;

//---------------dance-double - ----------------
#NOTEDATA:;
#CHARTNAME:;
#STEPSTYPE:dance-double;
#DESCRIPTION:;
#CHARTSTYLE:;
#DIFFICULTY:Hard;
#METER:12;
#RADARVALUES:0.539528,0.635680,0.601942,0.252427,0.150485,389.000000,327.000000,62.000000,26.000000,0.000000,0.000000,0.000000,0.000000,0.000000,0.539528,0.635680,0.601942,0.252427,0.150485,389.000000,327.000000,62.000000,26.000000,0.000000,0.000000,0.000000,0.000000,0.000000;
#CREDIT:;
#NOTES:
// measure 0
00000000
00000000
00000000
00000000
,  // measure 1
00000000
00000000
00000000
00000000
,  // measure 2
00000000
00000000
00000000
00000000
,  // measure 3
00000000
00000000
00000000
00000000
00000000
00000000
00011000
00011000
,  // measure 4
00001000
00000000
00000000
00100000
00000000
00000000
00001000
00000000
00000000
00010000
00000000
00000000
00001000
00000000
00000000
01000000
00000000
00100000
00000000
00000000
00100000
00000000
00000000
00000000
,  // measure 5
10000000
00000000
00000000
00100000
00000000
00000000
00010000
00000000
00000000
00001000
00000000
00000000
00000010
00000000
00000000
00000001
00000000
00001000
00000000
00000000
00001000
00000000
00000000
00000000
,  // measure 6
00000001
00000000
00000000
00000100
00000000
00000000
00001000
00000000
00000000
00010000
00000000
00000000
01000000
00000000
00000000
10000000
00000000
00010000
00000000
00000000
00010000
00000000
00000000
00000000
,  // measure 7
20000000
30100000
00020000
00130000
01010000
01001000
00022000
00033000
,  // measure 8
00010000
00000000
00000000
00000100
00000000
00000000
00010000
00000000
00000000
00001000
00000000
00000000
00010000
00000000
00000000
00000010
00000000
00000100
00000000
00000000
00000100
00000000
00000000
00000000
,  // measure 9
00000001
00000000
00000000
00000100
00000000
00000000
00001000
00000000
00000000
00010000
00000000
00000000
01000000
00000000
00000000
10000000
00000000
00010000
00000000
00000000
00010000
00000000
00000000
00000000
,  // measure 10
10000000
00000000
00000000
00100000
00000000
00000000
00010000
00000000
00000000
00001000
00000000
00000000
00000010
00000000
00000000
00000001
00000000
00001000
00000000
00000000
00001000
00000000
00000000
00000000
,  // measure 11
00000002
00000103
00002000
00003100
00000001
00001000
00000100
00010000
,  // measure 12
00001000
00001000
00001000
00001000
00001000
00001000
00100000
00010000
,  // measure 13
10000000
10000000
10000000
10000000
10000000
10000000
00100000
01000000
,  // measure 14
00010000
00010000
00010000
00010000
00010000
00010000
01000000
10000000
,  // measure 15
01000000
01000000
00100000
10000000
00001000
00001000
00010000
00000100
,  // measure 16
00000010
00000010
00000010
00000010
00000010
00000010
00000001
00000100
,  // measure 17
00001000
00001000
00001000
00001000
00001000
00001000
00010000
00100000
,  // measure 18
01000000
01000000
01000000
01000000
01000000
01000000
00001000
00010000
,  // measure 19
00000100
00000000
00000000
00001000
00000000
00000000
00000010
00000000
00000000
00000100
00000000
00000000
00000001
00000000
00000000
00001000
00000000
00000100
00000000
00000000
00001100
00000000
00000000
00000000
,  // measure 20
00001000
00000000
00000000
00000010
00000000
00000100
00000000
00000000
00000101
00000000
00000000
00000000
00000001
00000000
00000000
00001000
00000000
00000200
00000000
00000000
00000000
00000000
00000000
00000000
,  // measure 21
00000000
00000000
00000300
00000000
00010000
00001000
00100000
00010000
,  // measure 22
10020000
00100000
01030000
00000000
20010000
00100000
31000000
00000000
,  // measure 23
10100000
00100000
00110000
00100000
01000000
01000000
00001000
00010000
,  // measure 24
00021000
00000100
00031000
00000000
00012000
01000000
00013000
00000000
,  // measure 25
00011000
00011000
00001010
00001010
00000010
00000001
00001000
00000000
,  // measure 26
00000102
00000010
00001003
00000000
00002100
00000010
00003001
00000000
,  // measure 27
00001100
00001100
00000101
00000101
00010000
00001000
00100000
00010000
,  // measure 28
00120000
10000000
01030000
00000000
20100000
00010000
31000000
10000000
,  // measure 29
00010000
00000000
00000000
01000000
00000000
00000000
10000000
00000000
10000000
00000000
10000000
00000000
00010000
00000000
00000000
00100000
00000000
00000000
01000000
00000000
00000000
00001000
00000000
00000000
,  // measure 30
00020000
00000010
00001000
00030200
,  // measure 31
00000320
00000000
00000031
00000100
00002000
00000000
00003200
00000000
,  // measure 32
00000301
00002000
00000100
00000001
,  // measure 33
00003020
00000000
00000000
00000000
00000000
00000000
00010030
00000000
00000000
00001000
00000000
00000000
00100000
00000000
00000000
00110000
00000000
00000000
00000000
00000000
11000000
00000000
00000000
00000000
,  // measure 34
10000000
00100000
00110000
00010000
00100000
10000000
10010000
10000000
,  // measure 35
01000000
00010000
00011000
00001000
00000100
00000010
00001010
00001000
,  // measure 36
00000001
00000100
00001100
00001000
00000100
00000001
00001001
00000001
,  // measure 37
00000010
00000000
00000000
00001000
00000000
00000000
00011000
00000000
00000000
00010000
00000000
00000000
00100000
00000000
00000000
10000000
00000000
00000000
00010000
00000000
01000000
00010000
00000000
10000000
,  // measure 38
01000000
01000000
01000000
01000000
01000000
01000000
00011000
00011000
,  // measure 39
00000010
00000010
00000010
00000010
00000010
00000011
00001010
00001001
,  // measure 40
00000001
00000001
00000001
00000001
00000001
00000001
00001100
00011000
,  // measure 41
00100000
00100000
01010000
11000000
00100000
01010000
11000000
10010000
,  // measure 42
10000000
10100000
00100000
00110000
00100000
01100000
01000000
01001000
,  // measure 43
00001000
00011000
00010000
00010100
00000100
00000110
00000010
00000011
,  // measure 44
00000001
00000101
00000100
00001100
00001000
00011000
00010000
01010000
,  // measure 45
01000000
00000000
00000000
10000000
00000000
00000000
00100000
00000000
00000000
01000000
00000000
00000000
00020000
00000000
00000000
10000000
00000000
10030000
00000000
00000000
01100000
00000000
00000000
00000000
,  // measure 46
20000000
00000000
00000000
00010000
00000000
30010000
00000000
00000000
10010000
00000000
00000000
00000000
00001000
00000000
00000000
00010000
00000000
00000100
00000000
00000000
00001100
00000000
00000000
00001000
,  // measure 47
00000010
00000000
00000100
00000001
00000000
00002002
00000000
00000000
00000000
00000000
00000000
00000000
00000000
00000000
00000000
00000000
00000000
00000000
00000000
00000000
00000000
00000000
00000000
00000000
,  // measure 48
00000000
00000000
00003003
00000000
;

//---------------dance-double - ----------------
#NOTEDATA:;
#CHARTNAME:;
#STEPSTYPE:dance-double;
#DESCRIPTION:;
#CHARTSTYLE:;
#DIFFICULTY:Easy;
#METER:5;
#RADARVALUES:0.241331,0.258981,0.077670,0.077670,0.000000,174.000000,166.000000,8.000000,8.000000,0.000000,0.000000,0.000000,0.000000,0.000000,0.241331,0.258981,0.077670,0.077670,0.000000,174.000000,166.000000,8.000000,8.000000,0.000000,0.000000,0.000000,0.000000,0.000000;
#CREDIT:;
#NOTES:
00000000
00000000
00000000
00000000
,
00000000
00000000
00000000
00000000
,
00000000
00000000
00000000
00000000
,
00000000
00000000
00000000
00000000
,
00001000
00100000
00001000
00100000
,
01000000
10000000
01000000
10000000
,
00010000
01000000
00001000
00010000
,
00000100
00000100
00000010
00001001
,
00000001
00000100
00000001
00001000
,
00000010
00010000
00000010
00001000
,
00000100
00010000
00001000
00100000
,
00010000
10000000
01000000
01000000
,
10000000
10000000
10000000
00100000
,
00010000
00010000
00010000
00100000
,
01000000
01000000
01000000
00001000
,
00010000
00010000
00001000
00011000
,
00010000
00010000
00010000
00000100
,
00001000
00001000
00001000
00000010
,
00000100
00000100
00000100
00000001
,
00001000
00000100
00000001
00000001
,
00000100
00000100
00010000
00022000
,
00000000
00033000
00000000
00000000
,
00010000
00010000
01000000
01000000
,
10000000
10000000
00010000
10010000
,
10000000
10000000
00100000
00100000
,
00010000
00001000
00000100
00000110
,
00000010
00000010
00001000
00001000
,
00000001
00000010
00001000
00001010
,
00000010
00000010
00000001
00000001
,
00001000
00000100
00010000
00011000
,
00000000
00001000
01000000
00100000
,
20000000
00000000
00010000
30010000
,
00000000
10000000
01000000
00100000
,
00002000
00000000
00010000
00013000
,
00001000
00010000
00000100
00001000
,
00000010
00000100
00000002
00001003
,
00000001
00000010
00000100
00010000
,
00001000
00100000
00020000
10030000
,
00010000
00010000
00010000
01000000
,
10000000
10000000
10000000
01000000
,
00001000
00001000
00001000
00010000
,
00000100
00000100
00000010
00000010
,
00000001
00000100
00001000
00000100
,
00000010
00010000
00001000
00100000
,
00010000
01000000
10000000
01000000
,
00100000
10000000
00010000
00010000
,
00100000
00100000
00001000
00001000
,
00010000
00022000
00000000
00000000
,
00000000
00000000
00033000
00000000
;

//---------------dance-double - ----------------
#NOTEDATA:;
#CHARTNAME:;
#STEPSTYPE:dance-double;
#DESCRIPTION:;
#CHARTSTYLE:;
#DIFFICULTY:Medium;
#METER:8;
#RADARVALUES:0.366158,0.400243,0.106796,0.135922,0.000000,264.000000,253.000000,11.000000,14.000000,0.000000,0.000000,0.000000,0.000000,0.000000,0.366158,0.400243,0.106796,0.135922,0.000000,264.000000,253.000000,11.000000,14.000000,0.000000,0.000000,0.000000,0.000000,0.000000;
#CREDIT:;
#NOTES:
00000000
00000000
00000000
00000000
,
00000000
00000000
00000000
00000000
,
00000000
00000000
00000000
00000000
,
00000000
00000000
00000000
00000000
,
00001000
00000000
00100000
00000000
00010000
00100000
01000000
00000000
,
10000000
00000000
00100000
00000000
01000000
00001000
00010000
00000000
,
00000100
00000000
00001000
00000000
00000010
00000100
00000001
00000000
,
00000101
00000000
00001100
00000000
00000001
00000001
00000001
00000000
,
00001000
00000000
00000100
00000000
00000001
00000100
00001000
00000000
,
00000010
00000000
00010000
00000000
00001000
00100000
00010000
00000000
,
10000000
00000000
01000000
00000000
00010000
01000000
10000000
00000000
,
00100000
00100000
01000000
01000000
00100000
00000000
10010000
00000000
,
10000000
10000000
10000000
00000000
01000000
00000000
00100000
00000000
,
00001000
00001000
00001000
00000000
00010000
00000000
00000100
00000000
,
00001000
00001000
00001000
00000000
00000010
00000000
00000100
00000000
,
00000001
00000100
00001000
00000000
00001000
00000100
00000001
00000000
,
00000010
00000010
00000010
00000000
00000100
00000000
00011000
00000000
,
00100000
00100000
00100000
00000000
01000000
00000000
10010000
00000000
,
10000000
10000000
10000000
00000000
00010000
00000000
01001000
00000000
,
00010000
00000000
00001000
00000000
00000010
00000010
00000010
00000000
,
00000001
00000001
00000001
00000000
00000100
00000010
00002000
00000000
,
00000000
00003000
00000000
00000000
,
00000001
00000001
00000100
00000000
00000010
00000010
00001000
00000000
,
00000100
00010000
00000100
00010000
00001000
00100000
00010000
00000000
,
10000000
00100000
10000000
00000000
00010000
01000000
00010000
00000000
,
10000000
01000000
00100000
00001000
00010000
00000100
00001000
00000000
,
00000001
00000100
00001000
00000000
00001000
00000100
00000010
00000000
,
00001000
00000100
00010000
00001000
01000000
00100000
10000000
00000000
,
00010000
00100000
10000000
00000000
10000000
00100000
00010000
10000000
,
00010000
01000000
00010000
01000000
00001000
00010000
00000100
00001000
,
00000010
00000200
00000302
00002003
,
00003200
00000310
00000200
00002300
,
00003001
00000200
00000320
00020030
,
00032000
00103000
00020000
10030000
,
00010000
00010000
01010000
00000000
10000000
10000000
11000000
00000000
,
10000000
00100000
00010000
00000000
00001000
00000100
00000001
00000000
,
00001000
00001000
00001010
00000000
00000001
00000001
00000011
00000000
,
00001000
00000010
00000001
00000010
00001000
00000100
00000001
00000100
,
00010000
00010000
00010000
00000000
00001000
00100000
00010000
10000000
,
01000000
01000000
01000000
00000000
10000000
00100000
01000000
00001000
,
00010000
00010000
00010000
00000000
00000100
00001000
00000010
00000100
,
00000001
00000001
00000001
00000010
00001000
00001000
00001000
00000010
,
00000001
00000100
00000001
00000100
00000010
00001000
00000010
00001000
,
00000100
00010000
00000100
00010000
00001000
00100000
00001000
00100000
,
00010000
10000000
00010000
10000000
00100000
01000000
00100000
01000000
,
00010000
00100000
10000000
00100000
00010000
01000000
00001000
00000000
,
00010000
00000100
00001000
00000000
00000010
00000100
00000001
00000000
,
00001000
00000100
00022000
00000000
00000000
00000000
00000000
00000000
,
00000000
00000000
00033000
00000000
;
