#TITLE:Fantasia;
#SUBTITLE:;
#ARTIST:TËЯRA;
#TITLETRANSLIT:;
#SUBTITLETRANSLIT:;
#ARTISTTRANSLIT:;
#GENRE:HYPER FANTASIA;
#CREDIT:;
#BANNER:Fantasia.png;
#BACKGROUND:Fantasia-bg.png;
#LYRICSPATH:;
#CDTITLE:;
#MUSIC:Fantasia.mp3;
#OFFSET:-0.211089;
#SAMPLESTART:29.794573;
#SAMPLELENGTH:16.599997;
#SELECTABLE:YES;
#BPMS:0.000000=165.000000
;
#STOPS:
;
#BGCHANGES:;
#KEYSOUNDS:;
#ATTACKS:;

//---------------dance-single - ----------------
#NOTES:
     dance-single:
     :
     Hard:
     12:
     0.588354,0.675161,0.549774,0.790903,0.149500,427.000000,370.000000,57.000000,82.000000,0.000000,0.000000,0.588354,0.675161,0.549774,0.790903,0.149500,427.000000,370.000000,57.000000,82.000000,0.000000,0.000000:
// measure 0
0000
0000
0000
0000
,  // measure 1
0000
0000
0000
0000
,  // measure 2
0000
0000
0000
0000
,  // measure 3
0000
0000
0000
0000
,  // measure 4
2100
0000
0000
0001
0000
0000
0010
0000
3010
0000
0000
0000
1000
0000
0001
1000
,  // measure 5
0002
0000
0000
1000
0000
0000
0100
0000
0103
0000
0000
0000
0001
0000
0010
0000
,  // measure 6
2100
0000
0000
0010
0000
0000
3100
0000
0012
0000
0000
0100
0000
0000
0013
0000
,  // measure 7
1010
0000
0000
0101
0000
0000
0011
0000
2100
0000
0000
0000
3001
0000
0000
0000
,  // measure 8
1000
0010
0001
1000
0100
0001
0010
0100
,  // measure 9
2000
3100
0002
0103
,  // measure 10
1000
0100
0001
1000
0010
0001
0100
0010
,  // measure 11
2000
3010
0002
0013
,  // measure 12
1000
0000
0000
0010
0000
0000
0100
0000
0002
0000
0000
0000
0010
0000
0000
0000
,  // measure 13
2003
0000
0000
0000
3000
0000
0001
1000
0200
0000
0000
0000
0300
0000
0010
0000
,  // measure 14
0002
0203
2300
3020
,  // measure 15
0032
0000
0003
1000
0010
0001
1000
0100
,  // measure 16
0002
0000
0000
0000
0003
0000
1000
0000
1020
0000
0000
0100
0000
0000
0031
0000
,  // measure 17
0021
0000
0000
0100
0000
0000
1030
0000
2001
0000
0000
0000
3000
0000
1000
0000
,  // measure 18
0002
0000
0000
0000
0103
0000
1000
0000
0001
0000
0000
0010
0000
0000
1000
0000
,  // measure 19
0001
0010
0100
0010
1000
0010
0100
0010
,  // measure 20
2002
0000
3003
1000
0010
0100
0001
1000
,  // measure 21
2100
0000
0000
0000
3001
0000
1000
0010
0200
0000
0000
0000
0302
0000
0000
0000
,  // measure 22
1003
0100
0010
0001
0001
0010
0100
1000
,  // measure 23
0002
0203
2300
3020
,  // measure 24
0032
0000
0000
0000
1003
0000
0010
0100
0002
0000
0000
0000
1003
0000
0000
0000
,  // measure 25
1200
0310
0201
0310
,  // measure 26
0001
0000
0000
0100
0000
0000
1000
0000
0002
0000
0000
0000
0013
0000
0000
0000
,  // measure 27
2010
0000
3100
1000
0001
0100
1000
0100
,  // measure 28
0001
0000
0000
0010
0000
0000
0100
0000
2000
0000
0000
0000
3001
0000
0000
0000
,  // measure 29
1020
0000
0000
0000
0031
0000
0010
1000
0002
0000
0000
0000
0023
0000
0000
0000
,  // measure 30
0130
1000
0001
1000
1000
0010
0100
0001
,  // measure 31
0021
0000
0000
0000
1030
0000
0000
0000
0012
0000
0000
0100
0000
0000
1003
0000
,  // measure 32
1010
0000
0000
0101
0000
0000
1001
0000
2001
0000
0000
0000
3100
0000
0000
0000
,  // measure 33
1200
0000
0000
0001
0000
0000
0310
0000
0201
0000
0000
1000
0000
0000
0310
0000
,  // measure 34
1001
0000
0000
0000
1000
0000
0100
0000
0001
0000
0000
1000
0000
0000
0010
0000
,  // measure 35
0002
0100
1003
0001
,  // measure 36
1010
1010
0101
0101
,  // measure 37
1001
0001
0010
1000
1000
0010
0001
1000
,  // measure 38
0001
0100
1000
0100
0100
0001
1000
0001
,  // measure 39
1000
0010
0100
0010
0001
0010
0100
0010
,  // measure 40
2000
0000
0000
0000
3100
0001
0100
1000
,  // measure 41
0001
0100
0010
0100
1000
0100
0001
1000
,  // measure 42
0002
0000
0023
0000
0030
0100
1000
0001
,  // measure 43
2000
0000
3001
1000
0001
0100
1000
0100
,  // measure 44
0001
0010
1000
0001
0100
0010
0001
1000
,  // measure 45
0110
0001
1000
0000
0110
1000
0001
0000
,  // measure 46
2002
0000
3003
1000
0010
0001
0100
1000
,  // measure 47
0002
0000
0000
0000
0003
0000
0100
1000
0200
0000
0000
0000
0320
0000
0000
0000
,  // measure 48
2030
0100
3010
1000
,  // measure 49
0002
0023
2030
3200
,  // measure 50
0302
0000
0000
0000
0003
0000
0010
0100
2000
0000
0000
0000
3000
0000
0000
0000
,  // measure 51
0201
1300
1200
0301
,  // measure 52
1000
0000
0000
0100
0000
0000
0001
0000
0020
0000
0000
0000
1030
0000
0000
0000
,  // measure 53
0201
0000
1300
0100
0010
1000
0100
0001
,  // measure 54
0100
0000
0000
0100
0000
0000
0010
0000
0002
0000
0000
0000
1003
0000
0000
0000
,  // measure 55
0201
0000
0000
0000
1300
0000
0100
0001
2000
0000
0000
0000
3200
0000
0000
0000
,  // measure 56
0310
0001
1000
0001
0001
0100
0010
1000
,  // measure 57
1200
0000
0000
0000
0301
0000
0100
0000
2100
0000
0000
0010
0000
0000
3001
0000
,  // measure 58
0101
0000
0000
1010
0000
0000
1001
0000
1002
0000
0000
0000
0013
0000
0000
0000
,  // measure 59
0021
0000
0000
1000
0000
0000
0130
0000
1020
0000
0000
0001
0000
0000
0130
0000
,  // measure 60
1001
0000
0000
0000
0001
0000
0010
0000
1000
0000
0000
0001
0000
0000
0100
0000
,  // measure 61
2000
0010
3001
1000
,  // measure 62
0101
0101
1010
1010
,  // measure 63
1001
0000
0000
1000
0100
0001
1000
0010
,  // measure 64
0002
0010
0103
1100
,  // measure 65
1001
0000
0000
1000
0010
0001
1000
0100
,  // measure 66
0002
0100
0013
1010
,  // measure 67
1001
0000
0000
1000
0100
0001
0010
1000
,  // measure 68
0002
0010
1003
1001
,  // measure 69
0220
0000
0000
0000
,  // measure 70
0330
0000
0000
0000
;

//---------------dance-single - ----------------
#NOTES:
     dance-single:
     :
     Beginner:
     3:
     0.205304,0.232930,0.019290,0.019290,0.000000,149.000000,147.000000,2.000000,2.000000,0.000000,0.000000,0.205304,0.232930,0.019290,0.019290,0.000000,149.000000,147.000000,2.000000,2.000000,0.000000,0.000000:
0000
0000
0000
0000
,
0000
0000
0000
0000
,
0000
0000
0000
0000
,
0000
0000
0000
0000
,
1000
1000
1000
0000
,
0001
0001
0001
0000
,
0010
0010
0010
0000
,
0100
0100
0100
0000
,
1000
0000
1000
0000
,
0010
0000
0010
0000
,
0100
0000
0100
0000
,
0001
0000
0001
0000
,
1000
0000
1000
0000
,
0100
0100
0100
0000
,
0010
0000
0010
0000
,
0001
0001
0001
0000
,
1000
0000
1000
0000
,
0010
0010
0010
0000
,
0100
0000
0100
0000
,
0001
0000
0001
0000
,
2000
0000
0000
3000
,
0001
0000
0010
0010
,
0010
0000
0000
0000
,
0001
0000
0100
0000
,
0010
0010
0010
0000
,
1000
0000
0001
0000
,
0100
0100
0100
0000
,
0001
0000
1000
0000
,
0010
0010
0010
0000
,
1000
0000
0100
0100
,
0100
0000
0000
0000
,
1000
0000
0010
0000
,
0100
0100
0100
0000
,
0001
0000
0001
0000
,
1000
0000
1000
0000
,
0010
0000
0010
0000
,
0100
0100
0100
0100
,
0100
0000
0100
0000
,
0010
0000
0010
0000
,
1000
0000
0000
0000
,
0001
0000
0000
0000
,
0010
0000
0010
0000
,
0010
0000
0000
0000
,
0100
0000
0000
0000
,
1000
0000
0000
0000
,
0001
0001
0001
0000
,
1001
0000
0000
0000
,
1000
0000
0010
0010
,
0010
0000
0000
0000
,
0100
0000
0001
0000
,
1000
1000
1000
0000
,
0001
0000
0010
0000
,
0100
0100
0100
0000
,
1000
0000
0010
0000
,
0100
0100
0100
0000
,
0001
0000
1000
1000
,
1000
0000
0000
0000
,
0001
0000
0010
0000
,
0100
0100
0100
0000
,
1000
0000
0010
0000
,
0100
0000
0001
0001
,
0002
0000
0000
0003
,
0010
0010
0010
0010
,
0010
0000
0010
0000
,
0100
0100
0100
0000
,
1000
0000
1000
0000
,
0001
0001
0001
0000
,
0100
0000
0100
0000
,
0010
0010
0010
0000
,
1001
0000
0000
0000
;

//---------------dance-single - ----------------
#NOTES:
     dance-single:
     :
     Easy:
     6:
     0.325180,0.337580,0.067516,0.135032,0.000000,236.000000,229.000000,7.000000,14.000000,0.000000,0.000000,0.325180,0.337580,0.067516,0.135032,0.000000,236.000000,229.000000,7.000000,14.000000,0.000000,0.000000:
0000
0000
0000
0000
,
0000
0000
0000
0000
,
0000
0000
0000
0000
,
0000
0000
0000
0000
,
1000
0100
0010
0000
,
0001
0010
0100
0000
,
1000
0010
0001
0010
,
1000
0001
2000
0000
,
3001
0001
0001
0001
,
0010
0010
0010
0010
,
0100
0100
0100
0100
,
1000
1000
1000
1000
,
0001
0100
0001
0100
,
0020
0000
0130
0000
,
0001
0010
0100
1000
,
0002
0000
1000
1000
,
1003
0000
0010
0010
,
0100
0100
0001
0000
,
1000
0100
0001
0100
,
1000
0010
0001
0010
,
2002
0000
3003
0000
,
1000
0010
1000
0010
,
0100
0001
0100
0001
,
1000
0100
1000
0100
,
0010
0001
0010
0001
,
1000
0010
1000
0010
,
0001
0010
0001
0010
,
1000
0100
1000
0100
,
0001
0100
1000
0001
,
1000
0010
0100
1000
,
0100
0010
1000
0001
,
0010
0100
0001
0100
,
0010
0001
1000
0001
,
1000
0010
0100
0001
,
1000
0100
0010
0001
,
1000
0100
0001
0100
,
1000
0010
0001
0010
,
1000
1000
1000
1000
,
0001
0001
0001
0001
,
0010
0000
0010
0000
,
0200
0000
1000
1300
,
1000
0000
1000
0000
,
0020
0000
0100
0100
,
0130
0000
0001
0000
,
1000
0000
0001
0000
,
0010
0010
0100
0100
,
2002
0000
3003
0000
,
0001
0100
0001
0100
,
0010
1000
0010
1000
,
0001
0010
0001
0010
,
0100
1000
0100
1000
,
0001
0100
0001
0100
,
1000
0100
1000
0100
,
0001
0010
0001
0010
,
1000
0010
0001
1000
,
0001
0100
0010
0001
,
0010
0100
0001
1000
,
0100
0010
1000
0010
,
0100
1000
0001
1000
,
0001
0100
0010
1000
,
0001
0010
0100
1000
,
0001
0010
1000
0010
,
0001
0100
1000
0100
,
0002
0000
0010
0010
,
0013
0000
1100
0000
,
2000
0000
0010
0010
,
3010
0000
0101
0000
,
0002
0000
1000
0010
,
0103
0000
1001
1001
,
0220
0000
0000
0000
,
0330
0000
0000
0000
;

//---------------dance-single - ----------------
#NOTES:
     dance-single:
     :
     Medium:
     8:
     0.440921,0.472613,0.270064,0.655870,0.057871,320.000000,292.000000,28.000000,68.000000,0.000000,0.000000,0.440921,0.472613,0.270064,0.655870,0.057871,320.000000,292.000000,28.000000,68.000000,0.000000,0.000000:
0000
0000
0000
0000
,
0000
0000
0000
0000
,
0000
0000
0000
0000
,
0000
0000
0000
0000
,
1000
0000
0000
0010
0000
0000
0100
0000
0001
0000
0000
0000
0000
0000
0000
0000
,
1000
0000
0000
0100
0000
0000
0010
0000
0001
0000
0000
0000
0000
0000
0000
0000
,
1000
0000
0000
1000
0000
0000
1000
0000
0010
0000
0000
0010
0000
0000
0010
0000
,
0100
0000
0000
0100
0000
0000
0100
0000
0002
0000
0000
0000
0000
0000
0000
0000
,
1003
0000
0100
0000
0001
0100
0001
0100
,
2000
3001
0200
0310
,
1000
0000
0010
0000
0001
0010
0001
0010
,
2000
3001
0020
0130
,
1000
0000
0000
1000
0000
0000
1000
0000
0010
0000
0000
0000
0100
0000
0000
0000
,
0002
0000
0010
0000
0103
0000
0000
0001
,
2000
3100
0002
0103
,
2000
0000
3000
0000
0010
0100
0010
0100
,
0001
0000
0000
0001
0011
0000
0000
0000
,
1000
0000
0000
1000
1010
0000
0000
1000
,
0001
0101
1000
1100
,
0001
0011
1000
1010
,
2002
0000
3003
0000
1000
0010
0100
0001
,
2000
3100
0002
0103
,
2000
0010
3100
1001
,
0002
0013
2000
3010
,
0002
0000
0013
0100
1000
0000
1001
0000
,
2000
3010
0002
0013
,
0100
0000
0000
0100
0000
0000
0100
0000
0002
0000
0000
0000
1003
0000
0000
0000
,
0002
0000
0013
0000
0100
1000
0100
1000
,
0001
0000
0000
0001
0000
0000
0001
0000
0200
0000
0000
0000
0310
0000
0000
0000
,
2000
3100
0002
0103
,
1000
0010
0100
0000
0001
0000
1001
0000
,
0002
0013
2000
3010
,
0001
0000
0000
0010
0000
0000
0100
0000
2000
0000
0000
0000
3001
0000
0000
0000
,
2000
3010
0002
0013
,
0200
0000
0000
0000
0301
0000
1000
0000
0100
0000
0000
0100
0000
0000
0100
0000
,
0020
0001
1030
0010
,
0102
1003
2100
3001
,
1000
0010
1000
0000
0010
0001
0010
0000
,
0001
0100
0001
0000
0100
1000
0100
0000
,
2000
3020
0230
0302
,
2003
0000
0100
3001
,
2000
3200
0302
0023
,
2030
3002
0000
0013
,
0002
0000
0103
0000
1000
0100
0001
0000
,
2000
0000
3100
0000
0001
0100
1000
0000
,
0010
0101
0010
1100
,
2002
0000
3003
0000
1000
0010
0100
0001
,
1000
1000
0100
0100
,
0001
0001
0100
0100
,
1000
1000
0010
0010
,
0001
0001
0010
0010
,
2000
3010
0200
1300
,
0002
0013
0200
0301
,
2000
3100
0020
1030
,
0002
0000
0103
0000
0010
0001
1000
0100
,
2000
3010
0002
0013
,
1000
0100
0010
0000
0001
0000
1001
0000
,
0002
0103
2000
3100
,
0001
0000
0000
0100
0000
0000
0010
0000
2000
0000
0000
0000
3001
0000
0000
0000
,
2000
3100
0002
0103
,
0020
0000
0000
0000
0031
0000
1000
0000
0010
0000
0000
0010
0000
0000
0010
0000
,
0200
0001
1300
0100
,
0012
1003
2010
3001
,
1001
0000
0000
1001
0000
0000
1001
0000
,
0001
0100
0010
0000
1000
0010
0100
0000
,
1001
0000
0000
1001
0000
0000
1001
0000
,
1000
0100
0010
0000
0001
0010
0100
0000
,
1001
0000
0000
0110
0000
0000
1001
0000
,
0001
0100
1000
0000
0001
0010
1000
0000
,
2002
0000
0000
0000
,
3003
0000
0000
0000
;

//---------------dance-double - ----------------
#NOTES:
     dance-double:
     :
     Hard:
     12:
     0.544262,0.573887,0.231484,0.694451,0.149500,395.000000,371.000000,24.000000,72.000000,0.000000,0.000000,0.544262,0.573887,0.231484,0.694451,0.149500,395.000000,371.000000,24.000000,72.000000,0.000000,0.000000:
00000000
00000000
00000000
00000000
,
00000000
00000000
00000000
00000000
,
00000000
00000000
00000000
00000000
,
00000000
00000000
00000000
00000000
,
00012000
00000000
00000000
00100000
00000000
00000000
00010000
00000000
00013000
00000000
00000000
00000000
00001000
00000000
00010000
00001000
,
00020000
00000000
00000000
00000100
00000000
00000000
00001000
00000000
00031000
00000000
00000000
00000000
00010000
00000000
00001000
00000000
,
00100000
00000000
00000000
00010000
00000000
00000000
01000000
00000000
10000000
00000000
00000000
01000000
00000000
00000000
00100000
00000000
,
10000000
00000000
00000000
00001000
00000000
00000000
00010000
00000000
00000200
00000000
00000000
00000000
00000310
00000000
00000000
00000000
,
00000001
00000100
00001000
00000100
00000001
00000010
00001000
00010000
,
00002000
00003010
00000002
00000103
,
00000001
00000100
00001000
00010000
00001000
00000100
00000010
00010000
,
00002000
00103000
00020000
10030000
,
00010000
00000000
00000000
01000000
00000000
00000000
00100000
00000000
20000000
00000000
00000000
00000000
30020000
00000000
00000000
00000000
,
02030000
00000000
00000000
00000000
03000000
00000000
00010000
01000000
00002000
00000000
00000000
00000000
00003000
00000000
00010000
00000000
,
00000200
00002300
00003020
00000032
,
00000023
00000000
00000030
00000100
00000001
00001000
00000100
00010000
,
00002000
00000000
00000000
00000000
00003000
00000000
00100000
00000000
00010000
00000000
00000000
00010000
00000000
00000000
01000000
00000000
,
10000000
00000000
00000000
10000000
00000000
00000000
01000000
00000000
00200000
00000000
00000000
00000000
00300000
00000000
10000000
00000000
,
00020000
00000000
00000000
00000000
00130000
00000000
10000000
00000000
00100000
00000000
00000000
00100000
00000000
00000000
00001000
00000000
,
00010000
00000100
00001000
00000010
00000100
00001000
00000001
00000010
,
00000200
00000000
00000300
00000001
00000010
00001000
00000001
00000100
,
00002000
00000000
00000000
00000000
00003010
00000000
00000100
00000001
00001000
00000000
00000000
00000000
00000001
00000000
00000000
00000000
,
00001001
00001000
00000010
00010000
00001000
00100000
00010000
10000000
,
00020000
02030000
23000000
30200000
,
00320000
00000000
00000000
00000000
01030000
00000000
00100000
10000000
00020000
00000000
00000000
00000000
10030000
00000000
00000000
00000000
,
10200000
01300000
00210000
01300000
,
00010000
00000000
00000000
00100000
00000000
00000000
00001000
00000000
00020000
00000000
00000000
00000000
00030100
00000000
00000000
00000000
,
00001020
00000000
00000031
00000010
00001000
00000001
00000010
00001000
,
00000010
00000000
00000000
00000001
00000000
00000000
00000100
00000000
00000020
00000000
00000000
00000000
00001030
00000000
00000000
00000000
,
00001200
00000000
00000000
00000000
00010300
00000000
00000100
00010000
00001000
00000000
00000000
00000000
00100000
00000000
00000000
00000000
,
10010000
00010000
01000000
10000000
01000000
00001000
00010000
00000100
,
00000020
00000000
00000000
00000000
00000031
00000000
00000100
00000000
00001000
00000000
00000000
00001000
00000000
00000000
00000100
00000000
,
00000010
00000000
00000000
00000010
00000000
00000000
00010000
00000000
00002000
00000000
00000000
00000000
00103000
00000000
00000000
00000000
,
00010000
00000000
00000000
01000000
00000000
00000000
10000000
00000000
00010000
00000000
00000000
00100000
00000000
00000000
10000000
00000000
,
00010000
00000000
00000000
00000000
10000000
00000000
01000000
00000000
00010000
00000000
00000000
00001000
00000000
00000000
00000100
00000000
,
00000002
00000010
00000103
00000001
,
00001200
00000301
00000201
00001300
,
00000001
00000100
00001000
00010000
00010000
00001000
00000100
00000010
,
00010000
00001000
00100000
00010000
00010000
10000000
00100000
00010000
,
00100000
10000000
01000000
10000000
00010000
10000000
00100000
01000000
,
00020000
00000000
00000000
00030000
10000000
00100000
01000000
00100000
,
10000000
01000000
00010000
00001000
00010000
00001000
00000100
00000001
,
00002000
00000000
00003002
00000000
00000003
00000010
00000001
00000100
,
00002000
00000000
00003100
00000010
00001000
00000100
00000001
00000100
,
00010000
00001000
00100000
00010000
01000000
10000000
01000000
00100000
,
20000000
01000000
30010000
00000000
00020000
01000000
10030000
00000000
,
20020000
00000000
30030000
10000000
00010000
00100000
10000000
00100000
,
00020000
00000000
00000000
00000000
00030000
00000000
01000000
00100000
02000000
00000000
00000000
00000000
03002000
00000000
00000000
00000000
,
00023000
00000010
00030100
00010000
,
00002000
00003020
00000032
00000203
,
00002300
00000000
00000000
00000000
00003000
00000000
00000100
00000010
00002000
00000000
00000000
00000000
00003000
00000000
00000000
00000000
,
00000021
00000130
00001020
00000130
,
00000001
00000000
00000000
00000100
00000000
00000000
00001000
00000000
00020000
00000000
00000000
00000000
00030100
00000000
00000000
00000000
,
00012000
00000000
00103000
00010000
10000000
00100000
00010000
00001000
,
00000100
00000000
00000000
00000010
00000000
00000000
00001000
00000000
00000002
00000000
00000000
00000000
00001003
00000000
00000000
00000000
,
00001020
00000000
00000000
00000000
00010030
00000000
00000010
00010000
00001000
00000000
00000000
00000000
01000000
00000000
00000000
00000000
,
10010000
00010000
00100000
10000000
00100000
00001000
00010000
00000010
,
00000200
00000000
00000000
00000000
00000301
00000000
00000010
00000000
00001000
00000000
00000000
00001000
00000000
00000000
00000010
00000000
,
00000100
00000000
00000000
00000100
00000000
00000000
00010000
00000000
00002000
00000000
00000000
00000000
01003000
00000000
00000000
00000000
,
00010000
00000000
00000000
00100000
00000000
00000000
10000000
00000000
00010000
00000000
00000000
01000000
00000000
00000000
10000000
00000000
,
00010000
00000000
00000000
00000000
10000000
00000000
00100000
00000000
00010000
00000000
00000000
00001000
00000000
00000000
00000010
00000000
,
00000002
00000100
00000013
00000001
,
00001020
00000031
00000021
00001030
,
00001001
00000000
00000000
00000001
00000100
00001000
00010000
00001000
,
00200000
00010000
01300000
01100000
,
10010000
00000000
00000000
10000000
01000000
00010000
00001000
00010000
,
00000020
00000100
00000031
00000110
,
00001001
00000000
00000000
00000001
00000010
00001000
00000001
00000100
,
00020000
00100000
00130000
10010000
,
02200000
00000000
00000000
00000000
,
03300000
00000000
00000000
00000000
;

//---------------dance-double - ----------------
#NOTES:
     dance-double:
     :
     Easy:
     7:
     0.343092,0.337580,0.086806,0.356871,0.000000,249.000000,240.000000,9.000000,37.000000,0.000000,0.000000,0.343092,0.337580,0.086806,0.356871,0.000000,249.000000,240.000000,9.000000,37.000000,0.000000,0.000000:
00000000
00000000
00000000
00000000
,
00000000
00000000
00000000
00000000
,
00000000
00000000
00000000
00000000
,
00000000
00000000
00000000
00000000
,
00001000
00100000
00010000
00000000
,
10000000
00010000
01000000
00000000
,
00100000
10000000
01000000
00010000
,
01000000
10000000
00020000
00000000
,
10030000
00100000
01000000
00010000
,
00200000
00300000
00002000
00003000
,
00010000
00000010
00000100
00000001
,
00002000
00003000
00000002
00000003
,
00001000
00000100
00000001
00000100
,
00002000
00000000
00003001
00000000
,
00001000
00001000
00000010
00000010
,
00000100
00000000
00001000
00010000
,
00200000
00300000
01000000
01000000
,
00010000
00010000
10000000
00000000
,
01000000
00100000
00010000
00100000
,
01000000
10000000
00100000
01000000
,
00020000
00000000
00100000
00130000
,
00002000
00013000
00000200
00001300
,
00000010
00000100
00000001
00001000
,
00000002
00000013
00002000
00003010
,
00000001
00000100
00000010
00001000
,
00000100
00000100
00010000
00010000
,
00001000
00100000
00010000
01000000
,
10000000
10000000
01000000
01000000
,
00100000
10000000
00010000
10010000
,
20000000
31000000
00020000
01030000
,
10000000
00100000
01000000
00001000
,
00020000
00030100
00002000
00003010
,
00000100
00000001
00001000
00000001
,
00002000
00003100
00000002
00000103
,
00002000
00003010
00000200
00000301
,
00002000
00000100
00003100
00010000
,
00001000
00001000
00010000
00010000
,
00011000
00001000
00100000
00010000
,
10000000
00100000
01000000
00001000
,
00010000
00010000
00000010
00000010
,
00000200
00000000
00000301
00001000
,
00000001
00000010
00001000
00000010
,
00000001
00000001
00000100
00000000
,
00000010
00001000
00000100
00000001
,
00000100
00001000
00000010
00000100
,
00000001
00000001
00001000
00001000
,
00002002
00000000
00000000
00003003
,
00000001
00000001
00000010
00000010
,
00000100
00000100
00010000
00010000
,
00001000
00001000
00100000
00100000
,
00010000
00010000
10000000
10000000
,
00010000
01000000
10000000
01000000
,
00001000
00010000
00000100
00001000
,
00000001
00000010
00001000
00000010
,
00000001
00001000
00000100
00011000
,
00200000
00310000
02000000
03010000
,
10000000
01000000
00010000
01000000
,
20000000
30100000
00020000
00130000
,
01000000
00001000
00010000
00011000
,
00002000
00003010
00000002
00000103
,
00002000
00013000
00200000
01300000
,
00002000
00010000
00013000
00001000
,
00200000
00310000
20000000
31000000
,
10010000
00000000
10000000
00100000
,
00010000
00001000
00001000
00000100
,
00001001
00000000
00000001
00000010
,
00001000
00010000
00010000
00100000
,
10010000
00000000
10000000
01000000
,
00010000
00001000
00010000
01000000
,
20020000
00000000
00000000
00000000
,
30030000
00000000
00000000
00000000
;

//---------------dance-double - ----------------
#NOTES:
     dance-double:
     :
     Medium:
     9:
     0.478124,0.540129,0.443677,0.646225,0.053048,347.000000,301.000000,46.000000,67.000000,0.000000,0.000000,0.478124,0.540129,0.443677,0.646225,0.053048,347.000000,301.000000,46.000000,67.000000,0.000000,0.000000:
00000000
00000000
00000000
00000000
,
00000000
00000000
00000000
00000000
,
00000000
00000000
00000000
00000000
,
00000000
00000000
00000000
00000000
,
00001000
00000000
00000000
00100000
00000000
00000000
00010000
00000000
02000000
00000000
00000000
00000000
03100000
00000000
00000000
00000000
,
10000000
00000000
00000000
01000000
00000000
00000000
00100000
00000000
00002000
00000000
00000000
00000000
00013000
00000000
00000000
00000000
,
00000100
00000000
00000000
00000100
00000000
00000000
00000100
00000000
00001000
00000000
00000000
00001000
00000000
00000000
00001000
00000000
,
00000010
00000000
00000000
00000100
00000000
00000000
00000001
00000000
00002000
00000000
00000000
00000000
00003001
00000000
00000000
00000000
,
00001000
00000100
00000010
00000000
00000010
00000100
00001000
00000000
,
00000002
00000103
00002000
00003100
,
00000010
00010000
00001000
00000000
00100000
00010000
10000000
00000000
,
00200000
01300000
00020000
10030000
,
00010000
00000000
00000000
00100000
00000000
00000000
01000000
00000000
20000000
00000000
00000000
00000000
30020000
00000000
00000000
00000000
,
02030000
00000000
03000000
00001000
00002000
00000000
00003000
00010000
,
00020000
00032000
00003200
00000320
,
00000032
00000000
00000003
00001000
00000000
00000001
00000100
00000010
,
00002000
00003100
00000002
00000103
,
00001000
00000000
00000000
00000010
00000000
00000000
00000100
00000000
00002000
00000000
00000000
00000000
00013000
00000000
00000000
00000000
,
00100000
01010000
00100000
11000000
,
10000000
00100000
00010000
00000000
00010000
00100000
01000000
00000000
,
00022000
00000000
00033000
00000000
00010000
00000010
00000100
00000001
,
00002000
00000000
00003100
00000100
00000020
00000000
00000031
00000000
,
00002000
00000010
00003100
00001000
,
00000102
00010003
00012000
01003000
,
00200000
00000000
10300000
10000000
00020000
00000000
01030000
00000000
,
00100000
00011000
00000010
00011000
,
00001000
00000000
00000000
00010000
00000000
00000000
00000100
00000000
00002000
00000000
00000000
00000000
00003001
00000000
00000000
00000000
,
00000102
00000000
00001003
00000000
00000001
00000010
00000100
00001000
,
00000010
00000000
00000000
00000010
00000000
00000000
00000010
00000000
00000200
00000000
00000000
00000000
00000301
00000000
00000000
00000000
,
00001200
00000301
00000201
00001300
,
00001020
00000100
00000031
00000010
,
00010200
00001300
00020100
00031000
,
00100000
00000000
00000000
00010000
00000000
00000000
10000000
00000000
02000000
00000000
00000000
00000000
13000000
00000000
00000000
00000000
,
10200000
00310000
00210000
10300000
,
12000000
03010000
00012000
00003100
,
00002010
00000100
00003001
00001000
,
00000011
00000011
00001100
00001100
,
00000001
00000100
00001000
00000000
00000100
00001000
00010000
00000000
,
00001000
00010000
00100000
00000000
00010000
00100000
10000000
00000000
,
00020000
00230000
20300000
30200000
,
00302000
00000000
00013000
00000100
,
00001000
00000010
00000001
00000000
00000001
00000010
00000100
00000000
,
00000002
00002003
00000000
00003100
,
00010000
00000000
00001000
00000000
00100000
00010000
01000000
00000000
,
10000000
01000000
00010000
00000000
10000000
01000000
00010000
00000000
,
00100000
00011000
00000100
00011000
,
00002002
00000000
00003003
00000000
00000001
00000100
00001000
00000100
,
00000001
00000010
00000100
00010000
,
00001000
00100000
00010000
10000000
,
00010000
01000000
10000000
01000000
,
00001000
00010000
00000100
00001000
,
00000001
00000100
00000010
00010000
,
00001000
00100000
00010000
10000000
,
00010000
00100000
10000000
00100000
,
00010000
01000000
00100000
10000000
00010000
00100000
00001000
00000000
,
00210000
10300000
10200000
00310000
,
02010000
00100000
13000000
01000000
,
00201000
00310000
00102000
00013000
,
00000100
00000000
00000000
00001000
00000000
00000000
00000001
00000000
00000020
00000000
00000000
00000000
00000031
00000000
00000000
00000000
,
00000201
00001300
00001200
00000301
,
00000021
00001030
00021000
00130000
,
01020000
00100000
10030000
00010000
,
11000000
11000000
00110000
00110000
,
10010000
00000000
00000000
10000000
00100000
00010000
00100000
10000000
,
00020000
00100000
01030000
00011000
,
00001001
00000000
00000000
00000001
00000010
00001000
00000010
00000001
,
00002000
00000010
00003100
00011000
,
10010000
00000000
00000000
10000000
00100000
00010000
00001000
00000100
,
00000020
00000100
00000130
00001001
,
00000220
00000000
00000000
00000000
,
00000330
00000000
00000000
00000000
;
