#TITLE:DISCOW MOSCOW;
#SUBTITLE:;
#ARTIST:MAD COW & THE ROYAL EUROBEAT ORCHESTRA OF BAZOOKISTAN;
#TITLETRANSLIT:;
#SUBTITLETRANSLIT:;
#ARTISTTRANSLIT:;
#GENRE:SUPER RUSSIABEAT;
#CREDIT:;
#BANNER:DISCOW MOSCOW.png;
#BACKGROUND:DISCOW MOSCOW-bg.png;
#LYRICSPATH:;
#CDTITLE:;
#MUSIC:DISCOW MOSCOW.mp3;
#OFFSET:-0.077806;
#SAMPLESTART:48.754551;
#SAMPLELENGTH:16.460001;
#SELECTABLE:YES;
#BPMS:0.000000=160.100006
;
#STOPS:
;
#BGCHANGES:;
#KEYSOUNDS:;
#ATTACKS:;

//---------------dance-single - ----------------
#NOTES:
     dance-single:
     :
     Hard:
     13:
     0.678893,0.717991,0.652719,0.538207,0.188945,415.000000,358.000000,57.000000,47.000000,0.000000,0.000000,0.678893,0.717991,0.652719,0.538207,0.188945,415.000000,358.000000,57.000000,47.000000,0.000000,0.000000:
0000
0000
0000
0000
,
0000
0000
0000
0000
,
0000
0000
0000
0000
,
0000
0000
0000
0000
,
1001
0000
0001
0100
1000
0100
0000
0110
,
0000
0010
1000
0100
1000
0010
0100
0001
,
1001
0000
0001
0010
1000
0010
0000
0100
,
2002
0000
0000
0000
3003
0000
0000
0000
0001
1000
0001
1000
0001
1000
0001
1000
,
0001
1000
0100
0001
0200
0000
1300
1020
,
0000
0230
0000
0302
0000
1000
1003
0000
,
0001
0010
1000
0010
0200
0000
0310
0012
,
0000
0000
0103
0000
0010
0000
1000
0000
0001
0000
0001
0000
1000
0001
1000
0001
,
0100
0001
0010
1000
0020
0000
0031
0201
,
0000
0320
0000
2030
0000
0001
3001
0000
,
1000
0100
0001
0100
0020
0000
0130
2100
,
0000
3010
0100
0002
0000
0013
0100
1000
,
1001
1001
1001
0000
1010
0000
0011
0000
,
1002
0000
0000
0000
0103
0000
0001
0000
1000
0100
0010
0000
0010
0000
0001
0010
,
0001
0010
0100
0000
0100
0000
0000
0000
1100
0000
0000
0000
0101
0000
0000
0000
,
1002
0000
0103
1000
0100
0010
1000
0001
,
0200
0000
0000
0000
0310
1000
0010
1000
0001
0000
0000
0000
0011
0000
0000
0000
,
2100
0000
0000
0000
3001
0000
1000
0000
0001
0100
0010
0000
0010
0000
1000
0010
,
1000
0010
0100
0000
0100
0000
0000
0000
1001
0000
0000
0000
1010
0000
0000
0000
,
0102
0000
1003
0001
0101
0101
1100
1100
,
2002
3003
1010
0101
,
1001
0000
0001
0010
1000
0010
0100
1000
,
0002
0000
0000
0000
0103
0000
0000
0000
0001
0000
0000
0001
0010
0000
0000
0010
,
0100
0000
0000
0100
1000
0000
0000
1000
0002
0000
0000
0000
0103
0000
0000
0000
,
0001
0000
0000
0000
1000
0100
1000
0100
0010
0000
0000
0000
1010
0000
0000
0000
,
1001
0000
1000
0100
0001
0100
0010
0001
,
2000
0000
3010
0000
2000
0000
0100
0100
,
0000
0000
3001
0000
1000
0000
0001
0100
0020
0000
0000
0000
0230
0000
0000
0000
,
0320
0000
0030
0000
1000
0100
0011
0000
,
0001
0100
1010
0000
0001
0100
1000
0100
,
0001
0010
0100
0000
0001
0010
1100
0000
,
1000
0010
0101
0000
1000
0010
0001
0010
,
2000
0000
0000
3001
0100
0001
0100
0001
1000
0000
0100
0000
0011
0000
0000
0000
,
0001
0100
1010
0000
0001
0100
1000
0100
,
0010
1000
0001
0000
1000
1000
1000
0100
,
0001
0001
0001
0100
1000
1000
1000
0001
,
0100
0010
0100
0010
0100
0010
0100
0010
1000
0000
0100
0000
0101
0000
0000
0000
,
1000
0010
0011
0000
1000
0010
0001
1000
,
0100
0001
0010
0100
1000
0100
0101
0000
,
1000
0010
0011
0000
1000
0100
0001
1000
,
0010
0000
0001
1000
0010
0100
0010
0100
0001
0000
0100
0000
1100
0000
0000
0000
,
0001
0010
1010
0000
0001
0010
1000
0001
,
0100
1000
0010
0100
0001
0001
0001
0100
,
1000
1000
1000
0100
1001
1001
1001
1001
,
1001
0000
0220
0330
0010
1000
0100
0001
,
0200
0000
1300
1020
0000
0230
0000
0302
,
0000
1000
1003
0000
0001
0010
1000
0010
,
0200
0000
0310
0012
0000
0103
0010
1000
,
0001
0000
0001
0000
1000
0001
1000
0001
0100
0000
0001
0000
0010
0000
1000
0000
,
0020
0000
0031
0201
0000
0320
0000
2030
,
0000
0001
3001
0000
1000
0100
0001
0100
,
0020
0000
0130
2100
0000
3010
0100
0002
,
0000
0013
0100
1000
1001
1001
2002
0000
,
3003
0000
0000
0000
;

//---------------dance-single - ----------------
#NOTES:
     dance-single:
     :
     Easy:
     6:
     0.345172,0.389914,0.125963,0.160317,0.000000,211.000000,200.000000,11.000000,14.000000,0.000000,0.000000,0.345172,0.389914,0.125963,0.160317,0.000000,211.000000,200.000000,11.000000,14.000000,0.000000,0.000000:
0000
0000
0000
0000
,
0000
0000
0000
0000
,
0000
0000
0000
0000
,
0000
0000
0000
0000
,
1000
0100
0001
0001
,
0100
1000
0001
1001
,
1000
0010
0100
0001
,
2002
3003
1000
1000
,
0001
0010
0100
1000
,
0100
0010
0001
0001
,
1000
0010
0001
0010
,
1000
0001
0100
0100
,
1000
0100
0010
0001
,
0010
0100
1000
1000
,
0001
0100
1000
0100
,
0001
1000
0010
0010
,
0100
0100
0100
0000
0001
0000
0010
0000
,
1000
0010
0100
1000
,
0001
0001
1000
0010
,
0001
0010
0100
0001
,
2002
3003
0001
0010
,
1000
0010
0001
0100
,
0010
0010
1000
0100
,
0001
0100
1001
1001
,
2002
3003
1000
0010
,
0100
0001
1000
1000
,
0001
0000
1000
0100
,
0001
0010
2000
0000
,
0000
3000
0001
0100
,
0010
1000
0001
0001
,
1000
0000
0001
0010
,
1000
0100
0002
0000
,
0000
0003
1000
1000
,
0001
0001
1000
0100
,
0001
0100
1000
1000
,
0001
0001
0100
0010
,
2002
3003
0001
0001
,
1000
1000
0001
0010
,
1000
0010
0100
0100
,
1000
1000
0001
0001
,
0100
0100
0001
0001
,
1000
1000
0001
0010
,
1000
0010
0001
0001
,
1000
1000
0010
0100
,
2002
3003
1000
1000
,
0001
0001
1000
0100
,
0001
0100
0010
0010
,
0001
0001
1001
1001
,
2002
3003
1000
0100
,
0010
0001
0010
0100
,
1000
1000
0001
0100
,
1000
0100
0001
1000
,
0010
0010
0001
0010
,
0100
1000
0100
0010
,
0001
0001
1000
0010
,
0001
0010
1000
0001
,
0100
0000
0100
0000
0010
0010
0010
0000
;

//---------------dance-single - ----------------
#NOTES:
     dance-single:
     :
     Medium:
     9:
     0.505489,0.519885,0.423695,0.309183,0.000000,309.000000,272.000000,37.000000,27.000000,0.000000,0.000000,0.505489,0.519885,0.423695,0.309183,0.000000,309.000000,272.000000,37.000000,27.000000,0.000000,0.000000:
0000
0000
0000
0000
,
0000
0000
0000
0000
,
0000
0000
0000
0000
,
0000
0000
0000
0000
,
2000
0000
0100
0000
3001
1000
0000
1000
,
0001
0000
0100
0000
0010
1000
0010
1000
,
0002
0000
0010
0000
1003
0001
0000
1000
,
2002
0000
3003
0000
0001
0100
1000
0100
,
0001
0010
0100
1000
,
2010
0000
0100
0000
0001
0001
3001
0000
,
1000
0010
0100
0001
,
1000
0100
0001
0100
1000
0001
1000
0000
,
0001
0100
0010
1000
,
2100
0000
0010
0000
0001
0001
3001
0000
,
1000
0100
0010
0001
,
1000
0010
0001
0000
0001
0010
1000
0001
,
0100
0100
0100
0000
0101
0000
1100
0000
,
2001
0000
3100
0000
1000
0100
0010
0001
,
2000
3001
1010
0011
,
1002
0000
0103
0000
0001
0010
0100
1000
,
0002
1003
0101
1010
,
2001
0000
3100
0000
1000
0100
0001
0100
,
0020
0031
1010
0101
,
1002
0000
0103
0000
0001
0001
1000
1000
,
2002
3003
1000
0010
,
0101
0000
0001
0100
1000
0100
0001
0100
,
0020
0030
1010
1010
,
0101
0101
2001
3100
,
1000
0000
0001
0010
0100
0000
1010
0000
,
0011
0000
0001
0010
0100
0010
1000
0010
,
0002
0003
0100
0010
,
1000
0001
1001
0110
,
2002
0000
3003
0000
1000
0100
0001
0000
,
0001
0100
1000
0000
0010
0000
0100
0000
,
1001
0000
1001
0000
0001
0100
1000
0000
,
1000
0100
0001
0000
1000
0100
0010
0001
,
2000
0000
3000
0000
0001
0010
1000
0000
,
1000
0010
0001
0000
1000
0010
0100
0001
,
1000
0000
1001
0000
0001
0001
0001
0000
,
0010
0010
0010
0000
0100
1000
0001
1000
,
0020
0000
0130
0000
0001
0010
1000
0000
,
0001
0100
1000
0000
0001
0100
0010
1000
,
0001
0000
1001
0000
1000
0100
0001
0000
,
1000
0010
0001
0000
1000
0010
0100
0001
,
2000
0000
3001
0000
1000
0010
0001
0000
,
0001
0100
1000
0000
0001
0100
0010
1000
,
0001
0000
1001
0000
1000
1000
1000
0000
,
0001
0001
0001
0000
1010
0000
0101
0000
,
2002
3003
0001
0010
,
0100
1000
2010
0100
,
0001
0001
3001
0000
1000
0000
0010
0000
,
0100
0000
0001
0000
1000
0100
0001
0100
,
1000
0001
1000
0000
0001
0000
0100
0000
,
0010
1000
2100
0010
,
0001
0001
3001
0000
1000
0000
0100
0000
,
0010
0000
0001
0000
1000
0010
0001
0000
,
0001
0010
1000
0001
0100
0100
0100
0000
;

//---------------dance-single - ----------------
#NOTES:
     dance-single:
     :
     Beginner:
     3:
     0.229024,0.292435,0.045805,0.011451,0.000000,140.000000,136.000000,4.000000,1.000000,0.000000,0.000000,0.229024,0.292435,0.045805,0.011451,0.000000,140.000000,136.000000,4.000000,1.000000,0.000000,0.000000:
0000
0000
0000
0000
,
0000
0000
0000
0000
,
0000
0000
0000
0000
,
0000
0000
0000
0000
,
1000
0000
1000
0000
,
0010
0000
0010
0000
,
0100
0000
0001
0001
,
0001
0000
0000
0000
,
0010
0000
0010
0000
,
0100
0100
0100
0000
,
1000
0000
1000
0000
,
0001
0001
0001
0000
,
0100
0000
0100
0000
,
0010
0010
0010
0000
,
1000
0000
1000
0000
,
0001
0001
0001
0001
,
1000
1000
1000
0000
,
0010
0000
0100
0100
,
0100
0000
0001
0000
,
0010
0000
0100
0100
,
0100
0000
1000
0000
,
0001
0000
0100
0100
,
0100
0000
0001
0000
,
1000
0000
0010
0010
,
0010
0000
0100
0000
,
0001
0000
1000
1000
,
1000
0000
0100
0100
,
0100
0100
0200
0000
,
0300
0000
0010
0000
,
0001
0000
1000
1000
,
1000
0000
0010
0000
,
0100
0000
1001
0000
,
0000
0000
0001
0001
,
0001
0000
0010
0000
,
0100
0000
1000
1000
,
1000
0000
0001
0000
,
1001
0000
1000
1000
,
1000
0000
0010
0000
,
0100
0000
0001
0001
,
0001
0000
1000
1000
,
1000
0000
0001
0001
,
0001
0000
0010
0000
,
0100
0000
1000
1000
,
1000
0000
0010
0000
,
0100
0000
0001
0001
,
0001
0000
1000
0000
,
0100
0000
0010
0010
,
0010
0010
0010
0010
,
1001
0000
1000
0000
,
0010
0000
0100
0100
,
0100
0000
0001
0000
,
1000
0000
0010
0010
,
0010
0010
1000
0000
,
0100
0000
0010
0010
,
0010
0000
0001
0000
,
0100
0000
0010
0010
,
0010
0010
0100
1001
;

//---------------dance-double - ----------------
#NOTES:
     dance-double:
     :
     Hard:
     13:
     0.680529,0.779827,0.652719,0.446597,0.200396,416.000000,359.000000,57.000000,39.000000,0.000000,0.000000,0.680529,0.779827,0.652719,0.446597,0.200396,416.000000,359.000000,57.000000,39.000000,0.000000,0.000000:
00000000
00000000
00000000
00000000
,
00000000
00000000
00000000
00000000
,
00000000
00000000
00000000
00000000
,
00000000
00000000
00000000
00000000
,
00101000
00000000
00001000
01000000
00100000
10000000
00000000
10010000
,
00000000
10000000
01000000
00010000
00001000
00010000
01000000
10000000
,
01010000
00000000
01000000
00100000
10000000
00010000
00000000
00100000
,
00022000
00000000
00000000
00000000
00033000
00000000
00000000
00000000
00010000
00001000
00010000
00001000
00010000
00001000
00010000
00001000
,
00010000
00000010
00000100
00000010
00002000
00000000
00003100
00001200
,
00000000
00000001
00000000
00000010
00000000
00001000
00001300
00000000
,
00000001
00000100
00001000
00010000
02000000
00000000
13000000
10200000
,
00000000
00310000
00100000
10000000
00010000
10000000
00001000
00000000
,
00001000
01000000
00100000
01000000
00020000
00000000
00130000
00210000
,
00000000
10000000
00000000
01000000
00000000
00010000
00310000
00000000
,
10000000
00100000
00010000
00001000
00000020
00000000
00000031
00000201
,
00000000
00001300
00000100
00000001
00000000
00001000
00000100
00000010
,
00001001
00001001
00001001
00000000
00000101
00000000
00001010
00000000
,
00010200
00000000
00000000
00000000
00001300
00000000
00000100
00000000
00010000
00001000
00100000
00000000
00100000
00000000
00010000
01000000
,
00010000
01000000
00100000
00000000
00100000
00000000
00000000
00000000
10100000
00000000
00000000
00000000
01010000
00000000
00000000
00000000
,
00102000
00000000
00013000
01000000
10000000
01000000
00100000
00001000
,
02000000
00000000
00000000
00000000
03100000
10000000
00100000
10000000
00010000
00000000
00000000
00000000
01010000
00000000
00000000
00000000
,
00201000
00000000
00000000
00000000
00310000
00000000
00100000
00000000
00001000
00010000
00000100
00000000
00000100
00000000
00001000
00000010
,
00001000
00000010
00000100
00000000
00000100
00000000
00000000
00000000
00000101
00000000
00000000
00000000
00001010
00000000
00000000
00000000
,
00020100
00000000
00130000
10000000
11000000
11000000
01010000
01010000
,
20020000
30030000
11000000
01010000
,
00011000
00000000
00001000
00000100
00000001
00001000
00000010
00000100
,
00002000
00000000
00000000
00000000
00013000
00000000
00000000
00000000
00100000
00000000
00000000
00100000
10000000
00000000
00000000
10000000
,
00010000
00000000
00000000
00010000
01000000
00000000
00000000
01000000
00002000
00000000
00000000
00000000
00010000
00000000
00000000
00000000
,
00103000
00000000
00000000
00000000
00001000
00010000
00000100
00001000
00000010
00000000
00000000
00000000
00001100
00000000
00000000
00000000
,
00011000
00000000
00010000
00100000
10000000
00010000
01000000
00100000
,
00020000
00000000
00031000
00000000
00000020
00000000
00000001
00000001
,
00000000
00000000
00001000
00000000
00001030
00000000
00000010
00000001
00002000
00000000
00000000
00000000
00003002
00000000
00000000
00000000
,
00002003
00000000
00003000
00000000
00000001
00000100
00001010
00000000
,
00000001
00000010
00001100
00000000
00000001
00000010
00001000
00010000
,
00000100
00001000
00000010
00000000
00001000
00000100
00011000
00000000
,
00100000
00010000
10010000
00000000
10000000
00100000
00010000
00100000
,
02000000
00000000
00000000
03010000
10000000
00010000
10000000
00010000
10000000
00000000
01000000
00000000
00110000
00000000
00000000
00000000
,
10000000
00100000
01010000
00000000
10000000
01000000
00010000
00001000
,
00100000
00010000
10000000
00000000
00010000
00010000
00010000
01000000
,
00001000
00001000
00001000
00010000
00000100
00000100
00000100
00001000
,
00000001
00000100
00000010
00001000
00000001
00000100
00000010
00001000
00000001
00000000
00000010
00000000
00001010
00000000
00000000
00000000
,
00000001
00000100
00001100
00000000
00000001
00000100
00001000
00010000
,
00000010
00000000
00000100
00000000
00000001
00001000
00000001
00001000
00000001
00000000
00001000
00000000
00010100
00000000
00000000
00000000
,
00100000
00001000
10010000
00000000
10000000
00100000
00010000
00001000
,
01000000
00000000
00100000
10000000
00010000
01000000
00010000
01000000
00010000
00000000
00100000
00000000
11000000
00000000
00000000
00000000
,
00010000
01000000
10100000
00000000
10000000
01000000
00010000
00001000
,
00100000
00000000
00010000
00000000
10000000
00010000
10000000
00010000
10000000
00000000
10000000
00000000
10000000
00000000
00100000
00000000
,
00010000
00010000
00010000
00001000
00001010
00001010
00000011
00000011
,
00001001
00000000
00000210
00000000
00000301
00000010
00001000
00000010
,
00000002
00000000
00000103
00002100
00000000
00023000
00000000
00230000
,
00000000
01000000
01300000
00000000
00010000
00100000
10000000
00100000
,
02000000
00000000
03100000
00120000
00000000
01030000
10000000
00010000
,
00100000
00000000
01000000
00000000
00010000
00100000
00010000
10000000
00010000
00000000
01000000
00000000
10000000
00000000
01000000
00000000
,
00200000
00000000
10300000
12000000
00000000
03020000
00000000
00032000
,
00000000
00000100
00003100
00000000
00000001
00000010
00001000
00000010
,
00000200
00000000
00000310
00000012
00000000
00000103
00001000
00020000
,
00000000
00130000
01000000
00001000
00011000
00011000
00011000
00000000
;

//---------------dance-double - ----------------
#NOTES:
     dance-double:
     :
     Medium:
     8:
     0.459684,0.454899,0.194671,0.320634,0.000000,281.000000,264.000000,17.000000,28.000000,0.000000,0.000000,0.459684,0.454899,0.194671,0.320634,0.000000,281.000000,264.000000,17.000000,28.000000,0.000000,0.000000:
00000000
00000000
00000000
00000000
,
00000000
00000000
00000000
00000000
,
00000000
00000000
00000000
00000000
,
00000000
00000000
00000000
00000000
,
00001000
00000000
00100000
00010000
00100000
00010000
00000000
01000000
,
00000000
01000000
00000000
00010000
10000000
00000000
00010000
00000000
,
10000000
00000000
00010000
00100000
00010000
00100000
00000000
00001000
,
00020000
00000000
00030000
00000000
00001000
00010000
00001000
00010000
,
00001000
00000000
00000010
00000001
00000010
00000000
00000001
00000100
,
00000000
00000010
00000000
00002000
00000000
00000001
00003001
00000000
,
00001000
00000000
00000100
00000001
00000100
00000000
00001000
00000100
,
00000000
00010000
00001000
00000000
00100000
00010000
10000000
00000000
,
00010000
00000000
01000000
10000000
01000000
00000000
01000000
00100000
,
00000000
01000000
00000000
00020000
00000000
10000000
10030000
00000000
,
00010000
00000000
00100000
10000000
00100000
00000000
00010000
00100000
,
00000000
00001000
00010000
00000100
00000000
00001000
00000010
00000100
,
00000001
00000001
00000001
00000000
00001000
00000000
00000001
00000000
,
00000102
00000000
00001003
00000000
00000001
00000001
00000001
00000000
,
00000100
00000010
00001000
00000000
00000100
00000000
00010000
00000000
,
00020100
00000000
00031000
00000000
00100000
00010000
00100000
00010000
,
20000000
30010000
00010000
10000000
,
20100000
00000000
30010000
00000000
10000000
10000000
10000000
00000000
,
00100000
01000000
00010000
00000000
00100000
00000000
00001000
00000000
,
00102000
00000000
00013000
00000000
00000100
00001000
00000100
00001000
,
00000002
00000003
00002000
00003010
,
00000002
00000000
00000023
00000000
00001030
00000100
00010000
00001000
,
00020000
00030000
00100000
10000000
,
00010000
01000000
00200000
10000000
,
01000000
00310000
00100000
10000000
,
00020000
00000000
01030000
00000000
00001000
00010000
00000100
00010000
,
00000200
00000300
00000010
00000001
,
00000100
00000000
00001000
00000100
00000020
00000000
00002030
00000000
,
00003002
00000003
00001000
00001100
,
00000001
00000000
00000101
00000000
00000001
00000100
00001000
00000000
,
00020000
00130000
10000000
11000000
,
00010000
00000000
01010000
00000000
10000000
01000000
00010000
01000000
,
20000000
30000000
00010000
01010000
,
10000000
00000000
11000000
00000000
10000000
01000000
00010000
00000000
,
00002000
00000000
00003100
00000000
00000010
00000010
00000010
00000000
,
00000100
00000100
00000100
00000000
00000001
00000010
00000100
00001000
,
00000002
00001003
00001000
00001010
,
00000001
00000000
00000011
00000000
00000001
00000010
00001000
00000000
,
00020000
01030000
10000000
10100000
,
00010000
00000000
00110000
00000000
10000000
00100000
00010000
00100000
,
20000000
30000000
00010000
00110000
,
10000000
00000000
10100000
00000000
10000000
00100000
00010000
00000000
,
00002000
00000000
00003010
00000000
00000100
00000100
00000100
00000000
,
00000010
00000010
00000010
00000000
00000001
00000100
00000010
00001000
,
00000001
00000000
00011000
00000000
00010000
00000000
01000000
10000000
,
01000000
00000000
10000000
00100000
00000000
01000000
00000000
00020000
,
00000000
10000000
10030000
00000000
00010000
00000000
00100000
10000000
,
00100000
00000000
00010000
00100000
00000000
00001000
00010000
00000000
,
00000100
00001000
00000001
00000000
00001000
00000000
00000010
00000001
,
00000010
00000000
00000010
00000100
00000000
00000010
00000000
00002000
,
00000000
00000001
00003001
00000000
00001000
00000000
00000100
00000001
,
00000100
00000000
00001000
00000100
00000000
00010000
00001000
00100000
,
00000000
00010000
01000000
00100000
10000000
10000000
10000000
00000000
;

//---------------dance-double - ----------------
#NOTES:
     dance-double:
     :
     Easy:
     6:
     0.368075,0.389914,0.229024,0.229024,0.000000,225.000000,205.000000,20.000000,20.000000,0.000000,0.000000,0.368075,0.389914,0.229024,0.229024,0.000000,225.000000,205.000000,20.000000,20.000000,0.000000,0.000000:
// measure 0
00000000
00000000
00000000
00000000
,  // measure 1
00000000
00000000
00000000
00000000
,  // measure 2
00000000
00000000
00000000
00000000
,  // measure 3
00000000
00000000
00000000
00000000
,  // measure 4
00010000
00001000
00010000
00001000
,  // measure 5
00100000
00010000
01000000
00001000
,  // measure 6
00010000
00001000
00010000
00001000
,  // measure 7
00022000
00033000
00010000
00010000
,  // measure 8
00000100
00001000
00000100
00001000
,  // measure 9
00000010
00000100
00000001
00001000
,  // measure 10
00000100
00010000
00000100
00010000
,  // measure 11
00001000
00100000
00010000
10000000
,  // measure 12
00010000
01000000
00010000
01000000
,  // measure 13
00100000
10000000
00010000
01000000
,  // measure 14
00001000
00010000
00001000
00010000
,  // measure 15
00000100
00001000
00000010
00000100
,  // measure 16
00000001
00000001
00000001
00000000
00001000
00000000
00000100
00000000
,  // measure 17
00000002
00000103
00001000
00000001
,  // measure 18
00001000
00001001
00000001
00000100
,  // measure 19
00002000
00013000
01000000
10000000
,  // measure 20
20020000
30030000
00010000
00100000
,  // measure 21
20000000
30100000
00010000
10000000
,  // measure 22
00010000
10010000
10000000
00100000
,  // measure 23
00020000
00031000
00000010
00000001
,  // measure 24
00002002
00003003
00000001
00000001
,  // measure 25
00000001
00000100
00001000
00000100
,  // measure 26
00000020
00000030
00001000
00000001
,  // measure 27
00001000
00000001
00010000
00001000
,  // measure 28
00010000
00001000
00100000
00100000
,  // measure 29
00100000
00010000
01000000
10000000
,  // measure 30
02000000
03000000
00100000
10000000
,  // measure 31
00010000
01000000
00002000
00023000
,  // measure 32
00032000
00003000
00000010
00001001
,  // measure 33
00000100
00001001
00000001
00000100
,  // measure 34
00001000
00000100
00010000
00011000
,  // measure 35
00001000
00011000
00100000
00010000
,  // measure 36
20000000
30000000
01000000
10010000
,  // measure 37
00100000
10010000
10000000
00100000
,  // measure 38
01000000
00010000
00100000
00100000
,  // measure 39
00001000
00001000
00010000
00000100
,  // measure 40
00002000
00003001
00000100
00001001
,  // measure 41
00000010
00001001
00000001
00000010
,  // measure 42
00001000
00000010
00010000
00011000
,  // measure 43
00001000
00011000
01000000
00010000
,  // measure 44
20000000
30000000
00100000
10010000
,  // measure 45
01000000
10010000
10000000
01000000
,  // measure 46
00100000
00010000
01000000
01000000
,  // measure 47
00001000
00001000
00011000
00011000
,  // measure 48
00022000
00033000
00000100
00001000
,  // measure 49
00000100
00001000
00000010
00000100
,  // measure 50
00000001
00001000
00000100
00010000
,  // measure 51
00000100
00010000
00001000
00100000
,  // measure 52
00010000
10000000
00010000
01000000
,  // measure 53
00010000
01000000
00100000
10000000
,  // measure 54
00010000
01000000
00001000
00010000
,  // measure 55
00001000
00010000
00000100
00001000
,  // measure 56
00000010
00000000
00000100
00000000
00000001
00000001
00000001
00000000
;
