#TITLE:Crazy Noisy Bizarre Town;
#SUBTITLE:;
#ARTIST:THE DU;
#TITLETRANSLIT:;
#SUBTITLETRANSLIT:;
#ARTISTTRANSLIT:;
#GENRE:UNBREAKABLE GROOVE;
#CREDIT:;
#BANNER:Crazy Noisy Bizarre Town.png;
#BACKGROUND:Crazy Noisy Bizarre Town-bg.png;
#LYRICSPATH:;
#CDTITLE:;
#MUSIC:Crazy Noisy Bizarre Town.mp3;
#OFFSET:2.368716;
#SAMPLESTART:48.774532;
#SAMPLELENGTH:15.620000;
#LASTBEATHINT:3.069375;
#SELECTABLE:YES;
#BPMS:0.000000=136.000000
;
#STOPS:
;
#BGCHANGES:6.000=Crazy Noisy Bizarre Town.mp4=1.000=0=0=1=====,
99999=-nosongbg-=1.000=0=0=0 // don't automatically add -songbackground-
;
#KEYSOUNDS:;
#ATTACKS:;

//---------------dance-single - ----------------
#NOTES:
     dance-single:
     :
     Hard:
     11:
     0.508030,0.591448,0.575269,0.444526,0.098057,272.000000,228.000000,44.000000,34.000000,0.000000,0.000000,0.508030,0.591448,0.575269,0.444526,0.098057,272.000000,228.000000,44.000000,34.000000,0.000000,0.000000:
// measure 0
0000
0000
0000
0000
,  // measure 1
0000
0000
0000
0000
,  // measure 2
0000
0000
0000
0000
,  // measure 3
0000
0000
0000
0000
,  // measure 4
1000
1100
0000
0001
0101
0000
1000
1001
,  // measure 5
0000
0001
2000
0000
0010
0000
0000
0000
3100
0000
1000
0000
0001
0000
0001
0000
,  // measure 6
1000
0010
0001
0000
0001
0010
1000
0000
,  // measure 7
1100
0000
0000
0000
0101
0000
0000
0000
1002
0000
0000
0100
0000
0103
0000
0000
,  // measure 8
0001
0011
0000
1000
1010
0000
0001
1001
,  // measure 9
0000
1000
0002
0000
0100
0000
0000
0000
0013
0000
0001
0000
1000
0000
2010
0000
,  // measure 10
0000
3001
0010
0012
0000
1003
0100
2100
,  // measure 11
0000
3001
0100
0102
0000
1000
1003
1000
,  // measure 12
0001
0010
0100
0010
0000
0001
1000
0001
,  // measure 13
0100
0000
0000
0100
0000
0000
0010
0000
1000
0000
0000
1000
0000
0000
0001
0000
,  // measure 14
1000
0100
0010
0100
0000
1000
0010
0100
,  // measure 15
0010
0000
0010
0000
0000
0000
1002
0000
0000
0000
0103
0000
0001
0000
1000
0001
,  // measure 16
2000
0010
3010
0200
0000
0001
0301
1000
,  // measure 17
0002
0010
0013
0200
0000
1000
1300
0001
,  // measure 18
2000
0000
0010
0000
3100
1000
0010
0100
,  // measure 19
0101
0000
1010
0000
0011
0000
1100
0100
,  // measure 20
1000
0010
0100
0010
0001
0010
1000
0000
,  // measure 21
1200
0000
0001
0000
1000
1000
1300
0000
,  // measure 22
0001
0100
0010
0100
1000
0100
0001
0000
,  // measure 23
0021
0000
1000
0000
0001
0001
0031
0000
,  // measure 24
1000
0010
0001
0010
0100
0001
1000
0200
,  // measure 25
0000
0300
0011
0000
1010
0000
1001
0000
,  // measure 26
0001
0001
0100
1010
0000
0011
0000
1002
,  // measure 27
0000
0000
0010
0000
0100
0000
1003
2020
,  // measure 28
3030
0000
0101
0000
0101
0000
0101
0000
2002
0000
3003
0000
0001
0010
0100
0000
,  // measure 29
1000
0010
0100
0010
1010
0000
1001
0000
,  // measure 30
1000
0100
0001
0200
0000
0010
0310
0000
,  // measure 31
0001
0100
0000
0010
1010
0000
0011
0000
,  // measure 32
0001
0010
1000
0020
0000
0100
0130
0000
,  // measure 33
1000
0010
0100
1000
0200
0000
0301
0000
,  // measure 34
0012
0000
0010
0010
0000
0100
0103
0001
,  // measure 35
0021
2030
3002
0103
,  // measure 36
2100
0000
3001
0000
0102
0000
1003
2001
,  // measure 37
0000
3010
0010
1002
0000
0013
0100
2001
,  // measure 38
0000
0000
3100
0000
0010
0000
1002
0000
0000
0000
0100
0000
0103
0001
0100
0001
,  // measure 39
1000
0000
0100
1000
0000
0000
0001
0000
0100
0001
0000
0000
1000
0000
0010
1000
,  // measure 40
0000
0000
0001
0000
0010
0001
0000
0000
0000
0000
1000
0000
0010
0000
0100
0001
,  // measure 41
0000
1001
0000
0000
0000
0000
0000
0000
;

//---------------dance-single - ----------------
#NOTES:
     dance-single:
     :
     Easy:
     5:
     0.250279,0.268840,0.039223,0.130743,0.000000,134.000000,131.000000,3.000000,10.000000,0.000000,0.000000,0.250279,0.268840,0.039223,0.130743,0.000000,134.000000,131.000000,3.000000,10.000000,0.000000,0.000000:
0000
0000
0000
0000
,
0000
0000
0000
0000
,
0000
0000
0000
0000
,
0000
0000
0000
0000
,
1000
0010
1000
0010
,
0100
0001
0100
0001
,
1000
0100
1000
0100
,
0010
0001
0010
0001
,
1000
0001
1000
0001
,
0100
0010
0100
0010
,
2000
3000
0200
0300
,
0010
0001
1000
1001
,
0001
0100
1000
0100
,
0010
0100
0001
0000
,
1000
0100
0001
0100
,
0010
0100
1000
0000
,
0001
0010
0100
0010
,
1000
0010
0001
1000
,
0002
0000
0000
0000
,
0010
0010
0010
0013
,
0001
0100
0010
1000
,
0001
0001
1000
1000
,
0001
0010
0100
1000
,
0001
0001
1000
1000
,
0001
0010
1000
0010
,
0100
0100
1000
1000
,
0001
0100
1000
0100
,
0002
0000
0000
0000
,
1000
1000
1003
1001
,
1000
0010
0100
1000
,
0100
0010
1000
0000
,
0001
0010
0100
0001
,
0100
0010
0001
0000
,
1000
0010
0001
1000
,
0100
0001
1000
0000
,
0001
0010
0100
1000
,
0002
0003
2000
3000
,
2002
3003
0200
0300
,
0010
0001
2000
3000
,
0001
0001
0100
0100
,
0010
0010
0000
1000
,
0001
0001
0000
0000
0000
0000
0000
0000
;

//---------------dance-double - ----------------
#NOTES:
     dance-double:
     :
     Hard:
     11:
     0.500558,0.564564,0.549120,0.457600,0.084983,268.000000,226.000000,42.000000,35.000000,0.000000,0.000000,0.500558,0.564564,0.549120,0.457600,0.084983,268.000000,226.000000,42.000000,35.000000,0.000000,0.000000:
00000000
00000000
00000000
00000000
,
00000000
00000000
00000000
00000000
,
00000000
00000000
00000000
00000000
,
00000000
00000000
00000000
00000000
,
00001000
00101000
00000000
01000000
01010000
00000000
00100000
10100000
,
00000000
10000000
00020000
00000000
01000000
00000000
00030000
00000000
00001000
00000000
00100000
00000000
00010000
00000000
01000000
00000000
,
00001000
00010000
00000100
00000000
00001000
00000010
00000100
00000000
,
00000101
00000000
00000000
00000000
00001100
00000000
00000000
00000000
00001020
00000000
00000000
00010000
00000000
00001030
00000000
00000000
,
00010000
00010100
00000000
00000010
00001010
00000000
00000100
00000101
,
00000000
00000001
00002000
00000000
00000010
00000000
00003000
00000000
00010000
00000000
00000100
00000000
00001000
00000000
00001020
00000000
,
00000000
00000130
00000001
00002001
00000000
00003100
00010000
00012000
,
00000000
01003000
00100000
20100000
00000000
00010000
00010000
30010000
,
10000000
01000000
00010000
01000000
00000000
10000000
00010000
00100000
,
00001000
00000000
00000000
00001000
00000000
00000000
00010000
00000000
00000100
00000000
00000000
00000100
00000000
00000000
00001000
00000000
,
00000001
00000100
00001000
00000100
00000000
00000001
00000010
00000100
,
00010000
00000000
00010000
00000000
00000000
00000000
00102000
00000000
00000000
00000000
01000000
00000000
01003000
00000000
00001000
01000000
,
00200000
10000000
10300000
02000000
00000000
00010000
03010000
01000000
,
00200000
00001000
00301000
00020000
00000000
00000010
00030010
00000100
,
00000002
00000000
00000010
00000000
00000103
00000001
00000010
00000100
,
00001100
00000000
00010010
00000000
00101000
00000000
10010000
10000000
,
00010000
01000000
10000000
01000000
00001000
00010000
00000100
00000000
,
00001020
00000000
00000001
00000000
00001000
00001030
00000001
00000000
,
00001000
00000010
00000001
00000010
00010000
00001000
00100000
00000000
,
02010000
00000000
10000000
00000000
00010000
00010000
03010000
00000000
,
10000000
01000000
00010000
00001000
00000100
00000001
00001000
00001002
,
00000000
00000203
00000320
00010030
,
00001000
00001000
00100000
01010000
00000000
10100000
00000000
20010000
,
00000000
00100000
30100000
00000000
10000000
00100000
00000000
02020000
,
03030000
00000000
00110000
00000000
00110000
00000000
00110000
00000000
00202000
00000000
00303000
00000000
00001000
00010000
00000100
00000000
,
00001000
00000010
00000001
00000010
00001010
00000000
00001001
00000000
,
00001000
00000010
00010000
00002000
00000000
00100000
00103000
00000000
,
00010000
01000000
00000000
10000000
11000000
00000000
01010000
00000000
,
10000000
01000000
00100000
00002000
00000000
00010000
00013000
00000000
,
00001000
00010000
00000010
00000100
00001000
00000000
00011000
00000000
,
00020000
00000000
00000100
00000100
00000000
00000010
00030010
00010000
,
00010020
00000032
00002003
00003100
,
00002010
00000000
00003001
00000000
00000012
00000000
00001003
00001002
,
00000000
00001003
00000010
00002010
00000000
00003100
00010000
00020100
,
00000000
00031000
00100000
00102000
00000000
01000000
01003000
00000000
,
00100000
00000000
10000000
00100000
00000000
00000000
01000000
00000000
00010000
01000000
00000000
00000000
00001000
00000000
00100000
00001000
,
00000000
00000000
00010000
00000000
00000100
00010000
00000000
00000000
00000000
00000000
00000100
00000000
00001000
00000000
00000010
00000100
,
00000000
00001001
00000000
00000000
00000000
00000000
00000000
00000000
;

//---------------dance-single - ----------------
#NOTES:
     dance-single:
     :
     Beginner:
     2:
     0.125140,0.188760,0.013074,0.013074,0.000000,67.000000,66.000000,1.000000,1.000000,0.000000,0.000000,0.125140,0.188760,0.013074,0.013074,0.000000,67.000000,66.000000,1.000000,1.000000,0.000000,0.000000:
0000
0000
0000
0000
,
0000
0000
0000
0000
,
0000
0000
0000
0000
,
0000
0000
0000
0000
,
1000
0000
0000
0000
,
0010
0000
0000
0000
,
0100
0000
0000
0000
,
0001
0000
0001
0000
,
0010
0000
0000
0000
,
0100
0000
0000
0000
,
1000
0000
1000
0000
,
0001
0000
0001
0000
,
0100
0000
0100
0000
,
0100
0000
0000
0000
,
0010
0000
0010
0000
,
0010
0000
0000
0000
,
1000
0000
1000
0000
,
0001
0000
0001
0000
,
0010
0000
0010
0000
,
0100
0000
0100
0000
,
1000
0000
0000
0000
,
0010
0010
0010
0000
,
0100
0000
0000
0000
,
0001
0001
0001
0000
,
0010
0000
0000
0000
,
0100
0100
0100
0000
,
1000
0000
0001
0000
,
1001
0000
0000
0000
,
0010
0010
0010
0000
,
1000
0000
0010
0000
,
0100
0000
0001
0000
,
1000
0000
0100
0000
,
0010
0000
0001
0000
,
1000
0000
0100
0000
,
0001
0000
0100
0000
,
1000
0000
0010
0000
,
0001
0000
0010
0000
,
2000
0000
0000
0000
,
3000
0000
0000
0000
,
0001
0000
0010
0000
,
0100
0000
1000
0000
,
0001
0001
0000
0000
;

//---------------dance-single - ----------------
#NOTES:
     dance-single:
     :
     Medium:
     7:
     0.388493,0.430144,0.235337,0.248411,0.000000,208.000000,190.000000,18.000000,19.000000,0.000000,0.000000,0.388493,0.430144,0.235337,0.248411,0.000000,208.000000,190.000000,18.000000,19.000000,0.000000,0.000000:
0000
0000
0000
0000
,
0000
0000
0000
0000
,
0000
0000
0000
0000
,
0000
0000
0000
0000
,
1000
1000
0000
0010
0010
0000
0100
0100
,
0000
0001
2000
0000
0010
0000
3100
0000
,
1000
0010
0100
0000
0001
0100
0010
0000
,
1000
0001
0101
1100
,
0001
0001
0000
0100
0100
0000
0010
0010
,
0000
1000
0002
0000
0100
0000
1003
0002
,
0000
0013
0000
2000
0000
3010
0000
0002
,
0000
0103
0100
0020
0000
1000
1030
0001
,
1000
0100
0001
0100
,
1000
0010
0100
0001
0100
0010
1000
0000
,
0001
0010
0100
1000
,
0001
0100
0010
1000
0010
0100
0001
1000
,
0002
0000
0013
0200
0000
1000
1300
0000
,
0002
0000
0103
0020
0000
1000
1030
0000
,
0200
0010
0010
0310
,
0011
1100
0101
1010
,
0001
0000
0100
0000
1000
0100
0001
0000
,
0010
0100
2001
3100
,
1000
0000
0010
0000
0001
0010
1000
0000
,
0100
0010
1001
1001
,
0001
0000
0100
0000
1000
0001
0010
0000
,
2000
3001
0011
1100
,
1000
0010
1000
0010
0000
0100
0000
0002
,
0000
0000
0000
0003
,
1000
0100
0010
0001
1000
0000
1001
0000
,
0001
0100
0001
0000
0100
1000
0100
0000
,
0010
0100
0001
2000
0000
0001
3001
0000
,
1000
0100
1000
0000
0100
0001
0100
0000
,
0010
0100
0010
0002
0000
1000
1003
0000
,
0001
0100
1000
0000
0001
0010
1000
0000
,
0001
0010
0100
2000
0000
0001
3001
0000
,
1010
1010
0101
0101
,
2001
3100
1002
0103
,
0001
0010
0010
0000
0100
1000
1000
0000
,
0001
0100
1000
0000
1000
0100
0001
0000
,
0010
0010
0000
0100
0100
0000
1000
0001
,
0000
1000
0001
0000
0000
0010
0100
1000
,
0001
0100
0000
0000
0000
0000
0000
0000
;

//---------------dance-double - ----------------
#NOTES:
     dance-double:
     :
     Easy:
     5:
     0.261486,0.268840,0.052297,0.104594,0.000000,140.000000,136.000000,4.000000,8.000000,0.000000,0.000000,0.261486,0.268840,0.052297,0.104594,0.000000,140.000000,136.000000,4.000000,8.000000,0.000000,0.000000:
00000000
00000000
00000000
00000000
,
00000000
00000000
00000000
00000000
,
00000000
00000000
00000000
00000000
,
00000000
00000000
00000000
00000000
,
00010000
00001000
00010000
00001000
,
00100000
00010000
00100000
00010000
,
01000000
00010000
01000000
00010000
,
00100000
10000000
00010000
01000000
,
00001000
00010000
00001000
00010000
,
00000100
00001000
00000100
00001000
,
00000020
00000030
00000200
00000300
,
00000001
00001000
00000001
00001001
,
00000001
00000010
00000100
00001000
,
00000100
00000010
00010000
00000000
,
00001000
00100000
00010000
01000000
,
00100000
10000000
00010000
00000000
,
10000000
10000000
10000000
01000000
,
00010000
00010000
00010000
01000000
,
00100000
00001000
00010000
00000100
,
00001000
00001000
00000001
00000001
,
00001000
00000010
00000001
00000010
,
00001000
00000100
00010000
00000000
,
00001000
00100000
00010000
01000000
,
10000000
01000000
00100000
10010000
,
10000000
01000000
00010000
00001000
,
00000100
00000001
00001000
00000001
,
00000010
00001000
00010000
00100000
,
20000000
00000000
00000000
30000000
,
00010000
00100000
00001000
00011000
,
00010000
00000100
00010000
00000010
,
00000100
00000001
00002000
00003000
,
00000001
00000010
00000100
00000010
,
00000001
00001000
00000200
00000300
,
00010000
00001000
01000000
10000000
,
01000000
00100000
20000000
30000000
,
00010000
00100000
00001000
00010000
,
00000200
00000300
00002000
00003000
,
00000010
00000010
00000100
00000100
,
00000001
00001000
00000001
00001001
,
00000001
00000001
00000010
00000010
,
00000100
00000100
00000000
00010000
,
00001000
00001000
00000000
00000000
00000000
00000000
00000000
00000000
;

//---------------dance-double - ----------------
#NOTES:
     dance-double:
     :
     Medium:
     7:
     0.373551,0.403260,0.169966,0.366080,0.000000,200.000000,187.000000,13.000000,28.000000,0.000000,0.000000,0.373551,0.403260,0.169966,0.366080,0.000000,200.000000,187.000000,13.000000,28.000000,0.000000,0.000000:
00000000
00000000
00000000
00000000
,
00000000
00000000
00000000
00000000
,
00000000
00000000
00000000
00000000
,
00000000
00000000
00000000
00000000
,
00010000
00010000
00000000
00001000
00001000
00000000
00100000
00100000
,
00000000
00010000
02000000
00000000
00100000
00000000
03100000
00000000
,
10000000
01000000
00010000
00000000
00010000
01000000
10000000
00000000
,
00100000
01000000
01010000
00011000
,
00001000
00001000
00000000
00010000
00010000
00000000
00000100
00000100
,
00000000
00001000
00000020
00000000
00000100
00000000
00000130
00000002
,
00000000
00000013
00000000
00002000
00000000
00003010
00000000
00000002
,
00000000
00000103
00000100
00000020
00000000
00001000
00001000
00001030
,
00000100
00010000
00001000
00010000
,
00001000
00100000
00010000
00000000
10000000
00010000
00100000
00000000
,
00010000
01000000
10000000
01000000
,
00010000
00100000
00001000
00020000
00000000
00000100
00030100
00000000
,
00002000
00000000
00000010
00000010
00000000
00000001
00003001
00000000
,
00000002
00000000
00000010
00000010
00000000
00001000
00001003
00000000
,
00000001
00000100
00001000
00010000
,
00011000
00011000
00101000
00001010
,
00001000
00000010
00000100
00000000
00000100
00000010
00001000
00000000
,
00000100
00010000
00010100
00011000
,
00001000
00100000
00010000
00000000
01000000
00010000
00100000
00000000
,
01000000
10000000
10010000
10010000
,
10000000
00100000
00010000
00000000
00010000
00100000
10000000
00000000
,
00002000
00023000
00030200
00002300
,
00003010
00000100
00000010
00000100
00000000
00000002
00000000
00002000
,
00000000
00000000
00000000
00003003
,
00000001
00000010
00000100
00001000
00000010
00000000
00010100
00000000
,
00010000
00001000
00100000
00000000
00010000
10000000
00100000
00000000
,
10000000
01000000
00010000
02000000
00000000
00100000
03100000
00000000
,
00010000
01000000
10000000
00000000
10000000
01000000
00010000
00000000
,
00100000
00001000
01000000
00020000
00000000
00100000
00130000
00000000
,
00001000
00010000
00000100
00000000
00001000
00000010
00000100
00000000
,
00000001
00000010
00001000
00000020
00000000
00000100
00000130
00000000
,
00000012
00000203
00000320
00002030
,
00003200
00000000
00010300
00000000
00002000
00000000
00103000
00020000
,
00000000
01030000
00000000
20000000
00000000
31000000
00000000
00200000
,
00000000
10300000
00000000
00020000
00000000
01000000
01030000
00000000
,
00001000
00001000
00000000
00010000
00010000
00000000
00000100
00000100
,
00000000
00001000
00001000
00000000
00000000
00000010
00000100
00000001
,
00001000
00001001
00000000
00000000
00000000
00000000
00000000
00000000
;
