#VERSION:0.83;
#TITLE:チョコミントフレーバータイム;
#SUBTITLE:;
#ARTIST:バニラビーンズ;
#TITLETRANSLIT:Choco Mint Flavor Time;
#SUBTITLETRANSLIT:;
#ARTISTTRANSLIT:Vanilla Beans;
#GENRE:DOLLED-UP SWING;
#ORIGIN:;
#CREDIT:;
#BANNER:Choco Mint Flavor Time.png;
#BACKGROUND:Choco Mint Flavor Time-bg.png;
#PREVIEWVID:;
#JACKET:Choco Mint Flavor Time-jacket.png;
#CDIMAGE:;
#DISCIMAGE:;
#LYRICSPATH:;
#CDTITLE:;
#MUSIC:Choco Mint Flavor Time.mp3;
#OFFSET:0.970889;
#SAMPLESTART:52.027565;
#SAMPLELENGTH:15.700002;
#SELECTABLE:YES;
#DISPLAYBPM:208.000;
#BPMS:0.000=208.000,
191.000=211.000,
192.000=208.000;
#STOPS:;
#DELAYS:;
#WARPS:;
#TIMESIGNATURES:0.000=4=4;
#TICKCOUNTS:0.000=4;
#COMBOS:0.000=1;
#SPEEDS:0.000=1.000=0.000=0;
#SCROLLS:0.000=1.000;
#FAKES:;
#LABELS:0.000=Song Start;
#BGCHANGES:1.500=Choco Mint Flavor Time.mp4=1.000=0=0=1=====,
99999=-nosongbg-=1.000=0=0=0 // don't automatically add -songbackground-
;
#KEYSOUNDS:;
#ATTACKS:
;

//---------------dance-single - ----------------
#NOTEDATA:;
#CHARTNAME:;
#STEPSTYPE:dance-single;
#DESCRIPTION:;
#CHARTSTYLE:;
#DIFFICULTY:Hard;
#METER:12;
#RADARVALUES:0.649424,0.806151,0.779308,0.701378,0.541186,525.000000,435.000000,90.000000,81.000000,0.000000,0.000000,0.000000,0.000000,0.000000,0.649424,0.806151,0.779308,0.701378,0.541186,525.000000,435.000000,90.000000,81.000000,0.000000,0.000000,0.000000,0.000000,0.000000;
#CREDIT:;
#NOTES:
// measure 0
0000
0000
0000
0000
,  // measure 1
0000
0000
0000
0000
,  // measure 2
0000
0000
0000
0000
,  // measure 3
2200
0000
0000
0000
0000
0000
0000
0000
0300
0000
0000
0002
,  // measure 4
0000
0000
0000
3003
,  // measure 5
0202
0000
0000
0000
0000
0000
0000
0000
0300
0000
0000
2000
,  // measure 6
0000
0000
0000
3003
,  // measure 7
2010
0100
0000
0100
,  // measure 8
0000
0001
0000
3001
,  // measure 9
0012
0100
0000
0103
,  // measure 10
0001
1000
0001
1000
0001
1000
0010
0100
0010
0100
0010
0100
,  // measure 11
0001
0000
0000
0101
0000
0000
1100
0000
0000
1000
0000
0001
,  // measure 12
0000
0000
0001
0000
0000
0001
0020
0000
0000
0130
0000
0000
,  // measure 13
0011
0000
0000
1010
0000
0000
0011
0000
0000
0001
0000
1000
,  // measure 14
0000
0000
1000
0000
0000
1000
0200
0000
0000
0310
0000
0000
,  // measure 15
0101
0000
0000
1010
0000
0000
1001
0000
0000
1000
0000
0100
,  // measure 16
0000
0000
0100
0000
0000
0100
0020
0000
0000
0031
0000
0000
,  // measure 17
1010
0000
0000
0101
0000
0000
1001
0000
0000
0001
0000
0010
,  // measure 18
0000
0000
0010
0000
0000
0010
0200
0000
0000
1300
0000
0000
,  // measure 19
0001
0000
0000
0100
0000
0000
1000
0000
0000
0100
0000
0010
,  // measure 20
0000
0000
0010
1000
0000
0000
1010
0000
0000
1001
0000
0000
,  // measure 21
2000
3100
0002
0103
,  // measure 22
1000
0001
0101
1100
,  // measure 23
2000
3010
0002
0013
,  // measure 24
1010
0000
0000
0101
0000
0000
0001
0000
0001
0010
0000
0010
,  // measure 25
0200
1000
1300
0001
,  // measure 26
0200
0301
2000
3001
,  // measure 27
1000
0000
0000
0010
0000
0000
0001
0000
0000
0010
0000
0100
,  // measure 28
0000
0000
0100
0001
0000
0000
0101
0000
0000
1001
0000
0000
,  // measure 29
0002
0013
2000
3010
,  // measure 30
0001
1000
1010
0011
,  // measure 31
0002
0103
2000
3100
,  // measure 32
0101
0000
0000
1010
0000
0000
1000
0000
1000
0100
0000
0100
,  // measure 33
0020
0001
0031
1000
,  // measure 34
2001
3100
1002
0103
,  // measure 35
0012
1000
1003
0001
,  // measure 36
0010
0000
0000
0100
0000
1000
0000
0000
1000
0001
0000
0000
,  // measure 37
2000
0010
3100
1000
,  // measure 38
0001
0000
0000
0100
0000
1000
0000
0000
0100
0001
0000
0000
,  // measure 39
0011
0011
1100
1100
,  // measure 40
1000
0000
0000
0010
0000
0001
0000
0000
0010
1000
0000
0000
,  // measure 41
2010
3100
0012
0103
,  // measure 42
2100
3010
0102
0013
,  // measure 43
0001
0000
0010
0000
0000
0100
0010
0000
0000
1000
0000
0010
,  // measure 44
0000
0000
0100
0010
0000
0000
0011
0000
0000
1100
0000
0000
,  // measure 45
2002
0000
0000
3003
,  // measure 46
1000
0010
1000
0010
1000
0010
0100
0001
0100
0001
0100
0001
,  // measure 47
1000
1100
0102
1003
,  // measure 48
0001
0000
0000
0010
0000
1000
0000
0000
0010
0000
0000
0001
,  // measure 49
2000
0000
0000
0010
0000
0000
3100
0000
0000
1000
0000
1000
,  // measure 50
0001
0000
0000
0100
0000
1000
0000
0000
0100
0000
0000
0010
,  // measure 51
2000
0100
3001
1000
,  // measure 52
0102
0000
0000
1003
0000
1001
0000
0000
0001
0010
0000
1000
,  // measure 53
0020
0000
0000
0100
0000
0000
0130
0000
0000
1000
0000
2200
,  // measure 54
0000
0000
3300
0001
0000
0102
0000
0000
0000
1003
0000
0000
,  // measure 55
1002
0010
0103
0001
,  // measure 56
2001
0010
3100
1000
,  // measure 57
0002
0203
2300
3002
,  // measure 58
0013
0000
0010
0100
0000
0100
0001
0000
0000
1001
0000
0000
,  // measure 59
2000
0100
3001
1000
,  // measure 60
0002
0100
1003
1001
,  // measure 61
0001
0010
0001
0010
0001
0010
0100
1000
0100
1000
0100
1000
,  // measure 62
0002
0000
0000
0003
,  // measure 63
1100
0101
1002
0103
,  // measure 64
0021
0000
0000
0100
0000
0130
0000
0000
1001
0000
0000
1000
,  // measure 65
0010
0000
0000
0101
0000
0000
1100
0000
0000
1000
0000
0010
,  // measure 66
0001
0000
0000
0010
0000
0100
0000
0000
0101
0000
0000
0001
,  // measure 67
2000
0010
3001
1000
,  // measure 68
0012
0000
0000
1003
0000
2010
0000
0000
3001
0100
0000
0100
,  // measure 69
0020
0000
0000
0100
0000
0000
0031
0000
0000
0010
0000
2010
,  // measure 70
0000
0000
3000
0100
0000
0201
0000
0000
0000
1300
0000
0000
,  // measure 71
2001
0100
3010
1000
,  // measure 72
1002
0100
0013
0001
,  // measure 73
2000
3020
0032
2003
,  // measure 74
3100
0000
0100
0010
0000
0010
1000
0000
0000
1001
0000
0000
,  // measure 75
0002
0010
1003
1001
,  // measure 76
2000
0010
3001
1001
,  // measure 77
0002
0000
0000
0100
0000
0000
1003
0000
0001
1000
0001
1000
,  // measure 78
0020
0100
0000
0130
,  // measure 79
0001
0010
0100
1000
0100
0010
0001
0100
0010
1000
0010
0100
,  // measure 80
0001
0000
0000
0101
0000
0000
1100
0000
0000
1000
0000
0001
,  // measure 81
0000
0000
0001
0000
0000
0001
0020
0000
0000
0130
0000
0000
,  // measure 82
0011
0000
0000
1010
0000
0000
0011
0000
0000
0001
0000
1000
,  // measure 83
0000
0000
1000
0000
0000
1000
0200
0000
0000
0310
0000
0000
,  // measure 84
0101
0000
0000
1010
0000
0000
1001
0000
0000
1000
0000
0100
,  // measure 85
0000
0000
0100
0000
0000
0100
0020
0000
0000
0031
0000
0000
,  // measure 86
2002
0000
0000
3003
,  // measure 87
1000
0010
0100
0001
1000
0001
0010
0100
1000
0001
1000
0010
,  // measure 88
0200
0310
2010
3001
,  // measure 89
1001
0000
0000
0101
0000
0001
0010
0000
0010
0100
0000
0100
,  // measure 90
1000
0000
1000
0001
0000
0001
0100
0000
0100
1000
0000
1000
,  // measure 91
0200
0000
0000
0310
0000
0010
2000
0000
0000
3001
0000
0000
,  // measure 92
1002
0000
0000
0103
0000
0001
1000
0000
1000
0100
0000
0000
,  // measure 93
0011
0011
1100
1100
,  // measure 94
0101
0000
0000
0101
0000
0000
1100
0000
1000
0001
0000
0000
,  // measure 95
1000
0000
0010
0001
0000
0010
0100
0000
0000
0110
0000
0000
,  // measure 96
2002
0000
0000
0000
,  // measure 97
0000
0000
0000
0000
,  // measure 98
3003
0000
0000
0000
;

//---------------dance-single - ----------------
#NOTEDATA:;
#CHARTNAME:;
#STEPSTYPE:dance-single;
#DESCRIPTION:;
#CHARTSTYLE:;
#DIFFICULTY:Easy;
#METER:6;
#RADARVALUES:0.359966,0.424290,0.077931,0.355018,0.000000,291.000000,282.000000,9.000000,41.000000,0.000000,0.000000,0.000000,0.000000,0.000000,0.359966,0.424290,0.077931,0.355018,0.000000,291.000000,282.000000,9.000000,41.000000,0.000000,0.000000,0.000000,0.000000,0.000000;
#CREDIT:;
#NOTES:
0000
0000
0000
0000
,
0000
0000
0000
0000
,
0000
0000
0000
0000
,
2000
0000
0000
3000
,
0020
0000
0000
0030
,
0200
0000
0000
0300
,
0002
0000
0000
0003
,
0020
0000
0000
0030
,
0200
0000
0000
0300
,
2000
0000
0000
3000
,
0010
0010
0100
0100
,
0001
0000
0010
0000
,
0100
1000
0001
1000
,
0010
0000
0100
0000
,
0001
1000
0001
0010
,
0100
0000
1000
0000
,
0010
0100
0001
0010
,
0100
0000
1000
0000
,
0010
0100
0001
1000
,
0010
0010
0100
0100
,
0001
0001
1000
1000
,
0200
0300
0020
0030
,
0001
0000
1000
0001
,
2000
3000
0200
0300
,
1000
0010
0001
0010
,
0200
0300
0010
0000
,
1010
0000
0101
0000
,
0100
0100
0010
0010
,
1000
1000
0001
0001
,
0020
0030
0200
0300
,
1000
0000
0001
1000
,
0002
0003
0020
0030
,
0001
0100
1000
0100
,
0020
0030
0100
0000
,
0101
0000
1010
0000
,
2001
0000
3100
0000
,
1000
0010
0001
0010
,
0200
0000
0301
0000
,
1000
1000
0001
0001
,
1000
0100
0010
0001
,
0010
0100
1000
1000
,
0001
0100
0010
1000
,
0001
0000
0000
0001
0000
0000
0001
0000
,
1000
0000
0000
0100
0000
0000
0010
0000
,
0000
0001
0000
0000
0010
0000
0100
0000
,
2000
0000
3000
0000
,
0001
0100
1000
0100
,
0002
0000
1003
0000
,
0001
0010
1000
0010
,
0200
0000
0310
0000
,
0001
0100
1000
0100
,
0020
0000
0130
0000
,
0001
0010
0100
1000
,
0002
0000
0000
0000
0000
0000
0003
2000
,
0000
0000
3000
0010
,
0020
0030
0200
0300
,
0002
0003
2000
3000
,
0200
0300
0020
0030
,
0002
0003
2000
3000
,
0001
0001
0001
0100
,
1000
1000
1000
0100
,
0010
0010
0010
0100
,
2002
0000
0000
3003
,
1000
0100
0010
0001
,
0010
0100
1000
1000
,
0001
0100
0010
1000
,
0010
0100
0001
0001
,
1000
0010
0001
0010
,
0100
0001
1000
1000
,
0001
0010
1000
0010
,
0100
1000
0001
0001
,
1000
0010
1000
0010
,
0001
0010
0001
0010
,
1000
0100
1000
0100
,
0001
0100
0001
0100
,
1000
1000
1000
0010
,
0001
0001
0001
0010
,
1000
0100
0001
0100
,
2002
0000
0000
3003
,
1000
0010
0100
0001
,
1000
0100
0001
0000
,
0001
0100
1000
0000
,
1000
0010
0001
0000
,
0001
0010
1000
0000
,
1000
0100
0001
0000
,
1000
0010
0001
0000
,
2002
0000
0000
3003
,
1000
1000
0001
0001
,
1000
0010
0100
0010
,
0001
0010
0100
0100
,
0001
0010
0100
0010
,
1000
0010
0100
0100
,
0010
0001
0100
1000
,
0001
0010
0100
0100
,
0001
0010
1000
0001
,
0100
1000
0001
1000
,
2002
0000
0000
0000
,
0000
0000
0000
0000
,
3003
0000
0000
0000
;

//---------------dance-single - ----------------
#NOTEDATA:;
#CHARTNAME:;
#STEPSTYPE:dance-single;
#DESCRIPTION:;
#CHARTSTYLE:;
#DIFFICULTY:Medium;
#METER:9;
#RADARVALUES:0.535620,0.594006,0.493562,0.562834,0.116896,433.000000,376.000000,57.000000,65.000000,0.000000,0.000000,0.000000,0.000000,0.000000,0.535620,0.594006,0.493562,0.562834,0.116896,433.000000,376.000000,57.000000,65.000000,0.000000,0.000000,0.000000,0.000000,0.000000;
#CREDIT:;
#NOTES:
0000
0000
0000
0000
,
0000
0000
0000
0000
,
0000
0000
0000
0000
,
2200
0000
0000
0300
,
0002
0000
0000
3003
,
0202
0000
0000
0300
,
2000
0000
0000
3003
,
0001
0010
0001
0010
,
0100
1000
0001
0001
,
1000
0010
0100
0001
,
1001
0110
1001
0110
,
1001
0001
0100
0010
,
1000
0000
0000
0010
0000
0000
0100
0000
0100
0001
0000
0000
,
1000
0100
0010
0001
,
0010
0000
0000
0100
0000
0000
1000
0000
1000
0001
0000
0000
,
1000
0010
0001
0010
,
0100
0000
0000
0001
0000
0000
0010
0000
0010
0100
0000
0000
,
1000
0100
0001
0100
,
1000
0000
0000
0010
0000
0000
0100
0000
0100
0001
0000
0000
,
1000
0100
0001
0101
,
0001
0100
1000
1100
,
2000
3010
0200
0301
,
1000
0001
1001
1001
,
0002
0013
0200
1300
,
1010
0000
0000
0101
0000
0000
1001
0000
0000
0001
0000
0001
,
2000
0010
3010
0100
,
0102
1003
2100
3001
,
1000
0010
0001
0011
,
0001
0010
1000
1010
,
2000
3100
0020
0031
,
1000
0001
1001
1001
,
0002
0103
0020
1030
,
1100
0000
0000
0011
0000
0000
1001
0000
0000
0001
0000
0001
,
2000
0100
3100
0010
,
0012
1003
2010
3001
,
2001
0010
3010
1000
,
0001
0010
0100
1001
,
0002
0010
0103
0101
,
0001
0000
0000
0010
0000
0000
0100
0000
0100
1000
0000
0000
,
0001
0100
1000
0001
,
0010
0000
0000
0100
0000
0000
0001
0000
0001
1000
0000
0000
,
2100
3001
0102
1003
,
2010
3001
0012
1003
,
0001
0000
0000
0010
0000
0000
0100
0000
,
0000
1000
0000
0000
0001
0000
1000
0000
,
2002
0000
0000
3003
,
1010
0101
0011
1100
,
1002
0010
0013
0001
,
0100
0000
0000
1000
0000
0000
0100
0000
0000
0010
0000
0010
,
2000
0100
3001
1000
,
0100
0000
0000
0001
0000
0000
0100
0000
0000
0010
0000
0010
,
0002
0100
1003
0001
,
0100
0000
0000
1000
0000
0000
0100
0000
0000
0010
0000
0010
,
2000
0001
3001
1000
,
0102
1003
2100
3001
,
1002
0010
0013
0001
,
2000
0010
3010
1000
,
0002
0100
0103
0001
,
2000
0100
3100
1000
,
0010
0100
0001
0010
,
1000
0010
0001
0100
,
0010
0000
0000
1000
0000
0000
0001
0000
0001
1000
0000
1000
,
0002
0000
0000
0003
,
2001
0100
3100
1000
,
0010
0000
0000
0001
0000
0000
0010
0000
0000
0100
0000
0100
,
0002
0010
1003
0001
,
0010
0000
0000
1000
0000
0000
0010
0000
0000
0100
0000
0100
,
2000
0010
3001
1000
,
0010
0000
0000
0001
0000
0000
0010
0000
0000
0100
0000
0100
,
0002
1000
1003
0001
,
2010
3001
0012
1003
,
2001
0100
3100
1000
,
0002
0100
0103
0001
,
2000
0010
3010
1000
,
0002
0010
0013
0001
,
0100
0010
1000
0100
,
0001
0100
1000
0010
,
0100
0000
0000
0001
0000
0000
1000
0000
1000
0001
0000
0001
,
2000
0010
0000
3010
,
1000
0000
1000
0100
0000
0000
0010
0000
0010
0001
0000
0000
,
1000
0010
2010
3001
,
1000
0001
0012
1003
,
0001
1000
2100
3001
,
1000
0001
0102
1003
,
0001
1000
0210
0301
,
1000
0001
0120
1030
,
2002
0000
0000
3003
,
1000
0000
1000
0100
0000
0100
0010
0000
0010
0001
0000
0001
,
1000
0010
0021
1030
,
0001
0010
1020
0031
,
1000
0010
0001
0010
,
0100
0000
0000
0001
0000
0001
2000
0000
0000
3100
0000
0000
,
1000
0100
0201
1300
,
0001
0100
1200
0301
,
1000
0100
0010
0001
,
1000
0000
1000
0010
0000
0010
0100
0000
0000
0001
0000
0000
,
2002
0000
0000
0000
,
0000
0000
0000
0000
,
3003
0000
0000
0000
;

//---------------dance-single - ----------------
#NOTEDATA:;
#CHARTNAME:;
#STEPSTYPE:dance-single;
#DESCRIPTION:;
#CHARTSTYLE:;
#DIFFICULTY:Beginner;
#METER:3;
#RADARVALUES:0.160810,0.249379,0.034636,0.112567,0.000000,130.000000,126.000000,4.000000,13.000000,0.000000,0.000000,0.000000,0.000000,0.000000,0.160810,0.249379,0.034636,0.112567,0.000000,130.000000,126.000000,4.000000,13.000000,0.000000,0.000000,0.000000,0.000000,0.000000;
#CREDIT:;
#NOTES:
0000
0000
0000
0000
,
0000
0000
0000
0000
,
0000
0000
0000
0000
,
1000
0000
0000
0000
,
0000
0000
0000
0000
,
0010
0000
0000
0000
,
0000
0000
0000
0000
,
0100
0000
0000
0000
,
0100
0000
0000
0000
,
0001
0000
0000
0000
,
0010
0000
0010
0000
,
0001
0000
0000
0000
,
0100
0000
0000
0000
,
0010
0000
0000
0000
,
1000
0000
1000
0000
,
1000
0000
0000
0000
,
0100
0000
0000
0000
,
0010
0000
0000
0000
,
0001
0000
0001
0000
,
0001
0000
0000
0000
,
0000
0000
0000
0000
,
0100
0000
0000
0000
,
0010
0000
0000
0000
,
1000
0000
0000
0000
,
0001
0000
0000
0000
,
0010
0000
0000
0000
,
0100
0000
0100
0000
,
0100
0000
0000
0000
,
0000
0000
0000
0000
,
1000
0000
0000
0000
,
0010
0000
0000
0000
,
0100
0000
0000
0000
,
0001
0000
0000
0000
,
1000
0000
0000
0000
,
0010
0000
0010
0000
,
0010
0000
0000
0000
,
0100
0000
0100
0000
,
0100
0000
0000
0000
,
0001
0000
0001
0000
,
0001
0000
0000
0000
,
0010
0000
0000
0000
,
0100
0000
0100
0000
,
0100
0000
0100
0000
,
0200
0000
0000
0000
,
0000
0000
0000
0000
,
0300
0000
0000
0000
,
1000
0000
1000
0000
,
1000
0000
0000
0000
,
0010
0000
0010
0000
,
0010
0000
0000
0000
,
0100
0000
0100
0000
,
0100
0000
0000
0000
,
0001
0000
0001
0000
,
0002
0000
0000
0003
,
2000
0000
0000
3000
,
0010
0000
0010
0000
,
0100
0000
0100
0000
,
0001
0000
0001
0000
,
1000
0000
1000
0000
,
0200
0000
0000
0300
,
0200
0000
0000
0300
,
0020
0000
0000
0030
,
0001
0000
0001
0000
,
0001
0000
0000
0000
,
0010
0000
0010
0000
,
0010
0000
0000
0000
,
0100
0000
0100
0000
,
0100
0000
0000
0000
,
1000
0000
1000
0000
,
2000
0000
0000
3000
,
0002
0000
0000
0003
,
0010
0000
0010
0000
,
0100
0000
0100
0000
,
1000
0000
1000
0000
,
0001
0000
0001
0000
,
0020
0000
0000
0030
,
0020
0000
0000
0030
,
0200
0000
0000
0300
,
2002
0000
0000
0000
,
3003
0000
0000
0000
,
1000
0000
1000
0000
,
0001
0000
0001
0000
,
0010
0000
0010
0000
,
0100
0000
0100
0000
,
1000
0000
1000
0000
,
0001
0000
0001
0000
,
1001
0000
0000
0000
,
0110
0000
0000
0000
,
0010
0000
0010
0000
,
0100
0000
0100
0000
,
0001
0000
0001
0000
,
0010
0000
0010
0000
,
0100
0000
0100
0000
,
1000
0000
1000
0000
,
0001
0000
0001
0000
,
0100
0000
0010
0000
,
1001
0000
0000
0000
;

//---------------dance-double - ----------------
#NOTEDATA:;
#CHARTNAME:;
#STEPSTYPE:dance-double;
#DESCRIPTION:;
#CHARTSTYLE:;
#DIFFICULTY:Hard;
#METER:12;
#RADARVALUES:0.624684,0.806151,0.597470,0.571493,0.519539,505.000000,436.000000,69.000000,66.000000,0.000000,0.000000,0.000000,0.000000,0.000000,0.624684,0.806151,0.597470,0.571493,0.519539,505.000000,436.000000,69.000000,66.000000,0.000000,0.000000,0.000000,0.000000,0.000000;
#CREDIT:;
#NOTES:
00000000
00000000
00000000
00000000
,
00000000
00000000
00000000
00000000
,
00000000
00000000
00000000
00000000
,
00202000
00000000
00000000
00000000
00000000
00000000
00000000
00000000
00000000
00300000
00000000
02000000
,
00000000
00000000
00000000
03003000
,
02020000
00000000
00000000
00000000
00000000
00000000
00000000
00000000
00000000
00030000
00000000
00002000
,
00000000
00000000
00000000
03003000
,
00010200
00010000
00000000
00010000
,
00000000
00100000
00000000
00100300
,
02001000
00100000
00000000
03100000
,
10000000
00100000
10000000
00100000
10000000
00100000
01000000
00010000
01000000
00010000
01000000
00010000
,
10000000
00000000
00000000
01010000
00000000
00000000
11000000
00000000
00000000
10000000
00000000
00010000
,
00000000
00000000
00010000
00000000
00000000
00010000
00200000
00000000
00000000
00301000
00000000
00000000
,
00011000
00000000
00000000
00010100
00000000
00000000
00010010
00000000
00000000
00000010
00000000
00000100
,
00000000
00000000
00000100
00000000
00000000
00000100
00000002
00000000
00000000
00001003
00000000
00000000
,
00000001
00000000
00000000
00001010
00000000
00000000
00000011
00000000
00000000
00000001
00000000
00001000
,
00000000
00000000
00001000
00000000
00000000
00001000
00000200
00000000
00000000
00010300
00000000
00000000
,
00011000
00000000
00000000
00101000
00000000
00000000
01001000
00000000
00000000
01000000
00000000
00100000
,
00000000
00000000
00100000
00000000
00000000
00100000
20000000
00000000
00000000
30010000
00000000
00000000
,
10000000
00000000
00000000
01000000
00000000
00000000
00010000
00000000
00000000
01000000
00000000
10000000
,
00000000
00000000
10000000
00010000
00000000
00000000
10000000
00000000
00000000
00001000
00000000
00000000
,
00020100
00031000
00010020
00001030
,
00000100
00000001
00001100
00000101
,
00002000
00003010
00000002
00000013
,
00001010
00000000
00000000
00000101
00000000
00000000
00000001
00000000
00000001
00000010
00000000
00000010
,
00000200
00001000
00000301
00000100
,
00001200
00010300
00102000
01003000
,
00100000
00000000
00000000
10000000
00000000
00000000
01000000
00000000
00000000
00010000
00000000
01000000
,
00000000
00000000
01000000
00100000
00000000
00000000
00110000
00000000
00000000
10100000
00000000
00000000
,
00002000
00103000
00000200
00010300
,
00000100
00000010
00000011
00001010
,
00001002
00000103
00002001
00003100
,
00001010
00000000
00000000
00010100
00000000
00000000
00100000
00000000
00100000
00001000
00000000
00001000
,
02000000
00100000
03100000
10000000
,
00012000
00103000
00021000
00030010
,
00002010
00000100
00003001
00001000
,
00000100
00000000
00000000
00000001
00000000
00000100
00000000
00000000
00000100
00000010
00000000
00000000
,
00000002
00000100
00001003
00000001
,
00000100
00000000
00000000
00001000
00000000
00010000
00000000
00000000
00010000
00100000
00000000
00000000
,
01000000
10010000
00100000
10010000
,
10000000
00000000
00000000
01000000
00000000
00010000
00000000
00000000
00001000
00000100
00000000
00000000
,
00002010
00003100
00000012
00000103
,
00001001
00000000
00000000
00000110
00000000
00000000
00001001
00000000
,
00000001
00000000
00000010
00000000
00000000
00001000
00000010
00000000
00000000
00000100
00000000
00001000
,
00000000
00000000
00000010
00010000
00000000
00000000
00001000
00000000
00000000
00010000
00000000
00000000
,
00022000
00000000
00000000
00033000
,
00001000
00100000
00001000
00100000
00001000
00100000
00010000
01000000
00010000
01000000
00010000
01000000
,
00100000
11000000
01020000
10030000
,
00010000
00000000
00000000
01000000
00000000
10000000
00000000
00000000
01000000
00000000
00000000
00001000
,
00020000
00000000
00000000
00001000
00000000
00000000
00030100
00000000
00000000
00010000
00000000
00010000
,
00001000
00000000
00000000
00000010
00000000
00000001
00000000
00000000
00001000
00000000
00000000
00000001
,
00000200
00000010
00001300
00000100
,
00000010
00000000
00000000
00010000
00000000
00001000
00000000
00000000
00001000
00100000
00000000
00100000
,
00020000
00000000
00000000
01000000
00000000
00000000
10030000
00000000
00000000
10000000
00000000
00001000
,
00020000
00000100
00031000
00010000
,
00000020
00000100
00000130
00000010
,
00002000
00000001
00003001
00001000
,
00000001
00000010
00001000
00000001
,
00000100
00000000
00000100
00001000
00000000
00001000
00000010
00000000
00000000
00011000
00000000
00000000
,
00200000
00010000
01300000
00100000
,
00020000
01000000
10030000
00010000
,
10000000
00100000
10000000
00100000
10000000
00100000
01000000
00001000
01000000
00001000
01000000
00001000
,
00020000
00030020
00000230
00000302
,
00000103
00000011
00002010
00003001
,
00001000
00000000
00000000
00000010
00000000
00000001
00000000
00000000
00000010
00000000
00000000
00010000
,
00002000
00000000
00000000
00010000
00000000
00000000
00103000
00000000
00000000
00001000
00000000
00001000
,
00010000
00000000
00000000
01000000
00000000
10000000
00000000
00000000
00010000
00000000
00000000
10000000
,
00200000
01000000
00310000
00100000
,
01000000
00000000
00000000
00001000
00000000
00010000
00000000
00000000
00010000
00000100
00000000
00000100
,
00002000
00000000
00000000
00000010
00000000
00000000
00003001
00000000
00000000
00000001
00000000
00010000
,
00002000
00100000
00013000
00001000
,
02000000
00100000
03100000
01000000
,
00020000
10000000
10030000
00010000
,
10000000
01000000
00010000
10000000
,
00100000
00000000
00100000
00010000
00000000
00010000
01000000
00000000
00000000
00011000
00000000
00000000
,
00000200
00001000
00000310
00000100
,
00002000
00000010
00003001
00001000
,
00000001
00000000
00000000
00000100
00000000
00000000
00000010
00000000
00010000
00001000
00010000
00001000
,
00020000
01000000
00000000
01030000
,
10000000
00100000
10000000
00100000
01000000
00010000
00100000
00001000
00100000
00001000
00010000
00000100
,
00001000
00000000
00000000
00001010
00000000
00000000
00000011
00000000
00000000
00000001
00000000
00001000
,
00000000
00000000
00001000
00000000
00000000
00001000
00000020
00000000
00000000
00000130
00000000
00000000
,
00000101
00000000
00000000
00001100
00000000
00000000
00001001
00000000
00000000
00000001
00000000
00001000
,
00000000
00000000
00000010
00000000
00000000
00010000
00002000
00000000
00000000
00103000
00000000
00000000
,
01010000
00000000
00000000
11000000
00000000
00000000
10010000
00000000
00000000
10000000
00000000
00100000
,
00000000
00000000
00010000
00000000
00000000
00001000
00000100
00000000
00000000
00000010
00000000
00000000
,
00002002
00000000
00000000
00003003
,
00000001
00000010
00000100
00001000
00000010
00010000
00001000
00100000
00010000
10000000
00100000
01000000
,
00020000
10030000
21000000
30010000
,
11000000
00000000
00000000
01010000
00000000
00000000
10000000
00000000
10000000
00010000
00000000
00000000
,
10000000
00000000
10000000
00100000
00000000
00100000
00010000
00000000
00010000
00001000
00000000
00001000
,
00000020
00000000
00000000
00000031
00000000
00000001
00002000
00000000
00000000
00003100
00000000
00000000
,
00001002
00000000
00000000
00000103
00000000
00000000
00000001
00000000
00000001
00001000
00000000
00000000
,
00001010
00001010
00010100
00010100
,
00101000
00000000
00000000
00101000
00000000
00000000
10010000
00000000
00010000
10000000
00000000
00000000
,
00001000
00000000
00010000
00000100
00000000
00001000
00000010
00000000
00000000
00000110
00000000
00000000
,
00002002
00000000
00000000
00000000
,
00000000
00000000
00000000
00000000
,
00003003
00000000
00000000
00000000
;

//---------------dance-double - ----------------
#NOTEDATA:;
#CHARTNAME:;
#STEPSTYPE:dance-double;
#DESCRIPTION:;
#CHARTSTYLE:;
#DIFFICULTY:Easy;
#METER:7;
#RADARVALUES:0.378521,0.424290,0.043295,0.268428,0.000000,306.000000,301.000000,5.000000,31.000000,0.000000,0.000000,0.000000,0.000000,0.000000,0.378521,0.424290,0.043295,0.268428,0.000000,306.000000,301.000000,5.000000,31.000000,0.000000,0.000000,0.000000,0.000000,0.000000;
#CREDIT:;
#NOTES:
00000000
00000000
00000000
00000000
,
00000000
00000000
00000000
00000000
,
00000000
00000000
00000000
00000000
,
00002000
00000000
00000000
00003000
,
00020000
00000000
00000000
00030000
,
00000200
00000000
00000000
00000300
,
00002000
00000000
00000000
00003000
,
00000010
00000100
00000000
00000100
,
00000000
00000001
00000000
00000001
,
00000000
00001000
00000000
00001000
,
00000001
00000010
00000100
00001000
,
00000010
00001000
00000010
00000000
,
00010000
00001000
00010000
00000000
,
00100000
00010000
00100000
00000000
,
00010000
10000000
00010000
00000000
,
10000000
00100000
10000000
00000000
,
00010000
01000000
00010000
00000000
,
00100000
00001000
00100000
00000000
,
00000100
00010000
00000010
00001000
,
00000001
00000000
00000010
00000000
,
00000100
00001000
00000100
00001000
,
00020000
00030000
00002000
00003000
,
00100000
00000000
00010000
10000000
,
00020000
00030000
02000000
03000000
,
00100000
10000000
00001000
00010000
,
00000100
00000100
00000100
00000010
,
00000001
00000100
00001000
00000100
,
00000001
00000010
00000001
00000010
,
00000100
00001000
00000100
00001000
,
00020000
00030000
00002000
00003000
,
00100000
00000000
00010000
01000000
,
00002000
00003000
00020000
00030000
,
00000100
00001000
00000010
00000100
,
00000200
00000000
00000000
00000300
,
00000002
00000003
00002000
00003000
,
00000001
00000001
00000001
00000010
,
00001000
00000010
00000100
00010000
,
00001000
00001000
00001000
00100000
,
00010000
01000000
10000000
01000000
,
00100000
00100000
10000000
10000000
,
00001000
00010000
00000100
00001000
,
00000010
00000010
00000100
00000100
,
00000001
00000001
00001000
00001000
,
00000001
00000000
00000010
00000000
,
00000100
00000000
00010000
00001000
,
00022000
00000000
00000000
00033000
,
00001000
00010000
00100000
01000000
,
10000000
10000000
10000000
00100000
,
00010000
00100000
01000000
00001000
,
00010000
00010000
00010000
00000100
,
00001000
00000010
00000001
00000010
,
00000100
00000100
00000100
00000001
,
00001000
00000100
00010000
00001000
,
00100000
00010000
00010000
10000000
,
00100000
01000000
01000000
00010000
,
20000000
30000000
02000000
03000000
,
00200000
00300000
00002000
00003000
,
00000020
00000030
00000002
00000003
,
00001000
00000001
00001000
00000000
,
00000001
00000001
00000001
00000100
,
00001000
00001000
00001000
00010000
,
00100000
10000000
00001000
00010000
,
00022000
00000000
00000000
00033000
,
00001000
00000010
00000001
00000100
,
00001000
00000100
00000010
00010000
,
00001000
00100000
00010000
01000000
,
10000000
01000000
00001000
00010000
,
00000100
00000010
00000001
00000100
,
00001000
00000100
00000010
00010000
,
00001000
00100000
00010000
01000000
,
10000000
01000000
00100000
10000000
,
00001000
00001000
00001000
00010000
,
00000100
00000100
00000100
00001000
,
00000010
00000100
00000001
00000010
,
00001000
00000010
00000001
00010000
,
00001000
00100000
00100000
00010000
,
01000000
00001000
00001000
00100000
,
00000100
00010000
00010000
00001000
,
00022000
00000000
00000000
00033000
,
00010000
00100000
10000000
00010000
,
00100000
00100000
00100000
00000000
,
01000000
01000000
01000000
00000000
,
10000000
10000000
10000000
00000000
,
00010000
00010000
00010000
00000000
,
10000000
01000000
00010000
00000000
,
00001000
00000100
00000001
00000000
,
00002002
00000000
00000000
00003003
,
00000001
00000010
00000100
00001000
,
00000001
00000000
00000100
00000000
,
00001000
00010000
00001000
00010000
,
00100000
01000000
00100000
01000000
,
00001000
00010000
00001000
00000000
,
00000010
00000001
00000100
00001000
,
00000100
00000010
00010000
00001000
,
00100000
00010000
01000000
10000000
,
01000000
00001000
00010000
00001000
,
00022000
00000000
00000000
00000000
,
00000000
00000000
00000000
00000000
,
00033000
00000000
00000000
00000000
;

//---------------dance-double - ----------------
#NOTEDATA:;
#CHARTNAME:;
#STEPSTYPE:dance-double;
#DESCRIPTION:;
#CHARTSTYLE:;
#DIFFICULTY:Medium;
#METER:8;
#RADARVALUES:0.486140,0.636435,0.380995,0.406972,0.038965,393.000000,349.000000,44.000000,47.000000,0.000000,0.000000,0.000000,0.000000,0.000000,0.486140,0.636435,0.380995,0.406972,0.038965,393.000000,349.000000,44.000000,47.000000,0.000000,0.000000,0.000000,0.000000,0.000000;
#CREDIT:;
#NOTES:
00000000
00000000
00000000
00000000
,
00000000
00000000
00000000
00000000
,
00000000
00000000
00000000
00000000
,
00002000
00000000
00000000
00003000
,
00020000
00000000
00000000
00030000
,
00200000
00000000
00000000
00300000
,
20000000
00000000
00000000
30000000
,
00020000
00100000
00000000
00100000
,
00000000
01000000
00000000
01030000
,
00002000
00100000
00000000
00103000
,
00001000
00010000
00000100
00001000
,
00000010
00000101
00000010
00000101
,
00000010
00001100
00000010
00001100
,
00000010
00001001
00000010
00001001
,
00001000
00010100
00100000
01001000
,
01000000
10100000
01000000
10100000
,
01000000
00110000
01000000
00110000
,
01000000
10010000
01000000
10010000
,
00010000
00101000
00000100
00011000
,
00001000
00000010
00000001
00000100
,
00001000
00000000
00000000
00000100
00000000
00000000
00000010
00000000
00000000
00010000
00000000
00010000
,
00002000
00103000
00020000
10030000
,
00100000
01000000
10010000
10010000
,
20000000
31000000
00020000
01030000
,
10000000
00000000
00000000
00100000
00000000
00000000
01000000
00000000
00000000
00001000
00000000
00001000
,
00020000
00000010
00030010
00001000
,
00000200
00000310
00000002
00001003
,
00001000
00000100
00000001
00000010
,
00001000
00000000
00000000
00000010
00000000
00000000
00000100
00000000
00000000
00010000
00000000
00010000
,
00002000
01003000
00020000
10030000
,
01000000
00100000
10010000
10010000
,
20000000
30100000
00020000
00130000
,
10000000
00000000
00000000
01000000
00000000
00000000
00100000
00000000
00000000
00001000
00000000
00001000
,
00020000
00000100
00030100
00001000
,
00000020
00000130
00000002
00001003
,
00000002
00000010
00000013
00000001
,
00001000
00000010
00000001
00000010
,
00020000
00001000
00031000
00100000
,
00010000
01000000
10000000
01000000
,
00100000
10010000
01000000
10010000
,
10000000
00010000
00100000
00001000
,
00010100
00001000
00010010
00010000
,
00010010
00000000
00000000
00001001
00000000
00000000
00000101
00000000
,
00000001
00000000
00000000
00000000
00000000
00000010
00000000
00000000
00000000
00000100
00000000
00000000
,
00000000
00000000
00010000
00000000
00000000
00000000
00001000
00000000
00000000
00010000
00000000
00000000
,
00022000
00000000
00000000
00033000
,
00001000
00000010
00000001
00000100
,
00000010
00000010
00000010
00000100
,
00000001
00000010
00001000
00000010
,
00000100
00000100
00000100
00001000
,
00000010
00010000
00001000
00100000
,
00010000
00010000
00010000
10000000
,
00010000
01000000
10000000
01000000
,
00002000
00010000
00013000
00001000
,
00010100
00001000
00001010
00000100
,
00000002
00000100
00001003
00000001
,
00002000
00000100
00003001
00001000
,
00000001
00000100
00001000
00000100
,
00000010
00010000
00001000
00100000
,
00020000
01000000
01030000
00010000
,
20000000
01000000
31000000
10000000
,
00100000
00000000
00000000
01000000
00000000
00000000
00010000
00000000
00000000
10000000
00000000
10000000
,
00020000
00000000
00000000
00030000
,
01000000
01000000
01000000
00100000
,
10000000
01000000
00010000
01000000
,
00100000
00100000
00100000
00010000
,
01000000
00001000
00010000
00000100
,
00001000
00001000
00001000
00000001
,
00001000
00000010
00000001
00000010
,
00020000
00001000
00031000
00010000
,
00101000
00010000
01010000
00100000
,
20000000
00100000
30010000
10000000
,
00020000
00100000
10030000
00010000
,
10000000
00100000
00010000
00100000
,
01000000
00001000
00010000
00000100
,
00002000
00000010
00003010
00001000
,
00000002
00000010
00000013
00000001
,
00000100
00000000
00000000
00000010
00000000
00000000
00001000
00000000
00000000
00000001
00000000
00000001
,
00002000
00000000
00000000
00003000
,
00000011
00001100
00000101
00001010
,
00020000
00001000
00031000
00100000
,
00020000
10000000
10030000
00100000
,
02000000
00010000
03010000
01000000
,
00001000
00010000
00000100
00001000
,
00000020
00000100
00000130
00000010
,
00010000
00001000
00100000
00010000
,
20020000
00000000
00000000
30030000
,
10000000
00100000
00001000
00000100
,
00000002
00000013
00000200
00001300
,
00000001
00000100
00001000
00000100
,
00000010
00010000
00001000
00100000
,
00010000
00000000
00000000
10000000
00000000
10000000
02000000
00000000
00000000
13000000
00000000
00000000
,
00010000
01000000
10000000
01000000
,
00100000
00100000
10010000
10010000
,
00011000
00011000
00001001
00001001
,
00000001
00000010
00000100
00010000
,
00022000
00000000
00000000
00000000
,
00000000
00000000
00000000
00000000
,
00033000
00000000
00000000
00000000
;
