#TITLE:Turn Me On;
#SUBTITLE:;
#ARTIST:David Guetta ft. Nicki Minaj;
#TITLETRANSLIT:;
#SUBTITLETRANSLIT:;
#ARTISTTRANSLIT:;
#GENRE:;
#CREDIT:;
#BANNER:turn-banner.png;
#BACKGROUND:;
#LYRICSPATH:;
#CDTITLE:;
#MUSIC:Turn Me On.ogg;
#OFFSET:-0.126;
#SAMPLESTART:52.383;
#SAMPLELENGTH:17.107;
#LASTBEATHINT:230.962;
#SELECTABLE:YES;
#BPMS:0.000=64.010
,16.000=128.020
,80.000=64.010
,88.000=128.020
,152.000=64.010
,166.750=12.802
,167.000=128.020
,191.000=64.010
,195.000=128.020
;
#STOPS:
;
#BGCHANGES:7.833=TurnMeOn.avi=1.000=1=0=1===CrossFade==,
99999=-nosongbg-=1.000=0=0=0 // don't automatically add -songbackground-
;
#KEYSOUNDS:;
#ATTACKS:;

//---------------dance-single - ----------------
#NOTES:
     dance-single:
     :
     Hard:
     11:
     0.501,0.551,0.146,0.522,0.314,370.000,19.000,68.000,0.000,0.000,0.000,0.501,0.551,0.146,0.522,0.314,370.000,19.000,68.000,0.000,0.000,0.000: // measure 0
0000
0000
0000
0000
,  // measure 1
0000
0000
0000
0000
0000
0000
0000
0000
0000
0000
0000
0000
0010
1000
0100
0010
,  // measure 2
0100
0000
0000
0000
0010
0000
0100
0010
0000
0000
0000
0000
0000
0000
0000
0000
0000
0000
0000
0000
0000
0000
0000
0000
0100
0000
1000
0000
0100
0000
1000
0000
,  // measure 3
0100
0000
0000
0000
0010
0000
0100
0010
0000
0000
0000
0000
0000
0000
0000
0000
0000
0000
0000
0000
0000
0000
0000
0000
0100
0000
1000
0000
0001
0100
0001
0000
,  // measure 4
0110
0010
1010
0100
1000
0010
0100
0000
,  // measure 5
0020
0000
2030
0000
3001
0010
0001
0100
,  // measure 6
0020
0000
2030
0000
3010
0100
0010
0000
,  // measure 7
0100
0001
0010
0100
1000
0010
0100
0001
,  // measure 8
1000
0010
1010
0010
1000
0001
1001
0001
,  // measure 9
1000
0100
1100
1100
1000
0100
0010
0001
,  // measure 10
0100
0010
0110
0010
1000
0010
1010
0100
,  // measure 11
0010
0000
0001
0000
0101
0000
0001
0000
0010
0000
0100
0000
1000
0010
0100
0000
,  // measure 12
0020
0000
0000
1030
0000
0000
0100
1000
,  // measure 13
0200
0000
0310
0000
0100
1000
0010
0100
,  // measure 14
0002
0000
0000
0103
0000
0000
0001
0100
,  // measure 15
0002
0000
0103
0000
0001
0010
0001
1000
,  // measure 16
0100
0000
0000
0000
1000
0000
0010
0200
0000
0000
0000
0000
0010
0000
0010
0000
,  // measure 17
0010
0000
0310
0000
1000
0001
1000
0010
,  // measure 18
1000
0000
0000
0000
0010
0000
1000
0200
0000
0000
0000
0000
1000
0000
1000
0000
,  // measure 19
1000
0000
1300
0000
1000
0010
0100
0001
,  // measure 20
2000
0000
0000
0000
0000
0000
0000
0000
0000
0000
0000
0000
3010
0000
0000
0200
0000
0000
0000
0000
0000
0000
0000
0000
0000
0000
0000
0301
0000
0000
0020
0000
,  // measure 21
0000
0000
0000
0000
0000
0000
0031
2000
0000
0000
3001
0000
1000
0000
0001
0000
,  // measure 22
2000
0000
3010
0100
0000
0110
0000
1010
,  // measure 23
0000
0100
0010
0001
0200
0000
0320
0000
,  // measure 24
1030
0000
0100
1000
0000
0011
0000
1001
,  // measure 25
0000
1000
0010
0100
0002
0000
0023
0000
,  // measure 26
0230
0000
1300
0010
0000
1010
0000
0101
,  // measure 27
0000
0100
0010
0100
0001
0010
0200
0000
,  // measure 28
0310
0001
2000
0000
3010
0100
0020
0000
,  // measure 29
0130
1000
0100
0010
1000
0100
0001
0100
,  // measure 30
2000
0000
3010
0100
0000
0001
0100
0002
,  // measure 31
0000
0013
0100
0010
0100
1000
0020
0000
,  // measure 32
2030
0000
3100
0010
0000
0001
0100
0020
,  // measure 33
0000
1030
0010
0100
0002
0000
2003
0000
,  // measure 34
3020
0000
0130
0010
0000
1000
0100
0001
,  // measure 35
0000
0100
1000
0010
0100
0001
0020
0000
,  // measure 36
0031
0100
0020
0000
1030
0010
0200
0000
,  // measure 37
0301
0010
0100
1000
0010
0100
0020
0000
,  // measure 38
2030
0000
0000
0000
0000
0000
3020
0000
0000
0000
0230
0000
0000
0000
0302
0000
0000
0000
0000
0000
0003
0010
0000
0100
0000
0010
0000
0100
0000
1000
0000
0000
,  // measure 39
0000
0020
0000
0000
0000
0000
0030
0100
0000
0001
0000
0100
0000
0020
0000
0000
0000
2030
0000
0000
0000
0000
0000
3002
0000
0000
0000
0000
0000
0000
0000
0000
,  // measure 40
0203
0000
0000
0000
0000
0000
0320
0000
0000
0000
2000
0030
0000
0000
3200
0000
0000
0000
0000
0000
0000
0300
0010
0000
0000
0000
0001
0000
0000
0000
0100
0000
,  // measure 41
0002
0000
0000
0000
0000
0000
0000
0000
0000
0000
0000
0000
0000
0000
0000
0000
0000
0000
0000
0000
0000
0000
0000
0000
0000
0000
0000
0000
0000
0000
0003
0000
0000
0000
0000
0000
0200
0000
0000
0000
0000
0000
0000
0000
0000
0000
0000
0000
0000
0000
0000
0000
0000
0000
0000
0000
0000
0000
0000
0000
0320
0000
0000
0000
0000
0000
0000
0000
0000
0000
0000
0000
0000
0000
0000
0000
0000
0000
0000
0000
0000
0000
0000
0000
1030
0000
0000
0000
0000
0000
0000
0000
0000
0000
0000
0000
0002
0000
0000
0000
0000
0000
0000
0000
0000
0000
0000
0000
0000
0000
0000
0000
0000
0000
0000
0000
0000
0000
0000
0000
0000
0000
0000
0000
0000
0000
0000
0000
0000
0000
0000
0000
0203
0000
0000
0000
0000
0000
0000
0000
0000
0000
0000
0000
0301
0000
0000
0000
0000
0000
0000
0000
0000
0000
0000
0000
0000
0000
0000
0000
0010
0000
0000
0000
0000
0000
0000
0000
0000
0000
0000
0000
0000
0000
0000
0000
0100
0000
0000
0000
0000
0000
0000
0000
0000
0000
0000
0000
0000
0000
0000
0000
,  // measure 42
1000
0000
0000
0000
0000
0000
0010
0000
0000
1000
0000
0000
0000
0000
0000
0001
0000
0000
0100
0000
0000
0000
0000
0000
0001
0000
0000
0000
0000
0000
0000
0000
0000
0000
0000
0000
1000
0000
0000
0000
0010
0000
0000
0000
0000
0100
0000
0000
,  // measure 43
0000
0001
0000
0000
0000
0000
1000
0000
0000
0000
0001
0000
0000
0000
0000
1000
0000
0000
0000
0010
0000
0000
0000
0000
0000
0100
0000
0000
0000
0000
0000
0000
0000
0000
0000
0000
0001
0000
0000
0000
0100
0000
0000
0000
0000
0010
0000
0000
,  // measure 44
0000
1000
0000
0000
0000
0000
0100
0000
0000
0000
1000
0000
0000
0000
0000
0010
0000
0000
0000
0100
0000
0000
0000
0000
0000
0001
0000
0000
0000
0000
0000
0000
0000
0000
0000
0000
1000
0000
0000
0001
0000
0000
1000
0000
0000
0001
0000
0000
,  // measure 45
1000
0000
0000
0000
0000
0000
0010
0000
0000
1000
0000
0000
0000
0000
0000
0001
0000
0000
0100
0000
0000
0000
0000
0000
0001
0000
0000
0000
0000
0000
0000
0000
0000
0000
0000
0000
1000
0000
0000
0000
0000
0010
0000
0000
0000
0000
0100
0000
,  // measure 46
0000
0000
0010
0000
0000
0000
0000
1000
0000
0000
0000
0000
0001
0000
0000
0000
0000
0010
0000
0000
0000
0001
0000
0000
0000
0000
0010
0000
0000
0000
0000
0000
0000
0000
0000
0000
0001
0000
0000
0000
0000
0000
1000
0000
0000
0010
0000
0000
,  // measure 47
1000
0000
0010
0000
0100
0000
0001
0000
1000
0000
0000
0000
0020
0000
0000
2030
,  // measure 48
0000
0000
0000
0000
3200
0000
0000
0000
0000
0000
0310
0000
0001
0000
1000
0000
0010
0100
0010
0100
0010
0100
0010
0100
0020
0000
0000
0000
0000
0000
0000
0000
,  // measure 49
1030
0100
0000
0110
0000
0011
0000
0001
,  // measure 50
0100
0010
2000
0000
3020
0000
0230
0000
,  // measure 51
0301
0100
0000
0011
0000
0101
0000
0010
,  // measure 52
0100
0010
2000
0000
3002
0000
0023
0000
,  // measure 53
0031
0100
0000
0010
0100
0020
0000
1030
,  // measure 54
0100
0001
0100
1000
0020
0000
0130
0010
,  // measure 55
2000
0000
3001
0010
0002
0000
0103
0001
,  // measure 56
0010
0100
1000
0010
2000
0000
0020
0000
,  // measure 57
0000
0000
3030
0000
;

//---------------dance-single - ----------------
#NOTES:
     dance-single:
     :
     Medium:
     8:
     0.318,0.326,0.046,0.138,0.130,266.000,6.000,18.000,0.000,0.000,0.000,0.318,0.326,0.046,0.138,0.130,266.000,6.000,18.000,0.000,0.000,0.000:
0000
0000
0000
0000
,
0000
0000
0000
0000
0000
0000
0000
0000
0000
0000
0000
0000
0010
0000
1000
0010
,
1000
0000
0000
0000
0100
0000
0000
0010
0000
0000
0000
0000
0000
0000
0000
0000
0000
0000
0000
0000
0000
0000
0000
0000
0001
0000
0100
0000
0001
0000
0100
0000
,
0001
0000
0000
0000
1000
0000
0000
0010
0000
0000
0000
0000
0000
0000
0000
0000
0000
0000
0000
0000
0000
0000
0000
0000
0100
0000
0000
0000
0001
0000
0000
0000
,
1000
0000
0010
0000
1000
0010
1000
0000
,
0001
0000
0001
0000
1000
0001
1000
0001
,
1000
1000
0100
0100
,
0010
0000
0010
0000
0001
0010
0001
0010
,
0001
0101
0010
1010
,
0010
0000
1100
0000
0100
0010
0100
0000
,
0010
0000
0100
0000
1000
0100
1000
0000
,
0010
0000
0100
0000
0001
0000
1000
0001
,
1000
0000
1000
0010
,
0100
0010
0100
0001
,
0010
0000
0001
0100
,
0001
0100
0010
0100
,
0010
0000
1000
0000
0001
0000
1000
0001
,
1000
0001
0010
0100
,
1000
0000
0100
0000
1000
0000
0010
1000
,
0010
0000
1000
0000
0010
0000
0100
0010
,
2000
0000
0000
0000
0000
0000
0000
0000
0000
0000
0000
0000
0000
0000
3000
0020
0000
0000
0000
0000
0000
0000
0000
0000
0000
0000
0000
0000
0000
0000
0230
0000
,
0000
0000
0000
0000
0000
0000
0000
0000
0000
0000
0000
0000
0000
0000
0302
0000
0000
0000
0000
0000
1000
0000
0000
0000
1000
0000
0000
0000
1000
0003
0000
0000
,
1000
0000
0001
1000
0000
0010
0000
0010
,
0000
0100
0010
0000
0100
0000
0001
0000
,
0010
0000
0001
0010
0000
0001
0000
0001
,
0000
1000
0001
1000
0001
0000
0100
0000
,
0010
0000
1000
0010
0000
1000
0000
0100
,
0000
0010
0100
0000
0010
0000
0011
0000
,
0001
0101
0100
0110
,
0010
0000
1000
0000
0001
1000
0001
1000
,
0001
0100
0001
0010
,
0100
0000
1000
0000
0100
1000
0100
0000
,
1000
0010
0100
0010
,
1000
0000
0001
0000
1000
0001
1000
0000
,
0010
0100
0010
1000
,
0100
0000
0010
0000
0001
0010
0001
0000
,
0100
0001
0100
0000
0010
0100
0010
0000
,
1000
0010
1000
0000
0001
1000
0001
0000
,
2000
0000
0000
0020
3000
0000
0000
0230
0000
0000
0000
0000
0000
0000
0000
0000
,
0302
0000
0000
0023
0000
0000
0000
0230
0000
0000
0000
0000
0000
0000
0000
0000
,
2300
0000
0000
3020
0000
0000
0000
0230
0000
0000
0000
0000
0000
0000
0000
0000
,
0320
0000
0000
0000
0000
0000
2030
0000
0000
0000
0000
0000
0000
0002
3000
0000
0000
0000
0000
0000
0000
0000
2003
0000
3001
0000
0000
0000
0000
0000
0000
0000
,
1000
0000
0000
0001
0000
0000
0100
0000
0001
0000
0000
0000
1000
0000
0000
0000
,
0000
0001
0000
0000
0000
0000
0000
0000
0000
0000
1000
0000
0000
0000
0000
0000
0000
0000
0000
0010
0000
0000
0000
0000
0000
0100
0000
0000
0000
0000
0000
0000
0000
0000
0000
0000
0001
0000
0000
0000
0000
0000
0000
0000
0000
0000
0000
0000
,
0000
1000
0000
0000
0000
0000
0000
0000
0000
0000
0001
0000
0000
0000
0000
0000
0000
0000
0000
1000
0000
0000
0000
0000
0000
0010
0000
0000
0000
0000
0000
0000
0000
0000
0000
0000
1000
0000
0000
0000
0000
0000
0010
0000
0000
0000
0000
0000
,
1000
0000
0000
0000
0000
0000
0010
0000
0000
0000
0000
0000
1000
0000
0000
0000
0000
0000
0010
0000
0000
0000
0000
0000
1000
0000
0000
0000
0000
0000
0000
0000
0000
0000
0000
0000
0001
0000
0000
0000
0000
1000
0000
0000
0000
0000
0001
0000
,
0000
0000
1000
0000
0000
0000
0000
0001
0000
0000
0000
0000
1000
0000
0000
0000
0000
0001
0000
0000
0000
1000
0000
0000
0000
0000
0001
0000
0000
0000
0000
0000
0000
0000
0000
0000
1000
0000
0000
0000
0000
0000
0001
0000
0000
0000
0000
0000
,
1000
0000
0010
0000
0100
0000
0000
0000
0001
0000
0000
0000
1000
0000
0000
1000
,
0000
2000
0000
0010
0010
0010
3010
0000
,
0100
0010
1000
0001
,
0010
0000
0001
0010
0001
0000
0100
0000
,
0010
1000
0010
0100
,
0001
0000
1000
0001
1000
0000
0010
0000
,
1000
0100
0010
0100
,
1000
0000
0010
1000
0010
0000
0100
0000
,
0001
0000
0100
0001
0100
0000
0001
0000
,
1000
0000
0001
1000
0001
0000
1000
0000
;

//---------------dance-single - ----------------
#NOTES:
     dance-single:
     :
     Easy:
     4:
     0.211,0.239,0.031,0.061,0.000,181.000,4.000,8.000,0.000,0.000,0.000,0.211,0.239,0.031,0.061,0.000,181.000,4.000,8.000,0.000,0.000,0.000:
0000
0000
0000
0000
,
0000
0000
0000
0000
0000
0000
1000
0010
,
1000
0000
0000
0000
0000
0000
0010
0100
,
0010
0000
0000
0000
0000
0000
0100
0001
,
1000
1000
0001
0001
,
0100
0100
0001
0010
,
0100
0100
0010
0010
,
0001
0001
1000
0001
,
1000
1000
0010
0010
,
0100
0100
0010
0100
,
0001
0001
1000
1000
,
0001
1000
0001
0010
,
0100
0000
1000
0010
,
1000
0010
0100
0001
,
1000
0000
0001
0100
,
0001
0010
0001
1000
,
0001
0000
1000
0010
,
1000
0010
0100
0010
,
1000
0000
0001
0010
,
0001
0010
0001
1000
,
2002
0000
0000
0000
,
0000
0000
0000
0000
3003
1000
0001
1000
,
0001
0000
1000
0000
,
0010
1000
0010
0000
,
0100
0000
0001
0000
,
0010
0001
0010
0001
,
1000
0000
0010
0000
,
0100
0000
0001
1000
,
0001
1000
0001
1000
,
0001
1000
0001
1000
,
0001
0000
0100
0000
,
0010
0010
0010
0000
,
0100
0000
0010
0000
,
1000
1000
1000
0000
,
0001
0000
0100
0000
,
0010
0000
0100
0100
,
0010
0010
0100
0100
,
0010
1000
0001
1000
,
2002
0000
0000
0000
,
0000
0000
0000
0000
0000
0000
0000
3003
,
2020
0000
0000
0000
,
0000
0000
0000
0000
0000
3030
1000
0000
,
0010
1000
0010
0100
,
0001
0100
0001
0010
,
0001
0010
0001
1000
,
0001
1000
0001
1000
,
0010
0100
0001
1000
,
0001
1000
0010
2020
,
0000
0000
0000
3030
0010
0010
0010
0000
,
1000
0100
0010
0100
,
1000
0001
0001
0100
,
0001
0010
0100
1000
,
0010
0100
0100
0010
,
1000
0010
0100
0001
,
1000
0001
0001
0010
,
0010
0100
0100
1000
,
0010
1000
1000
0001
;

//---------------dance-single - ----------------
#NOTES:
     dance-single:
     :
     Beginner:
     1:
     0.084,0.109,0.000,0.000,0.000,77.000,0.000,0.000,0.000,0.000,0.000,0.084,0.109,0.000,0.000,0.000,77.000,0.000,0.000,0.000,0.000,0.000:
0000
0000
0000
0000
,
0000
0000
0000
0000
,
0000
0000
0000
0000
,
0000
0000
0000
0000
,
1000
0000
0000
0000
,
0000
0000
0000
0000
,
0010
0000
0000
0000
,
0000
0000
0000
0000
,
0100
0000
0100
0000
,
0100
0000
0000
0000
,
0001
0000
0000
0000
,
0000
0000
0000
0000
,
0100
0000
0100
0000
,
0100
0000
0000
0000
,
0010
0000
0010
0000
,
0010
0000
0000
0000
,
1000
0000
1000
0000
,
1000
0000
0000
0000
,
0001
0000
0001
0000
,
0001
0000
0000
0000
,
0100
0000
0000
0000
,
0000
0000
0000
0000
,
0010
0000
0010
0000
,
0010
0010
0010
0000
,
0100
0000
0100
0000
,
0100
0100
0100
0000
,
0001
0000
0001
0000
,
1000
0000
1000
0000
,
0010
0000
0010
0000
,
0100
0000
0100
0000
,
0100
0000
0000
0000
,
0010
0000
0010
0000
,
0010
0000
0000
0000
,
1000
0000
1000
0000
,
1000
0000
0000
0000
,
0001
0000
0001
0000
,
0100
0000
0100
0000
,
0010
0000
0010
0000
,
1000
0000
0000
0000
,
0000
0000
0000
0000
,
0001
0000
0000
0000
,
0000
0000
0000
0010
,
0000
0010
0000
0100
,
0000
0100
0000
0001
,
0000
0001
0000
1000
,
0000
1000
0000
0010
,
0000
0000
0000
0100
,
0000
0000
0000
0010
,
0000
0000
0000
1000
,
0000
0000
0000
1000
,
0000
1000
0000
1000
,
0000
0000
0000
0001
,
0000
0001
0000
0001
,
0000
0000
0000
0100
,
0000
0100
0000
0010
,
0000
0010
0000
1000
,
0000
0001
0000
1000
;
