#TITLE:Troublemaker;
#SUBTITLE:;
#ARTIST:Olly Murs ft. Flo Rida;
#TITLETRANSLIT:;
#SUBTITLETRANSLIT:;
#ARTISTTRANSLIT:;
#GENRE:;
#CREDIT:;
#BANNER:troublemaker-banner.png;
#BACKGROUND:ddrpopbg.png;
#LYRICSPATH:;
#CDTITLE:cdtitle.png;
#MUSIC:Troublemaker.ogg;
#OFFSET:-0.692;
#SAMPLESTART:36.880;
#SAMPLELENGTH:20.378;
#SELECTABLE:YES;
#BPMS:0.000=105.998
;
#STOPS:
;
#BGCHANGES:15.667=Troublemaker.avi=1.000=1=0=1===CrossFade==,
99999=-nosongbg-=1.000=0=0=0 // don't automatically add -songbackground-
;
#KEYSOUNDS:;
#ATTACKS:;

//---------------dance-single - ----------------
#NOTES:
     dance-single:
     :
     Hard:
     11:
     0.489,0.499,0.210,0.051,0.246,437.000,29.000,7.000,0.000,0.000,0.000,0.489,0.499,0.210,0.051,0.246,437.000,29.000,7.000,0.000,0.000,0.000: // measure 0
0000
0000
0000
0000
,  // measure 1
0000
0000
0000
0000
,  // measure 2
0000
0000
0000
0000
,  // measure 3
0000
0000
0000
0000
,  // measure 4
1000
0000
0010
0000
0100
0000
0001
0000
0010
0000
0001
0010
0000
0000
0100
0000
,  // measure 5
0001
0000
0100
0000
1000
0000
0010
0000
0100
0000
0010
0100
0000
0000
0010
0000
,  // measure 6
0100
0000
0010
0000
1000
0000
0100
0000
0010
0000
0100
1000
0000
0000
0100
1000
,  // measure 7
0100
0000
1000
0000
0010
0000
0100
0000
0010
0000
0100
0010
0000
0000
0100
0000
,  // measure 8
0001
0000
0010
0000
0100
0000
1000
0000
0010
0000
1000
0010
0000
0000
0100
0000
,  // measure 9
0010
0000
1000
0000
0001
0000
0010
0000
0001
0000
0100
0001
0000
0000
0100
0000
,  // measure 10
0010
0000
1000
0000
0001
0000
0010
0000
0100
0000
1000
0010
0000
0100
0000
0000
,  // measure 11
0010
0000
1000
0000
0010
0000
0100
0000
0001
0000
1000
0000
0001
1000
0000
0000
,  // measure 12
0001
0100
0001
0010
0001
1000
0001
1000
,  // measure 13
0100
0000
0010
0000
0100
0000
0001
0000
0100
0000
1000
0000
0010
1000
0000
0000
,  // measure 14
0010
1000
0100
1000
0001
1000
0010
1000
,  // measure 15
0001
0000
0000
0000
0000
0000
0000
0000
0000
0000
1000
0000
0001
1000
0001
0000
,  // measure 16
1000
0010
0100
0010
1000
1000
0001
0001
,  // measure 17
0010
0000
0000
0110
0000
0000
0100
0000
1000
0000
0010
0000
0100
0010
0100
0000
,  // measure 18
0010
1000
0010
0100
0001
1000
0001
0100
,  // measure 19
0010
0000
0100
0000
0010
0000
0100
0000
0010
0000
1000
0001
0000
1000
0001
0000
,  // measure 20
1000
0100
0010
0001
0100
0001
0010
0100
,  // measure 21
1000
0000
0000
0010
0000
0000
0100
0000
0000
0000
0010
0000
0100
0001
0100
0001
,  // measure 22
0100
0010
1000
0001
0010
0001
0100
0010
,  // measure 23
0210
0000
0000
0010
0300
0000
1010
0000
0000
0000
0001
0000
1000
0001
1000
0001
,  // measure 24
1000
1010
0010
0110
0100
0101
0001
0010
,  // measure 25
0110
0000
0000
1100
0000
0000
1010
0000
0010
0000
0100
0000
0010
0100
0010
0100
,  // measure 26
0010
0100
0001
1000
0010
1000
0100
1000
,  // measure 27
0010
0000
0100
0000
0001
0000
0100
0000
0010
0000
1000
0010
1000
0000
0010
0000
,  // measure 28
0100
0001
0010
1000
0010
0001
0100
0010
,  // measure 29
1000
0000
0000
0100
0000
0000
1000
0000
0010
0000
0100
0000
0010
1000
0010
1000
,  // measure 30
0010
0100
0010
1000
0010
0100
0001
1000
,  // measure 31
2001
0000
0000
0001
3000
0000
0101
0000
0000
0000
1000
0010
1000
0000
0100
0000
,  // measure 32
1000
0000
0000
0010
0000
0000
0100
0000
0001
0000
0000
0010
0000
0000
0100
0000
,  // measure 33
1000
0000
0010
0000
0100
0000
0001
0100
0000
0001
0000
0010
0000
0000
0100
1000
,  // measure 34
0100
0000
0000
1000
0000
0000
0010
0000
0100
0000
0000
0010
0000
0000
1000
0000
,  // measure 35
0001
0000
0100
0000
0010
0000
0100
0001
0000
1000
0000
0100
0000
0010
0001
0000
,  // measure 36
0200
0000
0000
0000
0001
0000
0000
0000
0010
0000
0000
0001
0000
0000
0301
0000
,  // measure 37
0101
0000
0000
0110
0000
0000
0010
0000
1010
0000
0000
1001
0000
0000
1100
0000
,  // measure 38
2001
0000
0000
0000
0100
0000
0000
0000
0010
0000
0000
0001
0000
0000
3100
0000
,  // measure 39
1010
0000
0000
1001
0000
0000
1000
0000
0011
0000
0000
0001
0000
0000
0101
0000
,  // measure 40
0001
0000
0100
0000
0010
0000
0100
0000
0001
0000
0100
0001
0000
0010
0000
0000
,  // measure 41
0001
0010
0100
1000
0010
1000
0010
1000
,  // measure 42
0020
0000
0230
0000
0301
0010
0100
0010
,  // measure 43
0001
0000
0100
0000
0010
0000
0100
0000
0001
1000
0001
1000
0000
0000
0001
0000
,  // measure 44
1000
0010
0100
0001
0010
0100
0010
1000
,  // measure 45
0010
0000
0000
0001
0000
0000
0100
0000
0010
0000
0100
0000
0001
0100
0001
0100
,  // measure 46
0001
0010
0100
1000
0010
1000
0100
1000
,  // measure 47
0010
0000
0100
0000
0010
0000
0100
0000
0001
0000
0010
0100
0010
0000
0001
0000
,  // measure 48
0100
0010
0100
0001
0010
0100
1000
0010
,  // measure 49
0110
0000
0000
0101
0000
0000
0011
0000
0001
0000
1000
0000
0100
1000
0100
1000
,  // measure 50
0100
0010
1000
0010
0001
0100
0010
0100
,  // measure 51
0102
0000
0000
0010
0003
0000
1100
0000
0000
0000
1000
0010
1000
0000
0010
0100
,  // measure 52
0010
0100
0001
0010
1000
0010
0001
0100
,  // measure 53
0010
0000
0000
0100
0010
0000
0100
0000
0010
0000
0000
0000
1000
0000
0000
0000
,  // measure 54
0100
0010
1000
0010
0001
0100
0010
0100
,  // measure 55
0001
0000
0100
0000
0001
0000
1000
0000
0001
0000
0010
0100
1000
0000
0010
0000
,  // measure 56
0100
0001
1000
0100
1000
0010
0100
0010
,  // measure 57
0100
0000
0000
0001
0000
0000
0010
0000
1000
0000
0010
0000
0001
0000
0100
0000
,  // measure 58
0010
0100
0001
1000
0100
0010
0001
0100
,  // measure 59
0110
0000
0000
0101
0000
0000
1001
0000
0000
0000
1000
0001
1000
0000
0001
0000
,  // measure 60
1000
0000
0000
0000
;

//---------------dance-single - ----------------
#NOTES:
     dance-single:
     :
     Medium:
     7:
     0.299,0.325,0.087,0.080,0.014,266.000,12.000,11.000,0.000,0.000,0.000,0.299,0.325,0.087,0.080,0.014,266.000,12.000,11.000,0.000,0.000,0.000:
0000
0000
0000
0000
,
0000
0000
0000
0000
,
0000
0000
0000
0000
,
0000
0000
0000
0000
,
1000
0000
0010
0000
0100
0010
0100
0000
,
0001
0010
0100
0110
,
0100
1000
0100
1000
0010
0000
0100
0000
,
0010
0000
1000
0000
0001
0000
0010
0001
,
0010
0001
0100
0010
,
0200
0001
0010
0301
,
1000
0010
0100
0010
,
1000
0000
0100
0000
0010
0001
0100
0000
,
0010
0000
1000
0000
0001
1000
0001
1000
,
0001
0000
0010
0000
0100
1000
0100
0000
,
1000
0000
0010
0000
0100
0010
0100
0010
,
0100
0000
0000
0001
,
1001
0000
1000
0000
0010
1000
0010
0000
,
0100
0000
0001
0000
0010
0001
0010
0000
,
0100
0100
1000
1000
,
0001
1000
0001
0000
1000
0000
0110
0000
,
0100
0100
0001
0001
,
0010
0000
0100
0000
1000
0100
1000
0000
,
0010
0110
0100
0101
,
1000
0000
0000
0001
0000
0000
1000
0000
0000
0000
0001
0000
1000
0000
0001
0000
,
0100
0000
0001
0000
0010
0001
0010
0000
,
0200
1000
1000
1300
,
0010
0000
0001
0000
0100
0001
0100
0001
,
0100
0000
0010
0000
1000
0010
1000
0010
,
1000
0001
1001
1000
,
1001
0000
0001
0000
0010
0000
0100
0010
,
0100
1000
0010
0100
,
0001
0000
0000
0100
0000
0000
0001
0000
0000
0000
1000
0000
0001
0000
1000
0000
,
0001
0100
0010
1000
,
0100
1000
0100
0000
1000
0010
1000
0000
,
0010
0100
0001
1000
,
0001
0001
1000
1000
,
0010
0100
0002
1003
,
1000
0000
0100
0000
0010
0100
0010
0000
,
0001
0100
0020
0130
,
0100
0010
1000
0001
,
1000
0010
0100
0100
,
0001
0000
0010
0000
0100
0010
0100
0010
,
0200
2300
3020
0230
,
0301
0100
0001
0100
0010
0100
0010
0000
,
1000
0000
0100
0000
0010
0001
0010
0000
,
0001
0000
0100
0000
0010
0100
0010
0100
,
0010
1000
0001
0010
,
0200
1000
0001
0310
,
0100
1000
0010
0100
,
0001
0000
0001
0000
0010
0000
0100
0010
,
0100
1000
0010
0100
,
0010
0000
0000
0100
0000
0000
0010
0000
0000
0000
0100
0000
0010
0000
1000
0000
,
0010
0000
0100
0000
0001
0100
0001
0000
,
1000
0001
1000
0010
,
1000
0010
1000
0000
0010
0100
0010
0000
,
0100
0000
0001
0000
0010
0100
0010
0000
,
1200
0001
0010
0010
,
1000
0010
1000
1300
,
1020
0000
0000
0000
0100
0000
0000
0000
0001
0000
0000
0000
1000
0030
0000
0000
,
1001
0000
0000
1001
0000
0000
1001
0000
0000
0000
0001
0000
1000
0000
0001
0000
;

//---------------dance-single - ----------------
#NOTES:
     dance-single:
     :
     Easy:
     4:
     0.180,0.173,0.014,0.000,0.000,172.000,2.000,0.000,0.000,0.000,0.000,0.180,0.173,0.014,0.000,0.000,172.000,2.000,0.000,0.000,0.000,0.000:
0000
0000
0000
0000
,
0000
0000
0000
0000
,
0000
0000
0000
0000
,
0000
0000
0000
0000
,
1000
0000
1000
0000
,
0010
0010
0010
0000
,
0100
0000
0100
0000
,
0001
0010
0100
1000
,
0010
0000
0100
0000
,
0010
0010
0100
0000
,
0001
0000
1000
0000
,
1001
0000
0001
1000
,
0010
0010
0100
0100
,
0001
0010
0001
0100
,
0010
0010
1000
1000
,
1001
0000
0000
0000
,
1000
0100
0010
0010
,
0100
1000
0010
0100
,
0010
0000
1000
0000
,
0001
1000
0001
0000
,
1000
0100
0010
0100
,
0010
0001
0100
0000
,
0010
1000
0010
0100
,
0001
1000
0001
0000
,
1000
0000
1000
0000
,
0010
0010
0010
0000
,
0100
0000
0001
0000
,
1000
1000
1000
0000
,
0001
0100
1000
0010
,
0001
0100
1000
0010
,
0100
0010
0001
0100
,
0010
1000
0001
0000
,
1000
0000
1000
0000
,
0010
0000
0010
0000
,
0100
0000
0100
0000
,
0001
0000
0001
0000
,
0010
0010
0010
0000
,
0100
0000
1000
0000
,
0010
0010
0010
0000
,
0100
0000
0001
0000
,
1000
0001
1000
1000
,
0010
0100
0001
0001
,
1000
0000
0001
0000
,
1000
0001
1000
0010
,
0100
0000
0100
0000
,
0001
1000
0001
0000
,
0010
0100
1000
0010
,
0100
0100
0100
0000
,
0010
0000
0010
0000
,
1000
0000
1000
0000
,
0001
0010
0100
1000
,
0001
1000
0001
0000
,
0100
0010
1000
0001
,
0010
0100
1000
0000
,
0010
0100
0001
0010
,
0100
1000
0100
1000
,
0010
0100
0001
1000
,
0001
0010
0001
1000
,
0010
0100
0010
1000
,
0001
1000
0001
1000
;

//---------------dance-single - ----------------
#NOTES:
     dance-single:
     :
     Beginner:
     2:
     0.100,0.128,0.007,0.000,0.000,96.000,1.000,0.000,0.000,0.000,0.000,0.100,0.128,0.007,0.000,0.000,96.000,1.000,0.000,0.000,0.000,0.000:
0000
0000
0000
0000
,
0000
0000
0000
0000
,
0000
0000
0000
0000
,
0000
0000
0000
0000
,
1000
0000
0001
0000
,
1000
0000
0000
0000
,
0010
0000
0100
0000
,
0010
0000
0000
0000
,
1000
0000
0000
0000
,
0001
0000
0000
0000
,
0100
0000
0100
0000
,
0100
0000
0000
0000
,
0010
0000
0010
0000
,
1000
1000
1000
0000
,
0001
0000
0001
0000
,
0100
0000
0000
0000
,
0010
0000
1000
0000
,
0001
0001
0001
0000
,
1000
0000
0001
0000
,
1000
1000
1000
0000
,
0010
0000
0000
0000
,
0100
0000
0000
0000
,
0001
0000
1000
0000
,
0001
0000
0000
0000
,
1000
0000
0000
0000
,
0001
0000
0000
0000
,
0100
0000
0100
0000
,
0100
0000
0000
0000
,
0010
0000
0010
0000
,
0010
0000
0000
0000
,
1000
0000
0001
0000
,
1000
0000
0000
0000
,
0001
0000
0000
0000
,
1000
0000
1000
0000
,
1000
0000
0000
0000
,
0010
0000
0010
0000
,
0010
0000
0000
0000
,
0100
0000
0100
0000
,
0100
0000
0000
0000
,
0001
0000
0010
0000
,
0100
0000
0000
0000
,
0100
0000
0100
0000
,
0100
0000
0000
0000
,
1000
0000
0010
0000
,
0100
0100
0100
0000
,
0010
0010
0010
0000
,
1000
0000
1000
0000
,
0010
0000
0010
0000
,
0100
0000
0100
0000
,
0001
0001
0001
0000
,
0010
0000
0100
0000
,
1000
0000
0000
0000
,
0010
0000
0100
0000
,
0010
0010
0010
0000
,
0100
0000
0001
0000
,
1000
0000
0000
0000
,
0010
0000
0010
0000
,
0100
0000
0100
0000
,
0001
0000
1000
0000
,
1001
0000
0000
0000
;
