#TITLE:Somebody That I Used to Know;
#SUBTITLE:(DJ Mike D Remix);
#ARTIST:Gotye;
#TITLETRANSLIT:;
#SUBTITLETRANSLIT:;
#ARTISTTRANSLIT:;
#GENRE:;
#CREDIT:;
#BANNER:somebody-banner.png;
#BACKGROUND:bg.png;
#LYRICSPATH:;
#CDTITLE:;
#MUSIC:Somebody That I Used To Know.ogg;
#OFFSET:-0.273;
#SAMPLESTART:40.986;
#SAMPLELENGTH:16.983;
#SELECTABLE:YES;
#BPMS:0.000=128.952
;
#STOPS:
;
#BGCHANGES:7.500=Untitled1.avi=1.000=0=0=1===CrossFade_Faster==,
99999=-nosongbg-=1.000=0=0=0 // don't automatically add -songbackground-
;
#KEYSOUNDS:;
#ATTACKS:;

//---------------dance-single - ----------------
#NOTES:
     dance-single:
     :
     Hard:
     10:
     0.514,0.420,0.116,0.306,0.037,301.000,11.000,29.000,0.000,0.000,0.000,0.514,0.420,0.116,0.306,0.037,301.000,11.000,29.000,0.000,0.000,0.000: // measure 0
0000
0000
0000
0000
,  // measure 1
0000
0000
0000
0000
,  // measure 2
2000
3020
0230
2300
,  // measure 3
3100
0001
0010
0100
0002
0000
0103
0000
,  // measure 4
2000
0000
3010
0100
0001
1000
0002
0000
,  // measure 5
0023
0000
0000
0000
0130
0000
1000
0000
0010
0000
1000
0001
1000
0000
0000
0000
,  // measure 6
0001
0000
0100
0010
0100
0001
0010
0100
,  // measure 7
0001
0000
0100
1000
0010
0100
0010
1000
,  // measure 8
0001
0000
0010
0001
0100
0010
1000
0010
,  // measure 9
0100
0000
0001
0010
0100
0010
0100
1000
,  // measure 10
0010
0100
0001
0010
0100
0010
0001
0100
,  // measure 11
0020
0000
2030
0000
3200
0000
0310
0100
,  // measure 12
1000
0000
0010
0100
0010
1000
0010
1000
,  // measure 13
0100
0000
0010
0001
0010
0001
0100
0010
,  // measure 14
0100
0001
0010
0100
0001
0100
1000
0010
,  // measure 15
0200
0320
2030
3200
,  // measure 16
0310
0100
0010
0001
0100
0010
0100
0001
,  // measure 17
0100
0000
0010
1000
0100
1000
0010
0000
,  // measure 18
0100
0010
1000
0100
0010
0100
1000
0010
,  // measure 19
0100
0000
0001
0010
0001
0100
0001
0010
,  // measure 20
0200
0320
0230
2300
,  // measure 21
3020
0000
0230
0000
0302
0000
0103
0010
,  // measure 22
1000
0000
0001
0100
0001
0010
0100
1000
,  // measure 23
0010
0000
0100
0010
1000
0100
0010
0000
,  // measure 24
0100
0000
1000
0010
0100
0010
1000
0001
,  // measure 25
0010
0010
0100
0010
0100
1000
0000
0001
,  // measure 26
0001
0000
0100
0000
0010
1000
0100
0010
,  // measure 27
0100
0000
1000
0010
0100
0010
1000
0000
,  // measure 28
0100
0000
0000
0000
0010
0000
0100
0000
1000
0000
0000
0010
0100
0000
0010
0000
,  // measure 29
1000
0000
0001
0000
0010
0000
0001
0100
,  // measure 30
0001
0000
0010
0001
0100
0010
1000
0100
,  // measure 31
0010
0000
0100
1000
0010
0100
1000
0000
,  // measure 32
0100
0000
0000
0000
0001
0000
0010
0000
0001
0000
0000
0100
0001
0000
0010
0000
,  // measure 33
0100
0000
0010
0000
0100
0000
1000
0000
0010
0000
0000
0010
0000
0000
0010
0000
,  // measure 34
2000
0010
0001
0100
,  // measure 35
0010
0000
3000
0001
1000
0001
0010
0000
,  // measure 36
0001
0100
0010
0100
0001
0010
0100
1000
,  // measure 37
0020
0000
0230
0000
0302
0000
0013
0100
,  // measure 38
1000
0000
0000
0000
1010
0000
0000
0000
0100
0000
0001
0100
0001
0000
0000
0000
,  // measure 39
0010
0100
0010
0001
0100
0000
0100
0010
,  // measure 40
0100
0001
0100
0010
0100
0001
0010
0100
,  // measure 41
2000
0000
3020
0000
0230
0000
0301
1000
,  // measure 42
0100
0000
0000
0000
1100
0000
0000
0000
1000
0000
0010
1000
0010
0000
0000
0000
,  // measure 43
0100
0010
0100
0001
0010
0100
0010
0000
,  // measure 44
0001
0100
0010
0100
0001
0100
0010
0100
,  // measure 45
0001
0000
1000
0000
0100
0000
1000
0010
,  // measure 46
1010
1010
0110
0110
,  // measure 47
0100
0001
0010
0100
0010
0000
0001
0000
,  // measure 48
0011
0101
0100
0110
,  // measure 49
1010
0000
1000
0000
1100
0000
0000
0000
1000
0000
0001
1000
0001
0000
0000
0000
;

//---------------dance-single - ----------------
#NOTES:
     dance-single:
     :
     Medium:
     6:
     0.358,0.341,0.000,0.105,0.000,228.000,0.000,10.000,0.000,0.000,0.000,0.358,0.341,0.000,0.105,0.000,228.000,0.000,10.000,0.000,0.000,0.000:
0000
0000
0000
0000
,
0000
0000
0000
0000
,
1000
0010
0100
0010
,
1000
0000
0001
1000
0001
0000
0010
0000
,
0100
0010
0001
0100
,
0010
0000
0100
0000
0010
0100
0010
0100
,
0010
0000
1000
0000
0100
0000
0010
0100
,
0010
0000
0001
0000
0100
0000
0001
0100
,
0010
0100
0010
1000
,
0001
0000
0001
0000
1000
0000
1000
0001
,
1000
0000
0010
0000
0100
0000
0001
0100
,
0001
0000
0100
0000
0010
0000
1000
0010
,
1000
0000
0100
0000
0010
0000
0001
1000
,
0001
0000
0100
0000
0001
0000
1000
0010
,
1000
0000
0010
0000
0100
0000
0010
0100
,
0010
0100
0001
0010
,
0100
0000
0010
0100
0010
0000
0100
1000
,
0100
0000
1000
0000
0010
0000
0100
0010
,
0100
0000
0010
0000
1000
0000
0100
0010
,
0100
0000
0010
0000
0001
0000
0100
0001
,
0100
0010
1000
0001
,
0010
0000
0100
0000
1000
0000
0001
1000
,
0001
0000
1000
0010
0100
0010
1000
0100
,
0020
0000
0031
0100
0001
0000
0010
0000
,
0001
0000
0100
0000
0010
0000
1000
0010
,
1000
0000
0001
0000
1000
0001
1000
0001
,
1000
0000
0001
0000
0100
0001
0100
0000
,
0010
0000
0100
0010
0100
0000
0010
0000
,
2000
0000
3200
0000
,
0320
0032
0203
0300
,
0010
0000
0100
0000
0010
0100
0001
0000
,
0100
0000
0001
0010
0001
0000
0010
0000
,
0100
0000
1000
0000
0010
0000
1000
0010
,
1000
0000
0010
0000
0100
0000
0001
0100
,
0001
0000
1000
0000
0001
1000
0001
0000
,
0010
0000
0100
0010
0100
0000
1000
0000
,
0010
0000
0100
0000
0010
0000
0100
0001
,
0100
0001
0010
0001
,
1000
1000
0010
0010
,
0100
0000
0010
0100
0010
0000
0100
0000
,
0001
0001
0010
0010
,
0100
0000
1000
0000
0010
0000
0100
0010
,
0200
0310
2000
3100
,
0010
0000
0001
0010
0001
0000
0100
0000
,
0020
0130
0200
0301
,
0001
0010
0100
1000
,
0010
0010
0100
0100
,
0010
0100
0010
0100
0010
0000
0100
0000
,
0001
0001
0010
0100
,
1000
0000
0001
0000
1000
0001
1000
0000
;

//---------------dance-single - ----------------
#NOTES:
     dance-single:
     :
     Easy:
     4:
     0.239,0.210,0.000,0.042,0.000,155.000,0.000,4.000,0.000,0.000,0.000,0.239,0.210,0.000,0.042,0.000,155.000,0.000,4.000,0.000,0.000,0.000:
0000
0000
0000
0000
,
0000
0000
0000
0000
,
1000
0000
1000
0000
,
0010
0010
0010
0000
,
0100
0100
0000
0001
,
0010
0010
0000
0100
,
1000
0010
0100
0010
,
0100
0000
0001
0100
,
0001
0000
0010
0001
,
0010
0000
0100
1000
,
0100
0100
1000
1000
,
0010
0100
0001
0010
,
0100
0100
0010
0010
,
0001
1000
0001
1000
,
0010
0020
0000
0030
,
0100
0100
0100
0001
,
1000
2000
0000
3000
,
0100
0100
1000
1000
,
0001
0002
0000
0003
,
0100
0010
0100
0001
,
0100
0200
0000
0300
,
0010
1000
0001
1000
,
0010
0100
0001
0010
,
0100
0000
1000
0000
,
0010
0100
0010
0100
,
0001
0100
0010
1000
,
0001
0000
1000
0001
,
0100
0000
0010
0100
,
0010
0000
1000
0000
,
0100
0000
0010
0001
,
0010
0000
0001
0000
,
1000
0000
0010
1000
,
0010
0000
0100
0000
,
0010
0000
1000
0001
,
1000
0000
0001
0010
,
0100
0000
1000
0000
,
0010
0010
0100
0100
,
0010
0100
0001
1000
,
0001
1000
0001
1000
,
0010
0100
0010
0000
,
0100
0010
0100
0010
,
1000
0001
1000
0000
,
1000
0100
1000
0100
,
0010
0001
0010
0000
,
0001
0010
0001
0010
,
0100
1000
0100
0000
,
1000
0010
1000
0010
,
0100
0001
0100
0000
,
0001
0100
0001
0100
,
0010
1000
0010
1000
;

//---------------dance-single - ----------------
#NOTES:
     dance-single:
     :
     Beginner:
     2:
     0.113,0.130,0.000,0.000,0.000,75.000,0.000,0.000,0.000,0.000,0.000,0.113,0.130,0.000,0.000,0.000,75.000,0.000,0.000,0.000,0.000,0.000:
0000
0000
0000
0000
,
0000
0000
0000
0000
,
0010
0000
0010
0000
,
0100
0100
0100
0000
,
0001
0000
0000
0000
,
1000
0000
0000
0000
,
0010
0000
0010
0000
,
0010
0000
0000
0000
,
0100
0000
0100
0000
,
0100
0000
0000
0000
,
0001
0000
0001
0000
,
1000
1000
1000
0000
,
0100
0000
0100
0000
,
0010
0010
0010
0000
,
0001
0000
0000
0000
,
1000
1000
1000
0000
,
0010
0000
0000
0000
,
0100
0100
0100
0000
,
0001
0000
0000
0000
,
0001
0000
0000
0000
,
1000
0000
0000
0000
,
1000
0000
0000
0000
,
0010
0000
0000
0000
,
0000
0000
0000
0000
,
0100
0000
0000
0000
,
0000
0000
0000
0000
,
0001
0000
0000
0000
,
0000
0000
0000
0000
,
1000
0000
0000
0000
,
0000
0000
0000
0000
,
0001
0000
0001
0000
,
0001
0000
0000
0000
,
0010
0000
0010
0000
,
0010
0000
0000
0000
,
0100
0000
0100
0000
,
0100
0000
0000
0000
,
1000
0000
1000
0000
,
1000
0000
0000
0000
,
0010
0000
0100
0000
,
0010
0010
0010
0000
,
1000
0000
0001
0000
,
1000
1000
1000
0000
,
0001
0000
0000
0000
,
1000
0000
0000
0000
,
0010
0000
0000
0000
,
0100
0000
0000
0000
,
0001
0000
0001
0000
,
0001
0001
0001
0000
,
1000
0000
1000
0000
,
1000
1000
1000
0000
;
