#TITLE:Scream and Shout;
#SUBTITLE:;
#ARTIST:will.i.am ft. Britney Spears;
#TITLETRANSLIT:;
#SUBTITLETRANSLIT:;
#ARTISTTRANSLIT:;
#GENRE:;
#CREDIT:;
#BANNER:scream-banner.png;
#BACKGROUND:ddrpopbg.png;
#LYRICSPATH:;
#CDTITLE:cdtitle.png;
#MUSIC:Scream and Shout.ogg;
#OFFSET:-0.386;
#SAMPLESTART:58.771;
#SAMPLELENGTH:17.308;
#SELECTABLE:YES;
#BPMS:0.000=130.000
,28.000=65.000
,30.000=130.000
;
#STOPS:
;
#BGCHANGES:15.667=ScreamAndShout.avi=1.000=1=0=1===CrossFade==,
99999=-nosongbg-=1.000=0=0=0 // don't automatically add -songbackground-
;
#KEYSOUNDS:;
#ATTACKS:;

//---------------dance-single - ----------------
#NOTES:
     dance-single:
     :
     Hard:
     12:
     0.583,0.695,0.000,0.269,0.286,567.000,0.000,40.000,0.000,0.000,0.000,0.583,0.695,0.000,0.269,0.286,567.000,0.000,40.000,0.000,0.000,0.000: // measure 0
0000
0000
0000
0000
,  // measure 1
0000
0000
0000
0000
,  // measure 2
0000
0000
0000
0000
,  // measure 3
0000
0000
0000
0000
,  // measure 4
1000
0010
1000
0010
1000
0010
1000
0010
,  // measure 5
1000
0001
1000
0001
1000
0001
1000
0001
,  // measure 6
0010
0001
0010
0001
0010
0001
0010
0001
,  // measure 7
0010
0000
0000
0000
0000
0000
0000
0000
0001
0000
0000
1000
0010
0000
1000
0000
0001
0000
0000
0000
0100
0000
0000
0000
0010
0000
0000
0000
1000
0000
0000
0000
,  // measure 8
0100
0000
0010
0000
0100
0000
1000
0100
0000
1000
0000
0000
0010
0000
0100
0000
,  // measure 9
0010
0000
1000
0000
0001
0000
0010
0001
0000
0010
0000
0000
0001
0000
0000
0000
,  // measure 10
0100
0000
0010
0000
0100
0000
0010
1000
0000
0010
0000
0000
0100
0000
0000
0000
,  // measure 11
0001
0000
0000
1000
0000
0001
1000
0000
0010
0000
1000
0000
0100
0000
0010
0000
,  // measure 12
0100
0000
0000
0000
1000
0000
0010
1000
0000
0010
0000
0000
0100
0000
0010
0000
,  // measure 13
1000
0000
0000
0000
0010
0000
0100
0010
0000
0100
0000
0000
0001
0000
0010
0000
,  // measure 14
0001
0000
0000
0000
0100
0000
0010
0100
0000
0010
0000
0000
1000
0000
0100
0000
,  // measure 15
0010
0000
0000
0001
0000
0100
0001
0100
0001
0000
1000
0000
0100
0000
0010
0000
,  // measure 16
0001
0000
0100
0000
0001
0000
0100
0001
0000
0100
0000
0000
0010
0000
1000
0000
,  // measure 17
0100
0000
0010
0000
0100
0000
1000
0100
0000
1000
0000
0000
0010
0000
0100
0000
,  // measure 18
0010
0000
1000
0000
0010
0000
0100
0010
0000
0100
0000
0000
0001
0000
0010
0000
,  // measure 19
0001
0000
0000
0100
0000
0010
1000
0000
0001
0000
1000
0010
1000
0010
1000
0100
,  // measure 20
0010
0000
0000
0000
0100
0000
1000
0100
0000
0000
0010
0000
0100
0000
1000
0000
,  // measure 21
0010
0000
0000
0000
0100
0000
0010
0100
0000
0010
0000
0000
0100
0000
0001
0000
,  // measure 22
0010
0000
0001
0000
1000
0000
0010
1000
0000
0010
0000
0000
1000
0000
0100
0000
,  // measure 23
0010
0100
0001
0100
1000
0010
1000
0010
,  // measure 24
1000
0001
1000
0001
0010
0001
0010
0001
,  // measure 25
0010
0001
0010
0001
1000
0100
1000
0100
,  // measure 26
1000
0010
1000
0010
0100
0010
0100
0010
,  // measure 27
0100
0010
0100
0010
0100
0001
0100
0001
,  // measure 28
0010
0001
0010
0001
0010
0100
1000
0010
,  // measure 29
1000
0010
1000
0010
0100
0010
0100
0010
,  // measure 30
0100
0001
0100
0001
1000
0100
0010
0100
,  // measure 31
1000
0001
0100
0010
2000
0000
3010
0100
,  // measure 32
0020
0000
1030
0100
0010
0001
0200
0000
,  // measure 33
0301
0010
0100
0001
0200
0000
1300
0010
,  // measure 34
2000
0000
3010
0100
0010
1000
0002
0000
,  // measure 35
0013
0001
0100
0010
2000
0000
3010
0100
,  // measure 36
0002
0000
0013
0001
1000
0010
0200
0000
,  // measure 37
0320
0000
1030
0100
0020
0000
0230
0000
,  // measure 38
1300
0010
0200
0000
0301
0010
0001
0100
,  // measure 39
0010
1000
0020
0000
1030
0001
1000
0010
,  // measure 40
0100
0000
0000
0010
1000
0000
1000
0010
0000
0010
1000
0000
0001
0000
0100
0000
,  // measure 41
0001
0000
0000
0010
0001
0000
1000
0100
0000
0010
0001
0000
1000
0000
0010
0000
,  // measure 42
0100
0000
0000
0010
1000
0000
1000
0010
0000
0010
0100
0000
0001
0000
1000
0000
,  // measure 43
0010
0000
0000
1000
0010
1000
0010
0000
1000
0000
0010
0000
0100
0000
0001
0000
,  // measure 44
0010
0000
0000
0001
0100
0000
0001
0100
0000
0010
0100
0000
0010
0000
1000
0000
,  // measure 45
0100
0000
0000
0010
0100
0000
1000
0100
0000
1000
0010
0000
0100
0000
0010
0000
,  // measure 46
1000
0000
0000
0001
0100
0000
0001
0010
0000
0100
2000
0000
0020
0000
0000
0000
,  // measure 47
3030
0010
0100
0000
0020
0000
1030
0100
,  // measure 48
0020
0000
0031
0100
0001
0010
0200
0000
,  // measure 49
2300
0000
3010
0000
0100
0010
0200
0000
,  // measure 50
0301
1000
0010
1000
0200
0000
0300
0010
,  // measure 51
0001
0100
0020
2030
,  // measure 52
3200
0000
0310
0001
0200
0000
0300
0010
,  // measure 53
1000
0010
0100
0010
2000
0000
3200
0000
,  // measure 54
0320
0000
0130
1000
0010
0000
0000
0100
,  // measure 55
0001
0000
0000
1000
0000
0000
0010
0000
0000
0100
0000
0000
0010
0000
0000
0000
1000
0000
0000
0000
0100
0000
0000
0000
,  // measure 56
0010
0000
0100
0000
1000
0000
0010
0000
0100
0000
0001
0000
,  // measure 57
0010
0000
0001
0000
0100
0000
0010
0000
0001
0000
0010
0000
,  // measure 58
1000
0000
0000
0000
0100
0000
0000
0000
0010
0000
0000
0000
0100
0000
0000
1000
0000
0000
0010
0000
0000
0100
0000
0000
,  // measure 59
0010
1000
0010
0100
0010
1000
0100
0001
,  // measure 60
0100
1000
0010
0100
0001
0010
0001
0100
,  // measure 61
0010
0000
0000
1000
0000
0000
0001
0000
0000
0010
0000
0000
0100
0000
1000
0000
0010
0000
0100
0000
0001
0000
0100
0000
,  // measure 62
1000
0100
0010
0100
0001
1000
0010
0100
0010
1000
0010
0100
,  // measure 63
0001
1000
0001
1000
0001
1000
0001
1000
0001
1000
0000
0000
0010
0000
0000
0100
0000
0000
0010
0000
0000
1000
0000
0000
,  // measure 64
0100
0001
0100
1000
0010
0100
0001
0010
,  // measure 65
0001
0100
0001
0100
0010
1000
0010
0100
,  // measure 66
0010
1000
0010
1000
0100
0010
0001
0100
,  // measure 67
0001
0010
0100
1000
0020
0000
0130
0001
,  // measure 68
0020
0000
0130
1000
0010
0100
0020
0000
,  // measure 69
1030
0100
0010
0100
2000
0000
3010
0100
,  // measure 70
0002
0000
0013
0001
0100
0010
2000
0000
,  // measure 71
3100
0010
0100
1000
0001
0100
0001
0100
,  // measure 72
0010
0100
0010
0100
0010
1000
0100
0010
,  // measure 73
0001
0010
0001
0010
0001
0100
0001
0100
,  // measure 74
0010
0100
0010
0100
0010
1000
0100
0010
,  // measure 75
0001
0100
0010
0100
0020
0000
1030
0100
,  // measure 76
0020
0000
0031
0010
0100
1000
0020
0000
,  // measure 77
0230
0000
0301
0010
0001
0100
0001
0100
,  // measure 78
0010
0100
0010
0100
0010
1000
0100
0010
,  // measure 79
0001
1000
0020
0000
0030
0000
0000
0000
;

//---------------dance-single - ----------------
#NOTES:
     dance-single:
     :
     Medium:
     8:
     0.396,0.426,0.054,0.262,0.024,365.000,8.000,39.000,0.000,0.000,0.000,0.396,0.426,0.054,0.262,0.024,365.000,8.000,39.000,0.000,0.000,0.000:
0000
0000
0000
0000
,
0000
0000
0000
0000
,
0000
0000
0000
0000
,
0000
0000
0000
0000
,
0010
0000
1000
0000
0010
1000
0010
1000
,
0001
0000
1000
0000
0001
1000
0001
1000
,
0100
0000
1000
0000
0100
1000
0100
1000
,
0100
0000
0010
0001
0010
0000
0001
0000
,
0100
0000
0010
0000
0100
0000
0010
1000
,
0010
0000
0100
0000
0010
0000
1000
0010
,
1000
0000
0100
0000
0010
0000
0001
0010
,
0001
0000
1000
0000
0001
0000
0100
0001
,
0100
0000
0010
0000
1000
0000
0010
1000
,
0010
0000
1000
0000
0100
0000
0010
0100
,
0010
0000
0001
0000
0100
0000
0001
0100
,
0001
0000
0100
0010
0100
0000
0010
0000
,
1000
0000
0000
0000
0010
0000
0000
1000
0000
0000
0010
0000
1000
0000
0000
0000
,
0010
0000
0000
0000
1000
0000
0000
0100
0000
0000
1000
0000
0100
0000
0000
0000
,
0010
0000
0000
0000
0001
0000
0000
0010
0000
0000
0001
0000
0010
0000
0000
0000
,
0001
0000
0100
0001
0100
0000
0010
0000
,
1000
0000
0000
0000
0010
1000
0010
1000
,
0010
0000
0000
0000
0100
0001
0100
0001
,
0100
0000
0000
0000
0001
1000
0001
1000
,
0001
0100
0010
0100
0010
0000
1000
0010
,
1000
0000
0100
0010
0100
0000
1000
0000
,
0010
0000
0100
0000
0010
0000
0100
0010
,
0100
0000
0001
0100
0001
0000
0010
0000
,
0100
1000
0100
1000
0200
0000
0300
1000
,
0020
0000
0030
0100
0010
0100
0010
0000
,
0100
0000
0001
0000
0020
0000
0030
0001
,
0200
0000
0300
0010
0200
0000
0310
0000
,
1000
0100
0001
0100
2000
0000
0000
3010
,
0200
0000
0300
0001
0020
0000
0230
0000
,
2300
0000
3000
0010
0200
0000
0300
0001
,
0020
0000
0030
0001
0100
0000
0010
0000
,
1000
0010
0100
0010
1000
0000
1010
0000
,
0001
0101
0010
0011
,
0100
1100
1000
1000
,
0001
0000
0001
0000
1000
0001
1000
0000
,
1001
0000
1001
0000
1000
0001
1000
0001
,
1000
0000
0010
0000
0100
0010
0100
0010
,
0100
0000
0001
0000
0010
0001
0010
0001
,
0010
0000
0100
0000
1000
0100
1000
0100
,
1000
0010
0100
0100
,
0100
0010
1000
0010
,
1000
0010
0100
0001
,
0100
0001
1000
0001
,
0000
0000
0001
0000
,
0001
0000
1000
0001
,
1000
0001
0100
0010
,
0100
0000
0010
0100
0010
0000
0100
0000
,
0010
1000
0002
0203
,
0320
2030
3200
0000
,
0320
0230
2300
3020
,
0230
0302
0023
0030
,
0001
0100
0001
0100
0001
0000
0000
1000
,
0002
0000
0003
0010
0100
0000
2000
0000
,
0000
3000
0010
0000
0100
0010
0100
0000
,
0010
1000
0010
1000
0020
0000
2030
0000
,
3002
0023
0230
2300
,
3020
0000
0230
0000
0302
0000
0013
0001
,
0100
0000
0001
0100
0010
0000
0100
0000
,
0010
1000
0100
0010
,
0001
0000
1000
0000
0001
0000
1000
0000
0001
0000
1000
0000
0002
0000
0000
0000
0000
0000
1003
0000
0000
0010
0000
0000
,
0200
0000
0310
1000
0100
0010
0100
0000
,
1000
0000
0010
0100
0010
0000
0100
0001
,
0100
0000
0001
0010
0001
0000
0100
0000
,
0010
0000
1000
0010
1000
0000
0000
0010
,
1000
0000
0000
0001
1000
0000
0100
0000
,
0010
0000
0001
0000
0100
0000
0000
0010
,
0100
0000
0000
0010
0100
0000
0010
0000
,
1000
0100
0010
0100
1000
0000
0100
0000
,
1000
0000
0100
0000
1000
0010
1000
0010
,
1000
0010
0100
0001
,
0100
0000
0001
0000
1000
0001
1000
0001
,
1000
0001
1000
0000
0020
0000
0000
0000
,
0230
0000
0301
0010
,
0100
1000
0010
0100
,
0010
0100
0010
0000
1000
0001
1000
0000
,
1001
1001
0000
0000
;

//---------------dance-single - ----------------
#NOTES:
     dance-single:
     :
     Easy:
     4:
     0.215,0.292,0.000,0.087,0.000,211.000,0.000,13.000,0.000,0.000,0.000,0.215,0.292,0.000,0.087,0.000,211.000,0.000,13.000,0.000,0.000,0.000:
0000
0000
0000
0000
,
0000
0000
0000
0000
,
0000
0000
0000
0000
,
0000
0000
0000
0000
,
1000
1000
1000
1000
,
0001
0001
0001
0001
,
0100
0100
0100
0100
,
0100
0010
0100
0100
,
0100
0000
0001
0001
,
0001
0000
1000
1000
,
1000
0000
0100
0100
,
0100
0000
0010
0001
,
0010
0000
0100
1000
,
0100
0000
1000
0010
,
1000
0000
0001
0100
,
0001
0000
0000
0100
,
0100
0000
0000
0010
,
0010
0000
0000
0100
,
0100
0000
0000
0001
,
0001
0000
0000
1000
,
0002
0003
0000
1000
,
0020
0030
0000
0100
,
0020
0030
0000
0010
,
0200
1300
0010
0000
,
0100
0000
0010
0100
,
0010
0000
1000
0000
,
0001
0000
1000
0001
,
0000
0000
0100
0100
,
0010
0010
0100
0010
,
0000
0100
0001
0001
,
1000
1000
0001
1000
,
0000
0001
1000
0100
,
1000
0010
0100
0001
,
0100
0000
0010
0100
,
0010
1000
0001
1000
,
0000
0001
1000
1000
,
0001
0001
0010
0100
,
0010
0100
1000
1000
,
0001
0001
1000
0010
,
0100
0000
0010
0010
,
0100
0000
0001
0001
,
1000
0000
0010
0010
,
0100
0000
0010
0010
,
1000
0001
1000
1000
,
1000
0000
0001
0001
,
0001
0000
0010
0010
,
0010
0000
0100
0100
,
0000
0000
1000
0000
,
1000
0000
1000
1000
,
0000
0000
0010
0000
,
0010
0000
0010
0000
,
0000
0000
0100
0000
,
0100
0000
0100
0000
,
0000
0000
0001
0000
,
0001
0000
0001
0000
,
1000
1000
1000
0000
,
0010
0000
1000
0010
,
0000
0100
0010
0010
,
0100
0100
0010
0000
,
1000
0001
2000
3100
,
0020
0130
0200
0301
,
0200
0310
0002
0003
,
2000
3000
0020
0030
,
0200
0320
1030
0000
,
1000
0000
0001
0001
,
0001
0000
0010
0000
,
0010
0000
0010
0010
,
0000
0000
0100
0000
,
1000
0000
0010
0000
,
1000
0010
1000
0000
,
0010
0000
0100
0010
,
0100
0000
0001
0000
,
0001
0000
0100
0000
,
0100
0000
0010
0000
,
0010
0000
0100
0000
,
0100
0000
0010
0010
,
0010
0000
1000
1000
,
1000
0000
0001
1000
,
0001
1000
0001
1000
,
0001
0000
0000
0000
;

//---------------dance-single - ----------------
#NOTES:
     dance-single:
     :
     Beginner:
     2:
     0.099,0.133,0.000,0.000,0.000,103.000,0.000,0.000,0.000,0.000,0.000,0.099,0.133,0.000,0.000,0.000,103.000,0.000,0.000,0.000,0.000,0.000:
0000
0000
0000
0000
,
0000
0000
0000
0000
,
0000
0000
0000
0000
,
0000
0000
0000
0000
,
1000
0000
0000
0000
,
0010
0000
0000
0000
,
0100
0000
0000
0000
,
0001
0000
1000
0000
,
0000
0000
0010
0000
,
0010
0000
0010
0000
,
0000
0000
0100
0000
,
0100
0000
0100
0000
,
0000
0000
0001
0000
,
0001
0000
0001
0000
,
0000
0000
1000
0000
,
1000
0000
1000
0000
,
0000
0000
0010
0000
,
0000
0000
1000
0000
,
0000
0000
0001
0000
,
0000
0000
0100
0000
,
0000
0000
0010
0000
,
0000
0000
1000
0000
,
0000
0000
0001
0000
,
0000
0000
0100
0000
,
0100
0000
0100
0000
,
0000
0000
0001
0000
,
0001
0000
0001
0000
,
0000
0000
0010
0000
,
0010
0000
0010
0010
,
0000
0000
0100
0000
,
0100
0000
0100
0100
,
0000
0000
1000
0000
,
1000
0000
0001
0000
,
0001
0000
1000
0000
,
0000
0000
0010
0000
,
0000
0000
0100
0000
,
0100
0000
0100
0000
,
0000
0000
0010
0000
,
0000
0000
0010
0000
,
0000
0000
0100
0000
,
0000
0000
0001
0000
,
0000
0000
1000
0000
,
0000
0000
0001
0000
,
0000
0000
1000
0000
,
0000
0000
0000
0000
,
0000
0000
0001
0000
,
0000
0000
0000
0000
,
0000
0000
1000
0000
,
0000
0000
1000
0000
,
0000
0000
0001
0000
,
0000
0000
0001
0000
,
0000
0000
0100
0000
,
0000
0000
0100
0000
,
0000
0000
0010
0000
,
0000
0000
0010
0000
,
0000
0000
0100
0000
,
0100
0000
0100
0000
,
0000
0000
0001
0000
,
0001
0000
0001
0000
,
0000
0000
1000
0000
,
1000
0000
1000
0000
,
0000
0000
0001
0000
,
0000
0000
1000
0000
,
0001
0001
0001
0000
,
0000
0000
1000
0000
,
0000
0000
0010
0000
,
0000
0000
0100
0000
,
0000
0000
0001
0000
,
0001
0000
0001
0000
,
0000
0000
1000
0000
,
1000
0000
1000
0000
,
0000
0000
0001
0000
,
0001
0000
0001
0001
,
0001
0000
0100
0000
,
0100
0000
0100
0100
,
0000
0000
0010
0000
,
0010
0000
0100
0000
,
0100
0000
0010
0000
,
1000
0000
0001
0000
,
1000
0000
0000
0000
;
