#VERSION:0.81;
#TITLE:Oui mais... non;
#SUBTITLE:;
#ARTIST:Mylène Farmer;
#TITLETRANSLIT:;
#SUBTITLETRANSLIT:;
#ARTISTTRANSLIT:;
#GENRE:;
#ORIGIN:;
#CREDIT:;
#BANNER:Oui mais non.png;
#BACKGROUND:Oui mais non-bg.png;
#PREVIEWVID:;
#JACKET:Oui mais non-jacket.png;
#CDIMAGE:;
#DISCIMAGE:Oui mais non-bg1.png;
#LYRICSPATH:;
#CDTITLE:;
#MUSIC:Oui mais... non.ogg;
#OFFSET:-1.034;
#SAMPLESTART:68.383;
#SAMPLELENGTH:16.222;
#SELECTABLE:YES;
#BPMS:0.000=135.000,
120.000=67.500,
136.000=135.000;
#STOPS:;
#DELAYS:;
#WARPS:;
#TIMESIGNATURES:0.000=4=4;
#TICKCOUNTS:0.000=4;
#COMBOS:0.000=1;
#SPEEDS:0.000=1.000=0.000=0;
#SCROLLS:0.000=1.000;
#FAKES:;
#LABELS:0.000=Song Start;
#BGCHANGES:15.750=Oui mais non.avi=1.000=0=0=1===CrossFade_Faster==,
99999=-nosongbg-=1.000=0=0=0 // don't automatically add -songbackground-
;
#KEYSOUNDS:;
#ATTACKS:
;

//---------------dance-single - ----------------
#NOTEDATA:;
#CHARTNAME:;
#STEPSTYPE:dance-single;
#DESCRIPTION:;
#CHARTSTYLE:;
#DIFFICULTY:Hard;
#METER:12;
#RADARVALUES:0.529,0.712,0.502,0.296,0.511,324.000,56.000,33.000,0.000,0.000,0.000,0.000,0.000,0.529,0.712,0.502,0.296,0.511,324.000,56.000,33.000,0.000,0.000,0.000,0.000,0.000;
#CREDIT:;
#NOTES:
// measure 0
0000
0000
0000
0000
,  // measure 1
0000
0000
0000
0000
,  // measure 2
0000
0000
0000
0000
,  // measure 3
0000
0000
0000
0000
,  // measure 4
0001
0000
0000
0100
0000
0000
0010
0000
0010
0100
0000
0100
,  // measure 5
0010
0000
0000
1000
0000
0000
0100
0000
0100
0010
0000
0010
,  // measure 6
0001
0000
0000
0100
0000
0000
0010
0000
0010
0100
0000
0100
,  // measure 7
0010
0000
0000
1000
0000
0000
0001
0000
0001
1000
0000
1000
,  // measure 8
0001
0011
0010
0110
,  // measure 9
0100
1100
1000
1010
,  // measure 10
0010
0000
0000
0110
0000
0100
0001
0000
0001
0010
0000
0010
,  // measure 11
0100
0000
0000
1100
0000
1000
0010
0000
0010
0100
0000
0100
,  // measure 12
0001
0000
0000
0101
0000
0100
0001
0000
0001
1000
0000
1000
,  // measure 13
0001
1000
2002
3003
,  // measure 14
0001
0000
0001
0010
0000
0010
0100
0000
0100
1000
0000
1000
,  // measure 15
0010
0000
0000
1010
0000
1000
0010
0000
0010
1000
0000
1000
,  // measure 16
0010
0000
0010
0001
0000
0001
0010
0000
0010
1000
0000
1000
,  // measure 17
0001
0000
0000
1001
0000
1000
0001
0000
0001
0100
0000
0100
,  // measure 18
0010
0000
0010
1000
0010
1000
0010
0000
1000
0100
0000
1000
,  // measure 19
0001
0000
0100
0001
0000
0010
0001
0000
0010
0100
0000
1000
,  // measure 20
0001
0000
0001
0010
0000
0010
1000
0000
1000
0010
0000
0010
,  // measure 21
0001
0000
0000
1001
0000
1000
0010
0000
0010
1000
0100
0010
,  // measure 22
0001
0000
0000
0011
0000
0010
0100
0000
0100
1000
0000
1000
,  // measure 23
0010
0000
0000
0110
0000
0100
0010
0000
0010
1000
0000
1000
,  // measure 24
0001
0000
0000
1001
0000
0001
0010
0000
0010
0001
0000
0001
,  // measure 25
0100
0000
0000
0101
0000
0001
0100
0000
0010
1000
0001
0000
,  // measure 26
1001
0000
0000
1100
0000
0100
0010
0000
0001
0100
0000
0010
,  // measure 27
1000
0000
0000
1010
0000
1000
0100
0000
1000
0010
0000
0100
,  // measure 28
0001
0000
0000
0101
0000
0001
0010
0000
0100
0010
0000
0100
,  // measure 29
1000
0000
0000
0100
0010
0001
0010
0000
0100
1000
0001
0000
,  // measure 30
1000
0000
0000
1010
0000
0000
0010
0000
0110
0000
0000
0100
0001
0000
0000
1001
0000
0000
1000
0000
1100
0000
0000
0100
,  // measure 31
0010
0000
0000
0011
0000
0000
0001
0000
1001
0000
0000
1000
0002
0000
0000
0023
0000
0000
2030
0000
0000
3200
0000
0000
,  // measure 32
0301
0000
0000
0101
0000
0000
0100
0000
0110
0000
0000
0010
1000
0000
0000
1001
0000
0000
0001
0000
0011
0000
0000
0010
,  // measure 33
0001
0000
0000
1001
0000
0000
1000
0000
1010
0000
0000
0010
2000
0000
0000
3020
0000
0000
0032
0000
0000
0203
0000
0000
,  // measure 34
1300
0000
0000
1100
0000
0100
0010
0000
0000
0011
0000
0001
,  // measure 35
1000
0000
0000
1010
0000
0010
1000
0000
1000
0100
0000
0100
,  // measure 36
0010
0000
0000
0011
0000
0001
1000
0000
0000
1010
0000
0010
,  // measure 37
2000
3020
0032
0203
,  // measure 38
1300
0000
0000
1010
0000
0010
0100
0000
0000
0101
0000
0001
,  // measure 39
0010
0000
0000
0011
0000
0001
0100
0000
0100
0010
0000
0010
,  // measure 40
1000
0000
0000
1100
0000
0100
0010
0000
0000
0011
0000
0001
,  // measure 41
0020
2030
3200
0302
,  // measure 42
2003
0000
0000
3002
0000
0000
1003
0000
0000
1001
0000
1000
,  // measure 43
0001
0000
0001
0010
0000
0010
0100
0000
0000
0110
0000
0010
,  // measure 44
0001
0000
0001
0100
0000
0100
0010
0000
0000
1010
0000
1000
,  // measure 45
0020
0032
0203
2300
,  // measure 46
3010
0000
0000
0110
0000
0100
0001
0000
0000
0101
0000
0001
,  // measure 47
1000
0000
0000
1100
0000
1000
0100
0000
0100
0010
0000
0010
,  // measure 48
0001
0000
0000
0011
0000
0010
0001
0000
0000
0101
0000
0001
,  // measure 49
2000
3200
0302
0023
,  // measure 50
1030
1010
0001
0011
,  // measure 51
1000
1100
0001
0101
,  // measure 52
1000
0000
0000
1001
0000
0000
0001
0000
0000
1001
0000
1000
,  // measure 53
0002
2003
3002
1003
,  // measure 54
2002
0000
0000
3003
;

//---------------dance-single - ----------------
#NOTEDATA:;
#CHARTNAME:;
#STEPSTYPE:dance-single;
#DESCRIPTION:;
#CHARTSTYLE:;
#DIFFICULTY:Medium;
#METER:8;
#RADARVALUES:0.339,0.540,0.009,0.493,0.157,209.000,1.000,55.000,0.000,0.000,0.000,0.000,0.000,0.339,0.540,0.009,0.493,0.157,209.000,1.000,55.000,0.000,0.000,0.000,0.000,0.000;
#CREDIT:;
#NOTES:
// measure 0
0000
0000
0000
0000
,  // measure 1
0000
0000
0000
0000
,  // measure 2
0000
0000
0000
0000
,  // measure 3
0000
0000
0000
0000
,  // measure 4
0001
0000
0000
1000
0000
0000
0001
0000
1000
0000
0000
0001
,  // measure 5
0100
0000
0000
0010
0000
0000
0100
0000
0010
0000
0000
0100
,  // measure 6
0001
0000
0000
1000
0000
0000
0001
0000
1000
0000
0000
0001
,  // measure 7
0010
0000
0000
0100
0000
0000
0010
0000
0100
0000
0000
0010
,  // measure 8
0200
1300
2000
3010
,  // measure 9
0020
0130
0200
0301
,  // measure 10
0002
0013
0020
0130
,  // measure 11
0200
1300
2000
3010
,  // measure 12
1000
0001
0010
0100
,  // measure 13
1000
0001
2002
3003
,  // measure 14
0001
0100
0010
1000
,  // measure 15
0200
0000
0000
0300
0000
1000
0100
0000
0000
1000
0000
0000
,  // measure 16
0010
0100
0010
1000
,  // measure 17
0002
0000
0000
0003
0000
1000
0001
0000
0000
1000
0000
0000
,  // measure 18
0001
0000
0000
0100
0000
0001
0100
0000
0000
0010
0000
0000
,  // measure 19
1000
0000
0000
0001
0000
0000
0010
0000
0000
0001
0000
1000
,  // measure 20
0100
0010
0001
0100
,  // measure 21
0001
0000
0000
1000
0000
0001
1000
0000
0000
0001
0000
1000
,  // measure 22
0020
0000
0000
0030
0000
0100
0010
0000
0000
0100
0000
0000
,  // measure 23
0002
0000
0000
0003
0000
1000
0010
0000
0000
1000
0000
0000
,  // measure 24
0200
0000
0000
0300
0000
1000
0001
0000
0000
1000
0000
0000
,  // measure 25
0002
0000
0000
0003
0000
1000
0001
0000
0000
1000
0000
0000
,  // measure 26
0002
0000
0000
0003
0000
0100
0010
0000
0000
0100
0000
0000
,  // measure 27
0020
0000
0000
0030
0000
1000
0010
0000
0000
1000
0000
0000
,  // measure 28
0020
0000
0000
0030
0000
1000
0100
0000
0000
1000
0000
0000
,  // measure 29
0200
0000
0000
0300
0000
1000
0001
0000
0000
1000
0000
0000
,  // measure 30
0002
0000
2003
0000
3020
0000
0230
0320
,  // measure 31
0230
0000
0302
0000
0023
0230
0320
0032
,  // measure 32
2003
0000
3020
0000
0230
0000
0320
2030
,  // measure 33
3200
0000
2300
0000
3002
2003
3020
0230
,  // measure 34
0310
0000
0000
0000
0000
1000
0010
0000
0000
0000
0000
1000
,  // measure 35
0100
0000
0000
0000
0000
1000
0010
0000
0000
0100
0000
0000
,  // measure 36
0001
0000
0000
0000
0000
0100
0001
0000
0000
0000
0000
0010
,  // measure 37
0001
0010
0100
1000
,  // measure 38
0001
0000
0000
0000
0000
1000
0001
0000
0000
0000
0000
1000
,  // measure 39
0001
0000
0000
0000
0000
1000
0001
0000
0000
0010
0000
0000
,  // measure 40
0100
0000
0000
0000
0000
0010
0100
0000
0000
0000
0000
0010
,  // measure 41
0100
1000
0010
0100
,  // measure 42
0001
0000
0000
0100
0000
0000
0010
0000
0000
0000
0000
0100
,  // measure 43
0010
0000
0000
1000
0000
0000
0100
0000
0000
0000
0000
1000
,  // measure 44
0100
0000
0000
0010
0000
0000
0001
0000
0000
0000
0000
0010
,  // measure 45
0001
1000
0010
0100
,  // measure 46
0020
0000
2030
0000
,  // measure 47
3200
0000
0320
0230
,  // measure 48
2300
0000
3002
0000
,  // measure 49
0203
0320
0230
0320
,  // measure 50
0130
0010
1000
0010
,  // measure 51
1000
0100
1000
0001
,  // measure 52
0010
0001
0010
0100
,  // measure 53
1000
0001
1000
0002
,  // measure 54
2000
0000
0000
3003
;

//---------------dance-single - ----------------
#NOTEDATA:;
#CHARTNAME:;
#STEPSTYPE:dance-single;
#DESCRIPTION:;
#CHARTSTYLE:;
#DIFFICULTY:Easy;
#METER:4;
#RADARVALUES:0.213,0.265,0.018,0.000,0.000,164.000,2.000,0.000,0.000,0.000,0.000,0.000,0.000,0.213,0.265,0.018,0.000,0.000,164.000,2.000,0.000,0.000,0.000,0.000,0.000,0.000;
#CREDIT:;
#NOTES:
// measure 0
0000
0000
0000
0000
,  // measure 1
0000
0000
0000
0000
,  // measure 2
0000
0000
0000
0000
,  // measure 3
0000
0000
0000
0000
,  // measure 4
0001
1000
0010
0000
,  // measure 5
0100
0010
1000
0000
,  // measure 6
0100
0010
0001
0000
,  // measure 7
0100
0001
1000
0000
,  // measure 8
0010
1000
0010
0001
,  // measure 9
0010
0100
0010
1000
,  // measure 10
0100
0001
0100
1000
,  // measure 11
0100
0010
0100
1000
,  // measure 12
0001
0100
0010
0000
,  // measure 13
1000
0100
0010
0000
,  // measure 14
0001
0000
0100
0000
,  // measure 15
0010
0000
0100
0100
,  // measure 16
0010
0000
1000
0000
,  // measure 17
0001
0000
1000
1000
,  // measure 18
0001
0000
0010
0010
,  // measure 19
0100
0000
1000
1000
,  // measure 20
0001
0000
0100
0100
,  // measure 21
0010
0000
1000
0001
,  // measure 22
1000
0000
0001
0100
,  // measure 23
0010
0000
1000
0001
,  // measure 24
0010
0000
0001
1000
,  // measure 25
0100
0000
1000
0010
,  // measure 26
0100
0000
0010
1000
,  // measure 27
0100
0000
1000
0010
,  // measure 28
0100
0000
0001
0010
,  // measure 29
0100
0000
1000
0001
,  // measure 30
1000
0000
0010
0000
0100
0000
0010
0010
,  // measure 31
0010
0100
0001
1000
,  // measure 32
0100
0000
0010
0000
0001
0000
1000
1000
,  // measure 33
1000
0000
0001
0000
0100
0010
0100
0010
,  // measure 34
0100
0001
0100
0010
,  // measure 35
0100
1000
0100
0010
,  // measure 36
1000
0100
1000
0010
,  // measure 37
1000
0001
1000
0100
,  // measure 38
0010
0001
0010
1000
,  // measure 39
0010
0100
0010
0001
,  // measure 40
0100
0010
0100
0001
,  // measure 41
0100
0010
0100
0010
,  // measure 42
1000
0001
1000
0000
,  // measure 43
0001
0010
0100
0000
,  // measure 44
0010
0001
0100
0000
,  // measure 45
0010
0100
0110
0110
,  // measure 46
0100
0000
0010
0000
,  // measure 47
1000
0000
0001
1000
,  // measure 48
0001
0000
0010
0000
,  // measure 49
0001
0100
0010
1000
,  // measure 50
0000
0001
0000
0100
,  // measure 51
0000
0010
0000
1000
,  // measure 52
0000
0100
0000
0010
,  // measure 53
0000
0001
0000
1000
;

//---------------dance-single - ----------------
#NOTEDATA:;
#CHARTNAME:;
#STEPSTYPE:dance-single;
#DESCRIPTION:;
#CHARTSTYLE:;
#DIFFICULTY:Beginner;
#METER:1;
#RADARVALUES:0.095,0.134,0.009,0.000,0.000,73.000,1.000,0.000,0.000,0.000,0.000,0.000,0.000,0.095,0.134,0.009,0.000,0.000,73.000,1.000,0.000,0.000,0.000,0.000,0.000,0.000;
#CREDIT:;
#NOTES:
// measure 0
0000
0000
0000
0000
,  // measure 1
0000
0000
0000
0000
,  // measure 2
0000
0000
0000
0000
,  // measure 3
0000
0000
0000
0000
,  // measure 4
1000
0000
0000
0000
,  // measure 5
0001
0000
0000
0000
,  // measure 6
1000
0000
0000
0000
,  // measure 7
0001
0000
0000
0000
,  // measure 8
0100
0000
0010
0000
,  // measure 9
0100
0000
0010
0000
,  // measure 10
1000
0000
0001
0000
,  // measure 11
1000
0000
0001
0000
,  // measure 12
1000
0000
0000
0000
,  // measure 13
0001
0000
0000
0000
,  // measure 14
0100
0000
0100
0000
,  // measure 15
0100
0000
0000
0000
,  // measure 16
0001
0000
0001
0000
,  // measure 17
0001
0000
0000
0000
,  // measure 18
1000
0000
1000
0000
,  // measure 19
1000
0000
0000
0000
,  // measure 20
0100
0000
0100
0000
,  // measure 21
0100
0000
0000
0000
,  // measure 22
0010
0000
0010
0000
,  // measure 23
0010
0000
0001
0000
,  // measure 24
0001
0000
0100
0000
,  // measure 25
0100
0000
0010
0000
,  // measure 26
0100
0000
0100
0000
,  // measure 27
0010
0000
0010
0000
,  // measure 28
1000
0000
1000
0000
,  // measure 29
0001
0000
0001
0000
,  // measure 30
1000
0000
0000
0000
,  // measure 31
0001
0000
0000
0000
,  // measure 32
0010
0000
0010
0000
,  // measure 33
0100
0100
1000
1000
,  // measure 34
0001
0000
0000
0000
,  // measure 35
0100
0000
0000
0000
,  // measure 36
0010
0000
0000
0000
,  // measure 37
1000
0000
0001
0000
,  // measure 38
1000
0000
0000
0000
,  // measure 39
0100
0000
0000
0000
,  // measure 40
0010
0000
0001
0000
,  // measure 41
0010
0000
0010
0000
,  // measure 42
0001
0000
0000
0000
,  // measure 43
0100
0000
0000
0000
,  // measure 44
0010
0000
0000
0000
,  // measure 45
1000
0000
1000
0000
,  // measure 46
1000
0000
0000
0000
,  // measure 47
0001
0000
0000
0000
,  // measure 48
1000
0000
0100
0000
,  // measure 49
0010
0000
0010
0000
,  // measure 50
1001
0000
0000
0000
;
