#VERSION:0.81;
#TITLE:Lipstick;
#SUBTITLE:;
#ARTIST:Orange Caramel;
#TITLETRANSLIT:Lipstick;
#SUBTITLETRANSLIT:;
#ARTISTTRANSLIT:Orange Caramel;
#GENRE:;
#ORIGIN:;
#CREDIT:;
#BANNER:lipstick-banner.png;
#BACKGROUND:ddrpopbg.png;
#PREVIEWVID:;
#JACKET:lipstick-jacket.png;
#CDIMAGE:;
#DISCIMAGE:;
#LYRICSPATH:;
#CDTITLE:cdtitle.png;
#MUSIC:Lipstick.ogg;
#OFFSET:-2.454;
#SAMPLESTART:47.572;
#SAMPLELENGTH:16.667;
#SELECTABLE:YES;
#BPMS:0.000=126.001;
#STOPS:;
#DELAYS:;
#WARPS:;
#TIMESIGNATURES:0.000=4=4;
#TICKCOUNTS:0.000=4;
#COMBOS:0.000=1;
#SPEEDS:0.000=1.000=0.000=0;
#SCROLLS:0.000=1.000;
#FAKES:;
#LABELS:0.000=Song Start;
#BGCHANGES:8.000=lipstick.avi=1.000=0=0=1===CrossFade_Faster==,
99999=-nosongbg-=1.000=0=0=0 // don't automatically add -songbackground-
;
#KEYSOUNDS:;
#ATTACKS:
;

//---------------dance-single - ----------------
#NOTEDATA:;
#CHARTNAME:;
#STEPSTYPE:dance-single;
#DESCRIPTION:;
#CHARTSTYLE:;
#DIFFICULTY:Hard;
#METER:11;
#RADARVALUES:0.541,0.531,0.137,0.106,0.344,335.000,13.000,10.000,0.000,0.000,0.000,0.000,0.000,0.541,0.531,0.137,0.106,0.344,335.000,13.000,10.000,0.000,0.000,0.000,0.000,0.000;
#CREDIT:;
#NOTES:
// measure 0
0000
0000
0000
0000
,  // measure 1
0000
0000
0000
0000
,  // measure 2
0000
0000
0000
0000
,  // measure 3
0000
0000
0000
0000
0000
0000
1000
0010
,  // measure 4
0100
0000
0010
0000
1000
0000
0100
0000
0010
0000
0100
0010
0000
0100
0000
0010
,  // measure 5
0001
0000
0100
0000
0010
0000
0100
0000
0001
0000
0010
0001
0000
0010
0000
0001
,  // measure 6
1000
0000
0010
0000
0100
0000
0001
0000
0010
0000
0001
0100
0000
0001
0000
0000
,  // measure 7
0100
0000
0010
0000
1000
0000
0100
0000
0010
0000
0100
1000
0000
0100
0000
0000
,  // measure 8
1000
0000
0001
0000
0010
0000
1000
0000
0010
0000
0001
0100
0000
0001
0000
0100
,  // measure 9
0000
0000
0010
0000
1000
0000
0100
0000
1000
0000
0010
1000
0000
0001
0000
0100
,  // measure 10
0000
0000
0010
0000
0100
0000
0001
0000
0010
0000
0100
0010
0000
0001
0000
0100
,  // measure 11
0000
0000
0010
0000
1000
0000
0001
0000
1000
0000
0010
1000
0000
0001
0000
1000
,  // measure 12
0010
0000
0100
0000
0010
0000
0001
0000
0010
0000
0000
1010
0000
1001
0000
0011
,  // measure 13
0000
0000
0001
0000
1000
0000
0010
0000
1000
0000
0000
1010
0000
0110
0000
0101
,  // measure 14
0000
0000
0001
0000
1000
0000
0100
0000
0010
0000
0000
0011
0000
0110
0000
1100
,  // measure 15
0000
0000
0010
0100
0001
0010
0001
0100
,  // measure 16
2000
3200
0302
0023
,  // measure 17
0130
0010
0100
1000
0100
0000
1100
0000
,  // measure 18
1000
0100
1000
0010
0100
0010
0100
0010
,  // measure 19
1000
0100
0010
0100
0010
0000
0100
1000
,  // measure 20
0020
0032
0023
2030
,  // measure 21
3100
0010
0100
1000
0001
0000
1001
0000
,  // measure 22
1000
0001
0100
0001
0010
0100
0001
0100
,  // measure 23
1000
0000
0010
0000
0100
0000
0010
0100
0000
0010
0000
0000
0100
0000
0001
0000
,  // measure 24
1000
0000
1000
0000
0010
0000
0010
0000
0100
0000
0100
0001
0000
0001
0000
0000
,  // measure 25
1000
0000
0100
0000
0010
0000
1000
0000
0010
0000
0001
0010
0000
0001
0000
0000
,  // measure 26
0100
0000
0100
0000
0010
0000
0010
0000
1000
0000
1000
0001
0000
0001
0000
0000
,  // measure 27
0100
0000
0010
0000
0100
0000
0010
0000
0100
0000
0010
1000
0000
0010
0000
0000
,  // measure 28
0100
0000
0000
0000
0001
0000
0000
0010
0000
0000
0000
0000
0001
0000
0100
0000
,  // measure 29
0010
0000
0100
0000
0001
0000
0010
0001
0000
0000
0010
0000
0100
0000
1000
0000
,  // measure 30
0001
0000
0010
0000
0100
0000
0010
0001
0000
0000
0100
0000
0010
0000
1000
0000
,  // measure 31
0100
0000
1000
0000
0010
0000
0100
0010
0000
0000
0100
0000
0101
0000
0001
0000
,  // measure 32
1001
0000
0001
0000
1000
0000
0100
0000
1000
0000
0010
0100
0000
0010
0000
0000
,  // measure 33
2000
0001
0001
0001
3001
0001
0100
0010
,  // measure 34
1000
0000
0000
0000
0100
0000
0010
0000
0100
0000
1000
0100
0000
1000
0000
0000
,  // measure 35
0010
0100
0010
1000
0001
0100
0001
0010
,  // measure 36
0001
0000
0100
0000
0001
0000
0010
0000
0100
0000
0010
0100
0000
0010
0000
0000
,  // measure 37
0200
0010
0010
0010
0310
0010
0100
1000
,  // measure 38
0001
0000
0000
0000
0010
0000
0001
0000
0100
0000
0010
0100
0000
0010
0000
0000
,  // measure 39
1000
0000
0100
0000
0010
0000
0100
0000
1000
0000
0010
0100
0000
0010
0000
0000
,  // measure 40
0100
0000
0001
0000
0010
0000
0001
0000
0100
0000
0010
1000
0000
0010
0000
0000
,  // measure 41
0100
0000
0010
0000
1000
0000
0100
0000
0001
0000
0100
1000
0000
0010
0000
0000
,  // measure 42
0100
0000
0010
0000
0100
0000
0001
0000
0010
0000
0001
0100
0000
0010
0000
0000
,  // measure 43
0100
0000
0001
0000
0010
0000
0100
0000
1000
0000
0010
1000
0000
0010
0000
0000
,  // measure 44
0100
0001
0100
0010
0100
0010
0100
0010
,  // measure 45
0100
1000
0100
0001
0010
0001
0010
0001
,  // measure 46
0100
0010
1000
0100
0001
0100
0001
0100
,  // measure 47
1000
0000
0010
0000
0100
0000
0001
0000
0010
0000
0100
1000
0000
0100
0000
0000
;

//---------------dance-single - ----------------
#NOTEDATA:;
#CHARTNAME:;
#STEPSTYPE:dance-single;
#DESCRIPTION:;
#CHARTSTYLE:;
#DIFFICULTY:Medium;
#METER:7;
#RADARVALUES:0.352,0.352,0.190,0.021,0.032,213.000,18.000,2.000,0.000,0.000,0.000,0.000,0.000,0.352,0.352,0.190,0.021,0.032,213.000,18.000,2.000,0.000,0.000,0.000,0.000,0.000;
#CREDIT:;
#NOTES:
// measure 0
0000
0000
0000
0000
,  // measure 1
0000
0000
0000
0000
,  // measure 2
0000
0000
0000
0000
,  // measure 3
0000
0000
0000
0000
,  // measure 4
0010
0000
1000
0000
0100
0000
0010
0000
0100
0000
0000
1000
0000
1000
0000
0000
,  // measure 5
0010
0000
0000
0000
0100
0000
0000
0000
0001
0000
0000
0100
0000
0100
0000
0000
,  // measure 6
0010
0000
0000
0000
1000
0000
0000
0000
0100
0000
0000
0010
0000
0010
0000
0000
,  // measure 7
0100
1000
0010
0100
0001
0000
0110
0000
,  // measure 8
0010
1000
0100
0010
0100
0000
1000
0000
,  // measure 9
0010
0000
0100
0001
0100
0000
0001
0000
,  // measure 10
0010
0000
0100
0010
0100
0000
0010
0000
,  // measure 11
0100
0000
1000
0010
0100
0000
0010
1000
,  // measure 12
0001
0000
1000
0100
1000
0000
0010
0000
,  // measure 13
0110
0000
0001
0100
0001
0000
0010
0000
,  // measure 14
0110
0000
0100
1000
0010
0000
0100
0000
,  // measure 15
0001
0000
0100
0001
0010
0100
1000
0010
,  // measure 16
0100
0110
0001
1001
,  // measure 17
0001
0010
0200
1300
,  // measure 18
1000
0000
0010
0000
0100
0010
0100
0000
,  // measure 19
0001
0010
0100
0010
0100
0000
1000
0000
,  // measure 20
1000
1010
0010
0110
,  // measure 21
0001
0000
0010
0000
0200
0000
0010
0300
,  // measure 22
0010
0000
0001
0000
0100
0001
0100
0000
,  // measure 23
0010
0100
0001
0000
0010
0100
0010
0100
,  // measure 24
0010
0000
0001
0000
0100
0001
0100
0000
,  // measure 25
0010
0000
1000
0000
0010
1000
0010
0000
,  // measure 26
1000
0100
1000
0000
0010
1000
0010
0000
,  // measure 27
0100
0001
0010
0001
0100
0000
0010
0000
,  // measure 28
0100
0001
0010
0010
,  // measure 29
0100
1000
0010
0010
,  // measure 30
0100
0010
0100
0000
0001
0100
0001
0000
,  // measure 31
0010
0100
0010
0100
0010
0100
1000
0010
,  // measure 32
1000
0000
1001
0000
,  // measure 33
0001
0000
1000
0000
0001
1000
0001
1000
,  // measure 34
0001
0000
0110
0000
,  // measure 35
0010
0000
1000
0000
0100
0000
1000
0001
,  // measure 36
1000
0000
1001
0000
,  // measure 37
0001
0000
1000
0000
0010
1000
0010
1000
,  // measure 38
0010
0000
1000
0000
,  // measure 39
0100
0010
0001
0100
,  // measure 40
0010
0100
0001
0001
,  // measure 41
0100
0001
0010
0010
,  // measure 42
0100
1000
0010
0010
,  // measure 43
0100
0010
0110
0110
,  // measure 44
0100
0010
0100
0000
1010
0000
1010
0000
,  // measure 45
0001
1000
0001
0000
1100
0000
1100
0000
,  // measure 46
0100
0010
0100
0000
0110
0000
0110
0000
,  // measure 47
0001
0100
0010
0000
;

//---------------dance-single - ----------------
#NOTEDATA:;
#CHARTNAME:;
#STEPSTYPE:dance-single;
#DESCRIPTION:;
#CHARTSTYLE:;
#DIFFICULTY:Easy;
#METER:4;
#RADARVALUES:0.240,0.226,0.053,0.032,0.000,151.000,5.000,3.000,0.000,0.000,0.000,0.000,0.000,0.240,0.226,0.053,0.032,0.000,151.000,5.000,3.000,0.000,0.000,0.000,0.000,0.000;
#CREDIT:;
#NOTES:
// measure 0
0000
0000
0000
0000
,  // measure 1
0000
0000
0000
0000
,  // measure 2
0000
0000
0000
0000
,  // measure 3
0000
0000
0000
0000
,  // measure 4
1000
0010
0100
0100
,  // measure 5
0001
0010
0100
0100
,  // measure 6
1000
0010
1000
1000
,  // measure 7
0100
0010
0001
0000
,  // measure 8
0100
0010
1000
0100
,  // measure 9
0100
1000
0010
0100
,  // measure 10
0100
0001
0010
0100
,  // measure 11
1000
0100
0010
0001
,  // measure 12
0100
0010
1000
0001
,  // measure 13
1001
0001
0010
0100
,  // measure 14
0110
0100
1000
0010
,  // measure 15
0100
0000
0110
0000
,  // measure 16
0010
0010
0100
0100
,  // measure 17
0001
1000
0001
0000
,  // measure 18
1000
0100
0010
0100
,  // measure 19
1000
0010
0100
0000
,  // measure 20
0010
0010
0010
0000
,  // measure 21
0100
0100
0100
0000
,  // measure 22
0001
0010
0001
0010
,  // measure 23
0001
0100
0001
0100
,  // measure 24
0010
0100
0010
0000
,  // measure 25
1000
0100
0010
0000
,  // measure 26
0100
1000
0010
0000
,  // measure 27
0100
0001
0100
0000
,  // measure 28
0010
1000
0100
1000
,  // measure 29
0010
0100
0001
0100
,  // measure 30
0010
0010
0100
0100
,  // measure 31
0001
0010
0001
1001
,  // measure 32
1001
0000
1000
0000
,  // measure 33
0010
0100
0001
0010
,  // measure 34
0100
0000
0010
0000
,  // measure 35
0100
1000
0010
0100
,  // measure 36
0010
0000
1000
0000
,  // measure 37
0100
0010
0001
0100
,  // measure 38
0001
0000
1000
0000
,  // measure 39
0010
1000
0100
0000
,  // measure 40
1000
1000
1000
1000
,  // measure 41
0010
0010
0010
0010
,  // measure 42
0100
0100
0100
0100
,  // measure 43
0001
0001
0001
0001
,  // measure 44
1000
0100
0020
0030
,  // measure 45
0001
0100
0020
0030
,  // measure 46
1000
0100
2000
3000
,  // measure 47
0010
0000
0100
0000
;

//---------------dance-single - ----------------
#NOTEDATA:;
#CHARTNAME:;
#STEPSTYPE:dance-single;
#DESCRIPTION:;
#CHARTSTYLE:;
#DIFFICULTY:Beginner;
#METER:1;
#RADARVALUES:0.085,0.099,0.000,0.000,0.000,56.000,0.000,0.000,0.000,0.000,0.000,0.000,0.000,0.085,0.099,0.000,0.000,0.000,56.000,0.000,0.000,0.000,0.000,0.000,0.000,0.000;
#CREDIT:;
#NOTES:
// measure 0
0000
0000
0000
0000
,  // measure 1
0000
0000
0000
0000
,  // measure 2
0000
0000
0000
0000
,  // measure 3
0000
0000
0000
0000
,  // measure 4
0001
0000
0000
0000
,  // measure 5
1000
0000
0000
0000
,  // measure 6
0001
0000
0000
0000
,  // measure 7
0000
0000
0000
0000
,  // measure 8
0100
0000
0000
0000
,  // measure 9
0010
0000
0000
0000
,  // measure 10
0100
0000
0000
0000
,  // measure 11
0010
0000
0010
0000
,  // measure 12
0010
0000
0000
0000
,  // measure 13
1000
0000
0000
0000
,  // measure 14
0100
0000
0000
0000
,  // measure 15
1000
0000
0000
0000
,  // measure 16
1000
0000
1000
0000
,  // measure 17
0001
0000
0001
0000
,  // measure 18
0100
0000
0010
0000
,  // measure 19
0100
0000
0010
0000
,  // measure 20
1000
0000
0000
0000
,  // measure 21
0010
0000
0000
0000
,  // measure 22
0100
0000
0000
0000
,  // measure 23
0001
0000
0000
0000
,  // measure 24
0010
0000
0010
0000
,  // measure 25
0100
0000
0100
0000
,  // measure 26
1000
0000
1000
0000
,  // measure 27
0010
0000
0010
0000
,  // measure 28
0100
0000
0000
0000
,  // measure 29
0001
0000
0000
0000
,  // measure 30
1000
0000
0000
0000
,  // measure 31
0010
0000
0000
0000
,  // measure 32
0100
0000
0000
0000
,  // measure 33
0000
0010
0010
0010
,  // measure 34
0010
0000
0000
0000
,  // measure 35
0100
0000
0100
0000
,  // measure 36
0100
0000
0000
0000
,  // measure 37
0000
0001
0001
0001
,  // measure 38
0001
0000
0000
0000
,  // measure 39
0000
0000
0000
0000
,  // measure 40
1000
0000
0000
0000
,  // measure 41
0010
0000
0000
0000
,  // measure 42
0100
0000
0000
0000
,  // measure 43
0001
0000
0000
0000
,  // measure 44
1000
0000
0000
0000
,  // measure 45
0001
0000
0000
0000
,  // measure 46
0100
0000
0000
0000
,  // measure 47
0010
0000
0000
0000
;
