#VERSION:0.81;
#TITLE:I Need Your Love;
#SUBTITLE:;
#ARTIST:Calvin Harris ft. Ellie Goulding;
#TITLETRANSLIT:;
#SUBTITLETRANSLIT:;
#ARTISTTRANSLIT:;
#GENRE:;
#ORIGIN:;
#CREDIT:;
#BANNER:need-banner.png;
#BACKGROUND:ddrpopbg.png;
#PREVIEWVID:;
#JACKET:need-jacket.png;
#CDIMAGE:;
#DISCIMAGE:;
#LYRICSPATH:;
#CDTITLE:;
#MUSIC:I Need Your Love.ogg;
#OFFSET:-0.313;
#SAMPLESTART:99.681;
#SAMPLELENGTH:12.000;
#SELECTABLE:YES;
#BPMS:0.000=125.001;
#STOPS:;
#DELAYS:;
#WARPS:;
#TIMESIGNATURES:0.000=4=4;
#TICKCOUNTS:0.000=4;
#COMBOS:0.000=1;
#SPEEDS:0.000=1.000=0.000=0;
#SCROLLS:0.000=1.000;
#FAKES:;
#LABELS:0.000=Song Start;
#BGCHANGES:;
#KEYSOUNDS:;
#ATTACKS:
;

//---------------dance-single - ----------------
#NOTEDATA:;
#CHARTNAME:;
#STEPSTYPE:dance-single;
#DESCRIPTION:;
#CHARTSTYLE:;
#DIFFICULTY:Hard;
#METER:12;
#RADARVALUES:0.569,0.611,0.243,0.065,0.579,454.000,30.000,8.000,0.000,0.000,0.000,0.000,0.000,0.569,0.611,0.243,0.065,0.579,454.000,30.000,8.000,0.000,0.000,0.000,0.000,0.000;
#CREDIT:;
#NOTES:
0000
0000
0000
0000
,
0000
0000
0000
0000
,
0000
0000
0000
0000
,
0000
0000
0000
0000
,
0001
1000
0000
0100
0000
0000
0010
0000
0000
0100
1000
0000
0010
0000
0100
0000
,
0001
0100
0000
0001
0000
0000
0010
0000
0000
0100
0010
0000
0100
0000
1000
0000
,
0010
1000
0000
0010
0000
0000
0100
0000
0000
0001
0100
0000
0001
0000
0010
0000
,
0100
0010
0000
0100
0000
0000
1000
0000
0010
0100
0000
0001
0100
0000
0010
0000
,
1000
0000
0000
0100
1000
0000
0010
0000
,
0200
0000
0000
0000
0300
0000
0001
0000
0010
0000
0000
0100
0000
0000
0010
0000
,
0200
2300
3020
0230
,
0302
0000
0003
1000
0001
0000
1000
0000
,
0010
1000
0000
1000
0100
0000
0100
0010
0000
0010
0100
0000
1000
0000
0010
0000
,
0100
0010
0000
0100
0001
0000
0100
0001
0000
0010
0001
0000
0010
0000
0100
0000
,
0001
0100
0000
1000
0010
0000
0100
0010
0000
1000
0010
0000
0100
0000
0001
0000
,
0010
0001
0000
0100
0010
0000
0100
0000
0010
0000
0000
0000
1000
0000
0000
0000
,
0100
1000
0000
0001
1000
0000
0010
0100
0001
1000
0001
0100
0010
0000
0100
0000
,
0001
0010
0000
0100
1000
0000
0100
1000
0010
0100
0001
1000
0100
0000
1000
0000
,
0100
1000
0000
0010
1000
0000
0001
0100
0001
1000
0001
0010
0100
0000
0010
0000
,
0001
1000
0000
0010
0100
0000
0001
2000
0002
0000
0000
0000
3003
0000
0000
0000
,
0001
1000
0000
0000
1000
0001
0000
0000
0100
0000
0000
0000
0110
0000
0000
0000
,
0010
0100
0000
0000
0100
0001
0000
0000
1000
0000
0000
0000
1100
0000
0000
0000
,
0100
1000
0000
0000
1000
0010
0000
0000
1000
0000
0000
0000
0011
0000
0000
0000
,
0001
0100
0000
0000
0010
0100
0000
0000
0001
0000
0000
0000
1001
0000
0000
0000
,
0001
0100
0000
0001
0010
0000
0100
0010
0000
0100
1000
0000
0010
0000
0100
0000
,
0010
1000
0000
0010
1000
0000
0100
1000
0000
0100
0010
0000
0001
0000
0100
0000
,
0001
0010
0000
0010
0100
0000
0100
1000
0000
1000
0010
0000
0100
0000
0010
0000
,
1000
0001
0000
0100
0001
0000
0010
0001
0000
0100
0010
0000
1000
0000
0001
0000
,
1000
0000
0000
0010
0000
0000
1000
0000
0000
0100
0000
1000
0100
0000
1000
0000
,
0010
0000
0000
0100
0000
0000
0010
0000
0000
1000
0000
0001
1000
0000
0001
0000
,
0100
0000
0010
0000
1000
0000
0100
1000
0000
0000
0100
0000
0010
0000
0100
0000
,
1000
0000
0010
0100
0000
0010
0000
0100
0000
0000
0000
0000
0101
0000
0000
0000
,
0001
0000
0010
0000
0100
0000
0001
0100
0000
0000
1000
0000
0010
0000
0100
0000
,
0010
0000
0100
0010
0100
0000
0010
0000
1000
0000
0000
0000
0100
0000
0000
0000
,
0010
0000
0001
0000
0010
0000
0100
0010
0000
0000
0001
0000
0100
0000
0000
0000
,
0010
0000
0100
0000
0001
0000
1000
0010
0000
0000
0000
0000
1010
0000
0000
0000
,
1000
0000
0100
0000
0010
0000
0001
0010
0000
0000
0001
0000
0100
0000
0010
0000
,
0110
0000
0000
0101
0000
0000
0011
0000
0000
0110
0000
0000
1100
0000
0000
0000
,
1000
0000
0001
0000
0010
0001
0000
0100
0000
0010
0000
0100
0000
0000
0010
0000
,
1000
0000
0000
0010
0000
0000
1000
0000
0000
0100
1000
0000
0100
0000
0010
0000
,
0001
0000
0000
0000
1000
0000
0010
1000
0000
0100
0000
0010
0000
0000
0001
0000
,
0100
0000
0000
0010
0000
0000
0100
0000
0000
0001
0010
0000
0100
0000
1000
0000
,
0001
0000
0100
0000
0010
0000
0100
0001
0000
0100
0000
0000
0001
0000
0010
0000
,
0100
0000
0010
0000
0001
0000
0100
0001
0000
0100
0010
0000
0100
0000
0010
0000
,
1000
0100
1000
0010
0100
0000
0010
0100
,
0000
0010
0100
0000
0001
0000
0010
0000
0100
0000
0000
0000
1000
0000
0000
0000
,
0101
0000
0011
0010
0001
0000
0100
0000
,
0110
0000
0000
0000
1010
0000
1000
0000
0100
0000
0000
0010
0000
0000
0100
0000
,
0110
0011
0101
0100
,
0110
0000
0100
0001
0010
0000
0100
0000
,
1100
0000
1010
1000
0010
0000
0100
0000
,
0101
0000
0000
0000
0011
0000
0010
0000
0100
0000
0000
0010
0000
0000
0001
0000
,
0101
0110
0110
1000
,
1100
0110
0011
0101
,
1000
0010
0000
0010
1000
0000
1000
0100
0000
0100
0010
0000
0001
0000
0100
0000
,
0010
0100
0000
0010
0100
0000
0001
0100
0000
0001
0100
0000
0001
0000
0010
0000
,
0100
1000
0000
0100
1000
0000
0100
0010
0000
0100
0010
0000
0001
0000
0010
0000
,
0001
0100
0000
0001
0100
0000
0010
0000
0100
0000
0000
0000
0010
0000
0000
0000
,
1000
0010
0000
1000
0100
0000
0010
0001
0000
0100
0001
0000
0100
0000
0010
0000
,
0100
0001
0000
0010
0001
0000
0001
0100
0000
0100
0010
0000
0100
0000
0010
0000
,
1000
0100
0000
1000
0010
0000
1000
0100
0000
0010
0001
0000
0100
0000
0010
0000
,
0100
0001
0000
0010
0001
0000
0100
0001
0000
0100
0010
0000
1000
0000
0010
0000
,
1000
0001
0100
0001
0010
0100
0010
0001
0100
0010
1000
0100
1000
0010
0100
0001
;

//---------------dance-single - ----------------
#NOTEDATA:;
#CHARTNAME:;
#STEPSTYPE:dance-single;
#DESCRIPTION:;
#CHARTSTYLE:;
#DIFFICULTY:Medium;
#METER:7;
#RADARVALUES:0.325,0.355,0.202,0.073,0.040,247.000,25.000,9.000,0.000,0.000,0.000,0.000,0.000,0.325,0.355,0.202,0.073,0.040,247.000,25.000,9.000,0.000,0.000,0.000,0.000,0.000;
#CREDIT:;
#NOTES:
0000
0000
0000
0000
,
0000
0000
0000
0000
,
0000
0000
0000
0000
,
0000
0000
0000
0000
,
0001
0000
0000
1000
0010
0000
1000
0000
,
0100
0000
0000
0000
0000
0000
1000
0000
0010
0000
0000
0100
0000
0000
0010
0000
,
0100
0000
0000
0001
0010
0000
0100
0000
,
1000
0000
0010
0100
,
0001
0000
0000
1000
0001
0000
0100
0000
,
0001
0000
0000
0000
0000
0000
0010
0000
0100
0000
0000
1000
0000
0000
0100
0000
,
1000
0010
0100
0010
,
0110
0000
1001
0000
,
0100
0000
0000
1000
0000
0000
0100
0000
0000
0000
1000
0000
0010
0000
0000
0000
,
0100
0000
0000
0010
0000
0000
0100
0000
0000
0000
0010
0000
0100
0000
0000
0000
,
0001
0000
0000
0100
0000
0000
0001
0000
0000
0000
0100
0000
0001
0000
0000
0000
,
0010
0000
0000
0100
0000
0000
1000
0000
0100
0000
0000
0000
1000
0000
0000
0000
,
0001
1001
1010
0110
,
0001
0011
0110
1100
,
0010
0110
1010
0110
,
0001
0000
1000
0000
2002
0000
0000
3003
,
1000
0001
1000
0000
1001
0000
0001
0000
,
0100
0010
0100
0000
0110
0000
0010
0000
,
1000
0100
1000
0000
1010
0000
0010
0000
,
0100
0010
0100
0000
0110
0000
0010
0000
,
1000
0100
0002
0103
,
1000
0010
0200
0301
,
0010
0001
0200
0310
,
2000
3010
0020
0130
,
0010
0000
0100
0000
0001
0100
0001
0000
,
0010
0000
0100
0000
0001
0100
0001
0000
,
0100
0010
0001
0100
,
0001
0000
1000
0001
1000
0000
1001
0000
,
1000
0100
0010
0001
,
0100
0001
0100
0010
0000
0000
0100
0000
,
0010
1000
0100
0000
,
1000
0001
0100
0000
,
0001
0010
0100
0000
0100
1000
0010
0000
,
0100
0000
0010
0000
0100
0001
0100
0000
,
0001
1000
0010
1000
,
0100
0000
0000
1000
0000
0000
0010
0000
0000
0000
0100
0000
0010
0000
0000
0000
,
0100
0001
0010
0100
,
0010
0000
0000
0001
0000
0000
0100
0000
0000
0000
0010
0000
0100
0000
0000
0000
,
0010
0000
0000
0000
1000
0000
0000
0100
0000
0000
1000
0000
0010
0000
0000
0000
,
0100
0000
0000
0000
0010
0000
0000
0100
0000
0000
0001
0000
0100
0000
0000
0000
,
0001
0010
0100
1000
0010
0000
1000
0000
,
0010
0100
0010
0100
,
0010
0010
0100
0000
,
0001
0001
0010
0000
,
0100
0100
1000
0000
,
0001
0001
1000
1000
,
0010
0010
0010
0000
,
0100
0100
0100
0000
,
0001
0001
0001
0000
,
1001
1001
1001
0000
,
0001
1000
0010
0110
,
0010
1000
0100
0110
,
0010
0001
0100
1001
,
0001
0010
0100
1100
,
0010
0000
0100
0000
0001
0100
0001
0000
,
0010
0000
0100
0000
1000
0100
1000
0000
,
0010
0000
0100
0000
0010
0100
0010
0000
,
0100
0000
0001
0000
1000
0001
1000
0000
,
2002
0000
0000
3003
;

//---------------dance-single - ----------------
#NOTEDATA:;
#CHARTNAME:;
#STEPSTYPE:dance-single;
#DESCRIPTION:;
#CHARTSTYLE:;
#DIFFICULTY:Easy;
#METER:5;
#RADARVALUES:0.195,0.201,0.000,0.000,0.000,169.000,0.000,0.000,0.000,0.000,0.000,0.000,0.000,0.195,0.201,0.000,0.000,0.000,169.000,0.000,0.000,0.000,0.000,0.000,0.000,0.000;
#CREDIT:;
#NOTES:
0000
0000
0000
0000
,
0000
0000
0000
0000
,
0000
0000
0000
0000
,
0000
0000
0000
0000
,
0010
0000
0010
0100
,
0010
0000
1000
0001
,
1000
0000
0100
1000
,
0100
0000
0010
0000
,
0001
0000
0100
0000
,
0010
0000
1000
0010
,
1000
0000
0001
0000
,
1000
0000
0010
0000
,
0100
0000
0000
0001
,
0010
0000
0000
0100
,
1000
0000
0000
0001
,
1000
0000
0010
0000
,
0100
0100
0100
0000
,
0001
0001
0001
0000
,
1000
1000
1000
0000
,
0001
1000
0001
0000
,
1000
0000
0001
0000
,
0100
0000
0001
0000
,
0010
0000
0100
0000
,
1000
0000
0001
0000
,
1000
0001
1000
0000
,
0010
1000
0010
0000
,
0100
0010
0100
0000
,
0001
0010
0001
0000
,
1000
0000
0000
0010
0000
0000
1000
0000
,
0100
0000
0000
0010
0000
0000
0001
0000
,
0100
0010
1000
0000
,
0100
1000
0100
0000
,
0010
0001
0100
0000
,
0010
0100
0010
0000
,
0100
0001
0010
0000
,
0001
1000
0001
0000
,
1000
0000
0010
0000
,
0100
0001
0010
0100
,
1000
0001
1000
0010
,
0100
0000
0010
0000
,
0100
0001
0010
0001
,
1000
0000
0001
0000
,
1000
0010
1000
0100
,
0010
0100
1000
0001
,
0100
0010
0100
0001
,
0100
0000
0010
1000
,
0001
0100
0001
0000
,
0010
0001
0010
0000
,
0100
1000
0100
0000
,
1000
0000
0001
0000
,
0100
0000
0001
0000
,
0010
0000
0100
0000
,
1000
0000
0001
0000
,
1000
0000
0010
0000
,
0100
0010
0100
0100
,
0001
0010
0001
0001
,
0010
0100
1000
1000
,
0010
0100
0001
0001
,
0100
0010
1000
0100
,
0010
0100
1000
0010
,
0100
0001
0010
0100
,
0001
0100
1000
0010
,
0100
0000
0000
0000
;

//---------------dance-single - ----------------
#NOTEDATA:;
#CHARTNAME:;
#STEPSTYPE:dance-single;
#DESCRIPTION:;
#CHARTSTYLE:;
#DIFFICULTY:Beginner;
#METER:1;
#RADARVALUES:0.088,0.099,0.000,0.000,0.000,76.000,0.000,0.000,0.000,0.000,0.000,0.000,0.000,0.088,0.099,0.000,0.000,0.000,76.000,0.000,0.000,0.000,0.000,0.000,0.000,0.000;
#CREDIT:;
#NOTES:
// measure 0
0000
0000
0000
0000
,  // measure 1
0000
0000
0000
0000
,  // measure 2
0000
0000
0000
0000
,  // measure 3
0000
0000
0000
0000
,  // measure 4
1000
0000
0000
0000
,  // measure 5
0001
0000
0000
0000
,  // measure 6
0100
0000
0000
0000
,  // measure 7
0010
0000
0010
0000
,  // measure 8
0010
0000
0000
0000
,  // measure 9
0100
0000
0000
0000
,  // measure 10
0001
0000
0000
0000
,  // measure 11
1000
0000
0001
0000
,  // measure 12
1000
0000
0000
0000
,  // measure 13
0000
0000
0000
0000
,  // measure 14
0001
0000
0000
0000
,  // measure 15
0000
0000
0000
0000
,  // measure 16
0100
0000
0000
0000
,  // measure 17
0001
0000
0000
0000
,  // measure 18
0010
0000
0000
0000
,  // measure 19
0100
0000
0000
0000
,  // measure 20
1000
0000
1000
0000
,  // measure 21
0100
0000
0100
0000
,  // measure 22
0010
0000
0010
0000
,  // measure 23
0001
0000
0001
0000
,  // measure 24
0100
0000
0000
0000
,  // measure 25
0010
0000
0000
0000
,  // measure 26
1000
0000
0000
0000
,  // measure 27
0001
0000
0000
0000
,  // measure 28
0100
0000
0000
0000
,  // measure 29
0000
0000
0000
0000
,  // measure 30
0010
0000
0000
0000
,  // measure 31
1000
0000
0000
0000
,  // measure 32
0001
0000
0000
0000
,  // measure 33
0010
0000
0000
0000
,  // measure 34
0100
0000
0000
0000
,  // measure 35
1000
0000
0000
0000
,  // measure 36
0001
0000
0000
0000
,  // measure 37
1000
0000
0001
0000
,  // measure 38
1000
0000
0000
0000
,  // measure 39
0010
0000
0000
0000
,  // measure 40
0100
0000
0000
0000
,  // measure 41
0010
0000
0000
0000
,  // measure 42
0100
0000
0100
0000
,  // measure 43
0100
0000
0000
0000
,  // measure 44
0001
0000
0001
0000
,  // measure 45
0001
0000
0000
0000
,  // measure 46
0010
0000
0010
0000
,  // measure 47
0100
0000
0100
0000
,  // measure 48
1000
0000
1000
0000
,  // measure 49
0001
0000
1000
0000
,  // measure 50
0001
0000
0001
0000
,  // measure 51
0100
0000
0100
0000
,  // measure 52
0010
0000
0010
0000
,  // measure 53
1000
0000
1000
0000
,  // measure 54
0001
0000
1000
0000
,  // measure 55
0001
0000
1000
0000
,  // measure 56
0010
0000
0100
0000
,  // measure 57
0010
0000
0100
0000
,  // measure 58
0001
0000
0000
0000
,  // measure 59
0010
0000
0000
0000
,  // measure 60
0100
0000
0000
0000
,  // measure 61
1000
0000
0000
0000
;
