#TITLE:I AM THE BEST;
#SUBTITLE:;
#ARTIST:2NE1;
#TITLETRANSLIT:;
#SUBTITLETRANSLIT:;
#ARTISTTRANSLIT:;
#GENRE:;
#CREDIT:;
#BANNER:best-banner.png;
#BACKGROUND:bg.png;
#LYRICSPATH:;
#CDTITLE:;
#MUSIC:I AM THE BEST.ogg;
#OFFSET:-0.261;
#SAMPLESTART:82.289;
#SAMPLELENGTH:15.235;
#SELECTABLE:YES;
#BPMS:0.000=128.000
;
#STOPS:
;
#BGCHANGES:15.667=best (1).avi=1.000=0=0=1===CrossFade_Faster==,
99999=-nosongbg-=1.000=0=0=0 // don't automatically add -songbackground-
;
#KEYSOUNDS:;
#ATTACKS:;

//---------------dance-single - ----------------
#NOTES:
     dance-single:
     :
     Hard:
     13:
     0.590,0.580,0.251,0.156,0.173,549.000,37.000,23.000,0.000,0.000,0.000,0.590,0.580,0.251,0.156,0.173,549.000,37.000,23.000,0.000,0.000,0.000: // measure 0
0000
0000
0000
0000
,  // measure 1
0000
0000
0000
0000
,  // measure 2
0000
0000
0000
0000
,  // measure 3
0000
0000
0000
0000
,  // measure 4
0010
0000
0000
1000
0100
0000
0010
0000
0100
0000
1000
0000
0010
0000
0100
0000
,  // measure 5
0010
0000
0000
0100
0010
0000
0100
0000
0001
0000
0010
0000
0001
0000
0100
0000
,  // measure 6
0001
0000
0000
0010
0001
0000
0010
0000
0100
0000
0001
0000
0100
0000
1000
0000
,  // measure 7
0010
0000
0000
1000
0010
0000
0100
0000
0010
0000
1000
0000
0100
0000
0010
0000
,  // measure 8
0100
0000
0000
1000
0010
0000
0100
0000
0010
0000
0100
0000
0001
0000
0010
0000
,  // measure 9
0001
0000
0000
0100
0010
0000
0100
0000
0010
0000
0100
0000
0001
0000
0010
0000
,  // measure 10
0001
0000
0010
0001
0010
0000
0100
0100
,  // measure 11
0100
0000
0010
0010
0010
0000
0110
0000
,  // measure 12
1001
0000
0000
1000
0010
0000
0100
0000
1000
0000
0100
0000
0010
0000
1000
0000
,  // measure 13
0100
0010
0001
0100
0010
0000
0110
0000
,  // measure 14
1001
0000
0000
0001
0100
0000
0001
0000
0010
0000
0001
0000
0100
0000
0010
0000
,  // measure 15
0001
0010
1000
0100
0010
0000
0011
0000
,  // measure 16
1100
0000
0000
1000
0010
0000
0100
0000
0010
0000
1000
0000
0010
0000
0100
0000
,  // measure 17
0010
1000
0100
0010
0001
0000
0101
0000
,  // measure 18
0110
0000
0000
0010
1000
0000
0010
0000
0100
0000
1000
0000
0100
0000
0001
0000
,  // measure 19
0010
0000
0100
0000
1001
0000
0000
0000
0000
0000
0001
1000
0001
0000
0000
0000
,  // measure 20
1000
0010
0100
0010
1000
0100
0010
0001
,  // measure 21
0200
0302
0023
0230
,  // measure 22
0301
0000
0000
0100
1000
0000
0010
0000
0100
0000
0000
0010
0100
0000
0010
0000
,  // measure 23
1000
0000
0000
0010
1000
0000
0100
0000
0010
0000
0000
0001
0100
0000
0001
0000
,  // measure 24
1000
0010
1000
0100
0020
0000
0130
1000
,  // measure 25
0020
0230
0320
0230
,  // measure 26
0301
0000
0010
0001
0100
0000
0010
0100
,  // measure 27
0010
0000
0100
0010
0100
0000
0010
0000
1000
0000
0000
0000
0100
0000
0010
0000
,  // measure 28
0001
0001
1000
1000
1010
0100
0110
0100
,  // measure 29
0010
0010
0100
0100
0101
0001
1001
0000
,  // measure 30
0001
1000
0010
1000
0100
1000
0100
1000
,  // measure 31
0010
0100
0001
0010
0001
1000
0001
1000
,  // measure 32
1001
0000
0001
0100
0000
0000
0001
0000
0010
0000
0100
0000
0001
0000
0100
0000
,  // measure 33
1100
0000
1010
0000
0110
0000
0011
0000
0101
0000
0000
0011
0000
0000
0001
0000
,  // measure 34
0100
0000
0010
1000
0000
0000
0100
0000
0010
0000
0100
0000
1000
0000
0010
0000
,  // measure 35
0100
0010
0100
0001
0010
0001
0100
0010
,  // measure 36
1000
0010
0100
1000
0100
0100
0001
0001
,  // measure 37
0010
0100
0001
0100
0000
1000
0010
0100
,  // measure 38
0020
0000
0230
0000
0310
1000
0100
0010
,  // measure 39
0001
0000
0000
0100
0000
0000
0010
0000
0000
0000
0100
0010
0100
0000
0001
0000
,  // measure 40
1000
0010
0110
0100
0001
0010
0110
0100
,  // measure 41
1000
0010
1010
1000
0100
1000
1100
0100
,  // measure 42
0010
0001
1001
1000
0001
0010
0100
1000
,  // measure 43
0001
0000
0000
0000
0010
0000
0001
0000
1000
0010
0100
0000
0100
0000
0010
0000
,  // measure 44
1000
0000
0010
0100
0010
0000
0100
0000
0001
0000
0010
0000
0100
0000
0001
0000
,  // measure 45
0100
0000
1000
0100
1000
0000
0010
0000
0100
0000
1000
0000
0100
0000
0010
0000
,  // measure 46
1000
0000
0001
1000
0001
0000
0100
0000
0001
0000
0010
0000
0100
0000
0001
0000
,  // measure 47
0100
0000
1000
0010
1000
0000
0010
0000
0100
0000
0010
0000
0100
0000
0001
0000
,  // measure 48
2000
0000
0010
0010
3010
0100
0010
0100
,  // measure 49
0002
0000
0100
0100
0103
0010
0100
0001
,  // measure 50
0010
0000
0010
0100
0010
0000
0001
0001
,  // measure 51
0002
0000
2003
0000
3020
0000
0000
0030
,  // measure 52
1000
0000
0010
0000
0100
0000
0001
0100
0001
0000
0100
0000
0010
0000
0100
0000
,  // measure 53
0001
0010
0100
1000
0020
0000
0130
0000
,  // measure 54
0200
0000
0000
0010
0000
0000
0010
0000
0310
0000
0000
0000
0010
0000
0000
0000
,  // measure 55
1020
0000
0000
1000
0000
0000
1000
0000
2030
0000
0000
0000
3002
0000
0000
0000
,  // measure 56
1003
0000
0010
0000
1000
0000
0100
0010
0100
0000
0010
0000
0100
0000
1000
0000
,  // measure 57
0010
0000
0000
0100
0010
0000
0010
0000
1000
0000
0100
0000
0010
0000
0001
0000
,  // measure 58
1000
0000
0001
0000
0100
0000
0001
0010
0001
0000
0010
0000
0100
0000
0001
0000
,  // measure 59
0100
0000
0000
0000
0000
0000
0000
0000
0000
1000
0000
0000
0000
0000
0000
0000
0000
0000
0010
0000
0000
0000
0000
0000
0100
0000
0000
0000
0000
0000
0010
0000
1000
0000
0010
0000
0000
0000
0000
0000
0000
0000
0000
0000
0000
0000
0000
0000
,  // measure 60
1000
0000
0010
0000
1000
0000
0100
1000
0100
0000
1000
0000
0010
1000
0010
1000
,  // measure 61
0010
0000
0100
0000
0010
0000
0100
0000
0001
0010
0001
0010
0001
0000
0000
0000
,  // measure 62
0100
0000
0010
0000
0100
0000
0010
0000
1000
0000
0010
0000
1000
0010
1000
0010
,  // measure 63
1000
0000
0100
0000
0010
0000
0001
0000
0100
0000
0010
1000
0010
0100
0001
0000
,  // measure 64
1000
0010
1000
0100
1000
0010
1000
0001
,  // measure 65
1000
0001
0100
0001
0010
0001
0100
0001
,  // measure 66
0010
0100
0001
0100
1000
0010
0100
0010
,  // measure 67
1000
0000
0000
0001
0000
0000
0100
0000
0010
0000
0000
0000
0110
0000
0000
0000
,  // measure 68
1000
0000
0000
0010
1000
0000
0100
0000
0001
0000
0100
0000
1000
0000
0001
0000
,  // measure 69
0100
0010
1000
0001
1000
0000
1001
0000
,  // measure 70
1100
0000
0000
0100
1000
0000
0010
0000
1000
0000
0100
0000
0010
0000
0001
0000
,  // measure 71
0100
0001
0010
0100
0001
0100
1000
0010
,  // measure 72
1010
0000
1000
0000
0100
0000
0010
0100
0010
0000
0001
0000
0100
0000
0010
0000
,  // measure 73
1000
0100
1000
0010
0200
0000
0320
0000
,  // measure 74
1030
0000
0000
0010
1000
0000
0100
0000
0010
0000
0100
0000
1000
0000
0010
0000
,  // measure 75
0100
0010
0101
0001
0011
0000
1010
0000
,  // measure 76
0110
0000
0000
0010
1000
0000
0100
0000
0010
0000
0100
0000
1000
0000
0010
0000
,  // measure 77
0110
0000
1010
0000
1100
0000
0000
0000
0000
0000
1000
0001
1000
0000
0000
0000
;

//---------------dance-single - ----------------
#NOTES:
     dance-single:
     :
     Medium:
     7:
     0.341,0.366,0.102,0.081,0.003,325.000,15.000,12.000,0.000,0.000,0.000,0.341,0.366,0.102,0.081,0.003,325.000,15.000,12.000,0.000,0.000,0.000:
0000
0000
0000
0000
,
0000
0000
0000
0000
,
0000
0000
0000
0000
,
0000
0000
0000
0000
,
1000
0000
0010
0000
0100
0010
0100
0010
,
0100
0000
0001
0000
0010
0001
0010
0001
,
0010
0000
0100
0000
1000
0100
1000
0100
,
1000
0000
0010
0000
0100
0010
0100
0010
,
0100
0000
0010
0000
1000
0010
1000
0010
,
1000
0000
0100
0000
0010
0100
0010
0100
,
0010
0100
1000
0001
,
1000
0000
0010
0100
0010
0000
0000
0000
,
0010
0100
0010
1000
,
0100
1000
0100
0000
0010
0000
0001
0000
,
0100
0001
0010
0100
,
0001
0100
1000
0000
0010
0000
0100
0000
,
0010
1000
0001
0100
,
0010
0100
0001
0000
0010
0000
0100
0000
,
1000
0010
0100
0000
,
1001
1001
0000
0110
,
0010
0000
1000
0000
0100
0000
1000
0010
,
1000
0010
0100
0001
,
0010
0000
0100
0010
0100
0000
1000
0100
,
1000
0000
0010
1000
0010
0000
0100
0000
,
0010
0000
0100
0000
0001
0000
0010
0001
,
0010
0100
0001
0100
,
1000
0000
0010
1000
0010
0000
0100
0010
,
0100
0000
0001
0100
0001
0000
0010
0000
,
0100
1000
0010
1000
,
0010
0000
0100
0000
0001
0100
0001
0000
,
0100
0001
0010
0100
,
1000
0000
0010
0000
1000
0100
1000
0000
,
0010
0100
0010
1000
,
0001
0000
0000
0000
1000
0000
0000
0000
1000
0000
0000
0001
0000
0000
0000
0000
,
1000
0000
0010
0000
1000
0010
1000
0000
,
0100
0000
0010
0000
0001
0100
1000
0000
,
0200
0000
0302
0000
,
0023
0000
0000
0230
0000
0000
1300
0000
,
0020
0000
0230
0000
,
0302
0000
0000
0203
0000
0000
0310
0000
,
0110
1000
0100
0110
,
0001
0100
0001
0101
,
0010
0100
0010
0000
1000
0001
1000
0000
,
0100
0000
0010
0000
0100
1000
0100
0000
,
2000
0000
0010
0010
0010
0000
3100
0000
,
0210
0000
0001
0001
0001
0000
0310
0000
,
2100
0000
0100
0100
0100
0000
0010
3000
,
0210
0000
0010
0010
0010
0000
0310
0000
,
1100
0000
0010
0100
,
0101
0000
0001
0010
,
0100
0000
1000
0100
1000
0000
0010
0000
,
0100
0001
1001
0000
,
1000
0000
0010
1000
,
0100
0000
0010
0001
,
0100
0001
0100
0000
,
0010
0100
0010
0000
,
1000
0010
1000
0100
,
1000
0010
0100
0001
,
0010
0100
0010
0000
,
0100
1000
0001
1001
,
1000
0000
0010
0000
1000
0100
1000
0000
,
0100
0000
0010
0000
0001
0010
0001
0000
,
0010
0100
1000
1000
,
0010
0100
0001
0001
,
0100
0000
0010
0000
0100
0010
0100
0010
,
0100
0000
0010
0000
1000
0001
1000
0001
,
1000
0000
0100
0000
0010
0001
0010
0001
,
0010
0100
1000
0100
,
1000
0000
0001
0000
,
0100
0010
0100
0000
0110
0000
0000
0000
,
0010
1000
0100
0010
,
0100
1000
0100
1000
0010
0000
0100
0000
,
0001
0000
0010
0001
0100
0000
0001
0000
,
0100
0010
0100
0010
,
1000
0000
0100
1000
0010
0000
1000
0000
,
0100
0010
0100
0000
1000
0000
0010
0000
,
0100
0000
0001
0010
0001
0000
0100
0000
,
0010
0110
0000
0000
;

//---------------dance-single - ----------------
#NOTES:
     dance-single:
     :
     Easy:
     5:
     0.215,0.262,0.068,0.014,0.000,210.000,10.000,2.000,0.000,0.000,0.000,0.215,0.262,0.068,0.014,0.000,210.000,10.000,2.000,0.000,0.000,0.000:
0000
0000
0000
0000
,
0000
0000
0000
0000
,
0000
0000
0000
0000
,
0000
0000
0000
0000
,
1000
0000
0010
1000
,
0100
0000
0010
0001
,
0100
0000
0001
0010
,
0100
0000
0100
1000
,
0010
0000
0100
0010
,
0100
0000
0001
0010
,
0100
0000
1000
0000
,
0010
0100
0010
0000
,
1000
0000
0010
0000
,
1000
0001
1000
0001
,
0100
0000
0001
0000
,
0010
0100
0010
0000
,
0001
0000
0100
0000
,
0010
0100
0010
0100
,
0001
0000
1000
0000
,
0100
1000
0000
0000
,
0110
0000
1001
0000
,
0100
1000
0100
1000
,
0010
0000
0110
0000
,
0001
0000
1001
0000
,
0100
0100
1000
1000
,
0010
0100
0010
0100
,
0001
0000
0101
0000
,
0010
0000
1010
0000
,
0010
1000
0100
0100
,
1000
0010
0100
0100
,
0001
0010
0100
0001
,
0100
1000
0010
0100
,
0001
0001
1000
1000
,
1001
1001
1001
0000
,
0010
0000
1000
0000
,
0100
0001
0100
1000
,
0010
0000
0100
0000
,
0001
0000
0000
0000
,
1000
0000
0100
0000
,
0010
0000
0000
0000
,
0001
0001
1000
1000
,
0010
0010
0100
0100
,
0010
0100
0001
1000
,
1001
0000
0000
0000
,
1000
0010
1000
1000
,
0100
0010
0001
0001
,
0100
0010
0100
0100
,
0001
0010
0100
1000
,
1000
0010
0100
0010
,
0100
0100
0010
1000
,
0100
0001
0100
1000
,
0010
0001
0010
0000
,
0010
0000
0100
0000
,
0010
0000
1000
0000
,
0001
0000
0001
0000
,
1000
0000
1000
0000
,
0010
0000
0100
0000
,
0001
0000
1000
0000
,
0020
0000
0000
0000
,
0230
0000
0000
0000
,
0310
0000
1000
0000
,
0100
0000
0010
0001
,
0010
0000
0001
0000
,
0100
0000
0010
0000
,
0100
0000
0010
1000
,
0100
0000
1000
0000
,
0010
0000
0100
0000
,
0010
0000
0100
0000
,
0010
0000
1000
0000
,
0100
1000
0010
0000
,
0100
0100
0010
0010
,
1000
1000
0100
0010
,
0001
0001
0010
0010
,
0100
0100
0010
0010
,
0001
0100
0010
0000
,
0100
0010
1000
0100
,
1000
0010
0100
0000
,
0010
0100
0000
0000
;

//---------------dance-single - ----------------
#NOTES:
     dance-single:
     :
     Beginner:
     1:
     0.100,0.130,0.000,0.000,0.000,103.000,0.000,0.000,0.000,0.000,0.000,0.100,0.130,0.000,0.000,0.000,103.000,0.000,0.000,0.000,0.000,0.000:
0000
0000
0000
0000
,
0000
0000
0000
0000
,
0000
0000
0000
0000
,
0000
0000
0000
0000
,
1000
0000
0000
0000
,
0010
0000
0000
0000
,
0100
0000
0000
0000
,
0010
0000
0000
0000
,
0100
0000
0000
0000
,
0001
0000
0000
0000
,
1000
0000
0000
0000
,
0010
0000
0000
0000
,
0100
0000
0100
0000
,
0100
0000
0100
0000
,
0001
0000
0001
0000
,
0001
0000
0001
0000
,
1000
0000
1000
0000
,
1000
0000
1000
0000
,
0100
0000
0100
0000
,
0100
0000
0000
0000
,
0010
0000
0000
0000
,
0001
0000
0000
0000
,
1000
0000
0001
0000
,
1000
0000
0001
0000
,
1000
0000
0000
0000
,
0010
0000
0000
0000
,
0100
0000
0010
0000
,
0100
0000
0010
0000
,
0100
0000
0001
0000
,
0010
0000
0000
0000
,
0100
0000
1000
0000
,
0010
0000
0000
0000
,
0100
0000
0010
0000
,
0100
0100
0100
0000
,
0001
0000
0010
0000
,
0100
0100
0100
0000
,
1000
0000
0000
0000
,
0010
0000
0000
0000
,
0100
0000
0000
0000
,
0001
0000
0000
0000
,
1000
0000
0010
0000
,
1000
0000
0001
0000
,
0100
0000
0001
0000
,
0010
0000
0010
0000
,
0100
0000
0000
0000
,
1000
0000
0000
0000
,
0010
0000
0000
0000
,
0100
0000
0000
0000
,
0010
0000
0000
0000
,
1000
0000
0000
0000
,
0001
0000
0000
0000
,
1000
0000
0000
0000
,
0010
0000
0000
0000
,
0100
0000
0000
0000
,
0001
0000
0000
0000
,
1000
0000
0000
0000
,
0001
0000
0000
0000
,
0100
0000
0000
0000
,
0010
0000
0000
0000
,
0100
0000
0000
0000
,
0010
0000
0010
0000
,
0010
0000
0010
0000
,
0100
0000
0000
0000
,
0001
0000
0000
0000
,
1000
0000
1000
0000
,
1000
0000
1000
0000
,
1000
0000
0000
0000
,
0100
0000
0000
0000
,
0010
0000
0010
0000
,
0010
0000
0010
0000
,
0100
0000
0000
0000
,
1000
0000
0000
0000
,
0010
0000
0000
0000
,
0100
0000
0000
0000
,
0001
0000
0000
0000
,
1000
0000
0000
0000
,
0010
0000
0000
0000
,
0100
0000
0000
0000
;
