#VERSION:0.81;
#TITLE:Gee;
#SUBTITLE:;
#ARTIST:Girls' Generation;
#TITLETRANSLIT:;
#SUBTITLETRANSLIT:;
#ARTISTTRANSLIT:;
#GENRE:;
#ORIGIN:;
#CREDIT:;
#BANNER:gee-banner.png;
#BACKGROUND:bg.png;
#PREVIEWVID:;
#JACKET:gee-jacket.png;
#CDIMAGE:;
#DISCIMAGE:;
#LYRICSPATH:;
#CDTITLE:cdtitle.png;
#MUSIC:Gee.ogg;
#OFFSET:-1.646;
#SAMPLESTART:58.518;
#SAMPLELENGTH:22.350;
#SELECTABLE:YES;
#DISPLAYBPM:100.000:200.000;
#BPMS:0.000=50.000,
8.000=100.000,
24.000=200.000,
84.000=400.000,
87.000=200.000;
#STOPS:84.000=0.200,
84.500=0.085,
85.000=0.200,
85.500=0.085,
86.000=0.085,
86.500=0.085;
#DELAYS:;
#WARPS:;
#TIMESIGNATURES:0.000=4=4,
84.000=3=4,
87.000=4=4;
#TICKCOUNTS:0.000=4;
#COMBOS:0.000=1;
#SPEEDS:0.000=1.000=0.000=0;
#SCROLLS:0.000=1.000;
#FAKES:;
#LABELS:0.000=Song Start;
#BGCHANGES:7.750=Gee.avi=1.000=0=0=1===CrossFade_Faster==,
99999=-nosongbg-=1.000=0=0=0 // don't automatically add -songbackground-
;
#KEYSOUNDS:;
#ATTACKS:
;

//---------------dance-single - ----------------
#NOTEDATA:;
#CHARTNAME:;
#STEPSTYPE:dance-single;
#DESCRIPTION:;
#CHARTSTYLE:;
#DIFFICULTY:Hard;
#METER:13;
#RADARVALUES:0.568,0.585,0.298,0.173,0.111,364.000,31.000,18.000,0.000,0.000,0.000,0.000,0.000,0.568,0.585,0.298,0.173,0.111,364.000,31.000,18.000,0.000,0.000,0.000,0.000,0.000;
#CREDIT:;
#OFFSET:-1.626;
#BPMS:0.000=50.000
,8.000=100.000
,24.000=200.000
,84.000=400.000
,87.000=200.000
;
#STOPS:84.000=0.190
,84.500=0.095
,85.000=0.200
,85.500=0.095
,86.000=0.095
,86.500=0.095
;
#DELAYS:;
#WARPS:;
#TIMESIGNATURES:0.000=4=4
,84.000=3=4
,87.000=4=4
;
#TICKCOUNTS:0.000=4
;
#COMBOS:0.000=1
;
#SPEEDS:0.000=1.000=0.000=0
;
#SCROLLS:0.000=1.000
;
#FAKES:;
#LABELS:0.000=Song Start
;
#DISPLAYBPM:100.000:200.000;
#NOTES:
0000
0000
0000
0000
,
0000
0000
0000
0000
,
1000
0000
0010
0000
0000
0000
0100
0000
0000
0000
0010
0100
0000
0000
0010
0000
,
0000
0000
1000
0000
0000
0000
0100
0000
0000
0000
0010
0001
0000
0000
0010
0000
,
0000
0000
0001
0000
0000
0000
0100
0000
0000
0000
0010
0100
0000
0000
0010
0000
,
0000
0100
0000
0010
0000
1000
0001
0100
,
0010
0100
0010
1000
0100
0000
0010
0000
,
0001
0010
0001
0010
0001
0000
0100
0000
,
0010
0100
0010
0100
0010
0000
1000
0100
,
0000
0010
0001
0100
,
0001
0000
0000
0000
0001
1000
0000
0000
1000
0100
0000
0000
0100
0010
0000
0000
,
0010
0000
0001
0100
0000
0001
0010
0001
,
0100
0000
0000
0000
0100
0010
0000
0000
0010
1000
0000
0000
1000
0100
0000
0000
,
0010
0000
0100
1000
0000
0010
0100
0000
,
0001
0100
0001
0010
0100
0000
1000
0000
,
0010
1000
0100
1000
0010
0000
0100
0000
,
0010
0100
0010
0100
0010
0000
0100
0001
,
0000
0010
0100
1000
0010
0000
1000
0000
,
0101
0011
0110
1100
,
1010
0000
0010
0100
0000
0010
0100
0010
,
0100
0110
0101
1001
,
0001
1000
0001
0100
0100
0100
0102
0000
,
0010
0000
0100
0003
1000
0010
1000
0000
,
0100
0010
0001
0210
,
0001
0000
0310
0000
0100
0001
0010
0000
,
0100
0000
1000
0000
0010
0000
1000
0100
,
1000
0010
0100
0010
0100
0001
0010
0000
,
0100
0010
0001
0201
,
0310
0000
2100
0000
0010
3000
1010
0000
,
0101
0110
2100
3100
,
0101
0000
0100
0000
0001
0010
0100
0010
,
0001
0100
0001
0000
0100
0000
0010
0000
,
1000
0000
0100
0000
1000
0010
1000
0100
,
0010
0001
0100
0000
0010
0000
0110
0000
,
0100
0001
0010
0001
,
0110
0000
0000
0000
0010
0000
1000
0000
0100
0000
1000
0000
0010
0000
0100
0010
,
0100
0000
0001
0000
0010
0000
0001
0010
0001
0000
0100
0000
0001
0000
1000
0001
,
1000
0100
1000
0000
0010
0000
1000
0000
,
0010
0000
0110
0000
0100
0001
0010
0000
,
0001
0100
0001
0010
,
1000
0010
0001
0100
,
0100
0010
0100
0000
0110
0000
0010
0000
,
1100
0000
0010
0000
0100
0001
0000
0000
,
1000
0000
0000
0000
0010
0000
0000
0000
1000
0000
0000
0000
0100
0000
0010
0001
,
0010
0000
0100
0000
1000
0000
0100
0010
0100
0000
0010
0000
0100
0000
0000
0000
,
1000
0010
1000
0000
0010
0000
0100
0000
,
0010
0000
0100
0000
0001
0010
0001
0000
,
0100
0001
0010
0200
,
0302
0203
2300
3020
,
0130
0010
0100
0000
0010
0000
1000
0000
,
0000
0100
0000
0000
0010
0000
0001
0000
,
0100
0001
0010
0000
0100
0000
1000
0000
,
0000
0000
0010
0000
0000
0000
0100
0010
0100
0000
0010
0000
0100
0000
0000
0000
,
0100
0000
0001
0000
0100
0010
0100
0010
0100
0010
0100
0010
0100
0000
0000
0000
,
0000
0000
0110
0000
0010
1000
0100
0000
,
0010
0100
1000
0011
,
1100
1010
1001
0011
,
0010
0001
0100
0000
0110
0000
2000
0000
,
3100
0000
0200
0000
0310
0001
0010
0000
,
0001
0100
0010
2000
,
3200
0320
0032
1003
,
0000
0000
1000
0000
0100
0000
0000
0000
1000
0001
1000
0001
1000
0000
0000
0000
,
0010
0000
0110
0000
0010
1000
0100
0000
,
0010
0000
0001
0000
0100
0000
0001
0010
,
0001
0100
0001
0010
0001
0100
0001
1000
,
0001
0010
0100
0000
1000
0000
0010
0000
,
0000
0100
0000
0000
0010
0000
1000
0000
,
0100
0010
0001
0000
0100
0000
0001
0000
,
0010
0000
0000
0000
0100
0000
0010
0100
0010
0100
0010
0000
0001
0000
0000
0000
,
0010
0100
0010
0220
,
0000
0000
0000
0000
,
0000
0000
0330
0000
;

//---------------dance-single - ----------------
#NOTEDATA:;
#CHARTNAME:;
#STEPSTYPE:dance-single;
#DESCRIPTION:;
#CHARTSTYLE:;
#DIFFICULTY:Medium;
#METER:8;
#RADARVALUES:0.386,0.336,0.183,0.038,0.000,258.000,19.000,4.000,0.000,0.000,0.000,0.000,0.000,0.386,0.336,0.183,0.038,0.000,258.000,19.000,4.000,0.000,0.000,0.000,0.000,0.000;
#CREDIT:;
#DISPLAYBPM:100.000:200.000;
#NOTES:
0000
0000
0000
0000
,
0000
0000
0000
0000
,
0000
0000
0000
1000
0010
1000
0100
0000
,
0010
0000
0001
0100
0001
0000
0100
0000
,
0010
0000
0100
0000
,
0001
0000
1000
0000
0010
0010
0010
0010
,
0010
0100
0001
0001
,
0010
0001
0010
0001
0010
0000
0000
0000
,
0100
0100
1000
1000
,
0001
1000
0001
1000
,
2001
0001
0001
0001
,
0010
0010
0010
3010
,
0120
0100
0100
0100
,
1000
1000
1000
1030
,
0010
1000
0100
0010
,
0001
0000
0010
0100
0010
0000
0100
0000
,
0010
0100
1000
0010
,
0100
0000
0010
0100
0010
0000
0100
0000
,
0010
1000
0100
0010
,
0110
0000
0000
1100
0000
0000
1010
0000
,
0010
0010
0100
0100
,
0010
0100
0001
0010
,
0000
0001
0000
0100
,
0001
0010
0100
1000
,
0000
0010
0000
0100
,
0010
0100
0000
0010
,
1000
0000
0010
1000
0010
1000
0100
0000
,
0010
0100
0000
1000
,
1000
0010
0010
0110
,
0110
0110
0000
0001
,
0001
0100
0100
0010
,
0100
0010
0100
0000
0010
0000
1000
0000
,
1000
0100
0100
0010
,
0001
0010
0001
0000
0010
0000
0100
0000
,
1000
0010
1000
0010
,
0010
0100
0100
0110
,
0010
0101
0001
0011
,
0010
0100
0010
0001
,
0000
0110
0000
0100
,
1000
0010
0000
0010
,
0010
0100
0100
0001
,
0010
0001
0010
0000
0000
0000
0001
0000
,
0100
0000
0010
0000
1000
0010
1000
0000
,
0100
1000
0010
0100
,
0010
0100
0001
0010
,
0001
0010
0100
0000
0010
0000
0200
0000
,
0000
2300
0000
3010
,
0100
0001
0000
0100
,
0001
0010
0100
0010
,
0100
0010
0100
0000
1000
0000
0001
0000
,
0000
0100
0000
0010
,
0100
0010
0100
0010
,
0000
1000
0000
0100
,
0010
0000
0100
1000
0100
1000
0100
0000
,
0000
1010
0000
0010
,
0100
0010
0000
0100
,
0001
0010
0001
0100
,
0010
0100
0010
0000
0100
0000
0110
0000
,
0000
1010
0000
1100
,
0010
0110
0000
0001
,
0010
0001
0100
0010
,
0000
0100
0010
0000
0110
0000
1000
0000
,
0000
0001
0100
0001
,
0010
0100
0010
0100
,
0100
1000
1000
0010
,
0010
0100
0010
0000
0100
0000
0001
0000
,
0000
0100
0000
0001
,
0010
0100
1000
0010
,
0000
1000
0010
0100
,
0100
0010
0000
0110
;

//---------------dance-single - ----------------
#NOTEDATA:;
#CHARTNAME:;
#STEPSTYPE:dance-single;
#DESCRIPTION:;
#CHARTSTYLE:;
#DIFFICULTY:Easy;
#METER:5;
#RADARVALUES:0.219,0.267,0.000,0.000,0.000,159.000,0.000,0.000,0.000,0.000,0.000,0.000,0.000,0.219,0.267,0.000,0.000,0.000,159.000,0.000,0.000,0.000,0.000,0.000,0.000,0.000;
#CREDIT:;
#DISPLAYBPM:100.000:200.000;
#NOTES:
0000
0000
0000
0000
,
0000
0000
0000
0000
,
0010
0010
0010
0100
,
0010
0000
1000
0001
,
1000
0000
0001
0000
,
0100
0100
0100
0000
,
0010
0000
0010
0000
,
1000
0100
0010
0000
,
0100
0000
1000
0000
,
0010
1000
0010
0000
,
0100
0000
0100
0000
,
0001
0000
0001
0000
,
0010
0000
0010
0000
,
0100
0000
0100
0000
,
1000
0000
1000
0000
,
0010
0010
0010
0000
,
0100
0000
0001
0000
,
1000
1000
1000
0000
,
0001
0001
0001
0001
,
0001
0000
0001
0000
,
1000
1000
1000
1000
,
1000
0000
0000
1000
,
0000
0010
0000
0100
,
0100
0100
0000
0010
,
0000
1000
0000
0100
,
0100
0100
0000
0010
,
0010
0100
0100
1000
,
1000
0010
0010
0100
,
0000
0001
0000
0010
,
0001
0100
0000
0010
,
0000
0100
0000
0010
,
1000
0100
0010
0100
,
0000
1000
0000
0010
,
1000
0010
0100
0001
,
0000
0100
0000
0010
,
0000
0010
0000
0001
,
0000
0010
0000
0100
,
0000
1000
0000
0001
,
0000
0001
0000
0001
,
0100
0001
0000
0100
,
0100
0100
0000
0010
,
0000
0000
0000
1000
,
0000
0010
0000
0100
,
0010
0100
0000
0010
,
0000
1000
0000
0100
,
0000
0010
0100
1000
,
0000
0010
0000
0100
,
0000
0100
0000
0010
,
0100
0010
0100
0010
,
0000
0000
0000
1000
,
0000
0001
0000
1000
,
0000
0001
0000
0010
,
0000
0010
0000
0100
,
0000
1000
0000
0001
,
0000
0001
0000
0000
,
0000
0000
0000
0010
,
0000
0010
0000
0010
,
0000
0000
0000
0100
,
0000
0010
0000
1000
,
0000
0001
0000
1000
,
0001
1000
0001
1000
,
0000
0010
0000
1000
,
0000
0100
0000
0001
,
0000
0100
0000
1000
,
0000
1000
0000
1000
,
0000
0010
0000
0100
,
0000
0000
0000
0100
,
0000
0001
0000
1000
,
0000
0000
0000
0001
,
0000
1000
0000
0000
;

//---------------dance-single - ----------------
#NOTEDATA:;
#CHARTNAME:;
#STEPSTYPE:dance-single;
#DESCRIPTION:;
#CHARTSTYLE:;
#DIFFICULTY:Beginner;
#METER:1;
#RADARVALUES:0.114,0.132,0.000,0.000,0.000,83.000,0.000,0.000,0.000,0.000,0.000,0.000,0.000,0.114,0.132,0.000,0.000,0.000,83.000,0.000,0.000,0.000,0.000,0.000,0.000,0.000;
#CREDIT:;
#DISPLAYBPM:100.000:200.000;
#NOTES:
// measure 0
0000
0000
0000
0000
,  // measure 1
0000
0000
0000
0000
,  // measure 2
0000
0000
1000
0000
,  // measure 3
0000
0000
0001
0000
,  // measure 4
0000
0000
1000
0000
,  // measure 5
0000
0000
0000
0000
,  // measure 6
0010
0000
0000
0000
,  // measure 7
0010
0000
0000
0000
,  // measure 8
0100
0000
0000
0000
,  // measure 9
0100
0000
0000
0000
,  // measure 10
0001
0000
0001
0000
,  // measure 11
0001
0000
0000
0000
,  // measure 12
1000
0000
1000
0000
,  // measure 13
1000
0000
0000
0000
,  // measure 14
0010
0000
0000
0000
,  // measure 15
0010
0000
0000
0000
,  // measure 16
0100
0000
0000
0000
,  // measure 17
0100
0000
0000
0000
,  // measure 18
0001
0000
0001
0000
,  // measure 19
0001
0000
0000
0000
,  // measure 20
0010
0000
0010
0000
,  // measure 21
0010
0000
0000
0100
,  // measure 22
0000
0000
0000
0100
,  // measure 23
0000
0000
0000
1000
,  // measure 24
0000
0000
0000
1000
,  // measure 25
0000
0000
0000
0010
,  // measure 26
0000
0010
0000
0010
,  // measure 27
0000
0000
0000
0100
,  // measure 28
0000
0000
0000
0001
,  // measure 29
0000
0000
0000
1000
,  // measure 30
0000
0000
0000
0010
,  // measure 31
0000
0010
0000
0010
,  // measure 32
0000
0000
0000
0100
,  // measure 33
0000
0100
0000
0100
,  // measure 34
0000
0000
0000
0001
,  // measure 35
0000
0000
0000
0010
,  // measure 36
0000
0100
0000
0010
,  // measure 37
0000
0000
0000
0100
,  // measure 38
0000
1000
0000
0000
,  // measure 39
0000
0000
0000
0010
,  // measure 40
0000
0010
0000
0010
,  // measure 41
0000
0100
0000
0001
,  // measure 42
0000
0000
0000
0000
,  // measure 43
0000
0000
0000
1000
,  // measure 44
0000
0100
0000
1000
,  // measure 45
0000
0000
0000
0010
,  // measure 46
0000
0100
0000
0010
,  // measure 47
0000
0000
0000
0100
,  // measure 48
0000
0001
0000
0100
,  // measure 49
0000
0000
0000
0010
,  // measure 50
0000
0000
0000
0100
,  // measure 51
0000
0000
0000
0010
,  // measure 52
0000
0000
0000
1000
,  // measure 53
0000
0100
0000
1000
,  // measure 54
0000
0001
0000
0000
,  // measure 55
0000
0000
0000
0100
,  // measure 56
0000
0100
0000
0100
,  // measure 57
0000
0000
0000
0010
,  // measure 58
0000
0000
0000
0100
,  // measure 59
0000
0000
0000
0001
,  // measure 60
0000
0001
0000
0001
,  // measure 61
0000
0000
0000
1000
,  // measure 62
0000
0001
0000
0000
,  // measure 63
0000
0000
0000
1000
,  // measure 64
0000
1000
0000
1000
,  // measure 65
0000
0000
0000
0010
,  // measure 66
0000
0000
0000
0100
,  // measure 67
0000
0000
0000
0010
,  // measure 68
0000
0000
0000
0100
;
