#TITLE:Everybody Talks;
#SUBTITLE:;
#ARTIST:Neon Trees;
#TITLETRANSLIT:;
#SUBTITLETRANSLIT:;
#ARTISTTRANSLIT:;
#GENRE:;
#CREDIT:;
#BANNER:everybody-banner.png;
#BACKGROUND:bg.png;
#LYRICSPATH:;
#CDTITLE:cdtitle.png;
#MUSIC:Everybody Talks.mp3;
#OFFSET:-0.500;
#SAMPLESTART:30.410;
#SAMPLELENGTH:22.846;
#SELECTABLE:YES;
#BPMS:0.000=154.985
;
#STOPS:
;
#BGCHANGES:15.500=EverybodyTalks.avi=1.000=0=0=1===CrossFade_Faster==,
99999=-nosongbg-=1.000=0=0=0 // don't automatically add -songbackground-
;
#KEYSOUNDS:;
#ATTACKS:;

//---------------dance-single - ----------------
#NOTES:
     dance-single:
     :
     Hard:
     10:
     0.524,0.492,0.086,0.209,0.000,274.000,7.000,17.000,0.000,0.000,0.000,0.524,0.492,0.086,0.209,0.000,274.000,7.000,17.000,0.000,0.000,0.000:
0000
0000
0000
0000
,
0000
0000
0000
0000
,
0000
0000
0000
0000
,
0000
0000
0000
0000
,
1000
0000
0010
0000
0100
0010
0100
0010
,
1000
0000
0100
0000
0010
0001
0010
0001
,
0010
0000
0100
0000
1000
0100
1000
0100
,
1000
0000
0010
0000
0100
0010
0100
0010
,
0200
0001
0010
0301
,
0020
0100
1000
0130
,
1000
0000
0000
0010
0000
0100
0000
0010
,
1000
0100
0000
1000
0010
0100
0010
0100
,
0001
0000
0100
0010
1000
0000
1000
0100
,
0010
0000
0010
0001
0100
0010
0000
0100
,
0000
0010
0000
1000
0000
0100
0000
0010
,
0001
0010
0000
0001
0100
0001
0100
0010
,
2000
3002
0023
0230
,
1300
0010
0100
0010
1000
0000
0100
0010
,
0100
0001
0100
0000
1000
0010
1000
0100
,
0110
0000
0001
1000
,
2001
0001
0010
0100
,
0001
0000
3010
0100
0001
0010
0001
0100
,
0020
1000
0100
0001
,
1000
0000
0130
0010
1000
0100
0010
0001
,
0200
0001
0010
0001
,
1000
0000
0001
0000
0310
1000
0100
0010
,
0002
0100
0010
0100
,
0010
0000
0100
0000
1003
0001
0100
0010
,
0200
1000
0010
1000
,
0301
0000
1000
0010
0100
0001
0010
0001
,
0100
0001
0100
0001
0100
0010
0100
0010
,
0100
0010
1000
0010
1000
0100
0010
0001
,
0100
0101
0010
1100
,
0010
0100
0010
1000
0001
0100
0010
0100
,
0010
1000
0010
0001
0010
0000
1000
0100
,
1000
0010
1000
0000
0102
0000
0103
0000
,
0100
0001
0100
1000
0100
0000
0001
0010
,
0001
0100
0001
0000
2010
0000
3010
0000
,
1000
0001
1000
0001
1000
0000
0010
0100
,
0010
0100
0010
0000
0100
0000
0001
0010
,
0100
0010
0000
0001
0100
0010
0000
1000
,
0010
1000
0100
0010
0001
0100
0010
0100
,
0001
1000
0001
0100
0001
0010
0001
0100
,
0001
1000
0001
0010
0001
0100
0010
1000
,
0100
1000
0010
1000
0100
1000
0001
1000
,
0200
2300
3002
0203
,
0301
1000
0010
0100
0001
0000
0001
0100
,
0001
0010
0000
0100
0000
1000
0010
0100
,
0001
0100
0010
0100
0000
0001
0010
0000
,
0100
1000
0010
1000
0001
1000
0001
0000
,
1001
0000
0000
0000
;

//---------------dance-single - ----------------
#NOTES:
     dance-single:
     :
     Medium:
     7:
     0.350,0.339,0.098,0.098,0.000,183.000,8.000,8.000,0.000,0.000,0.000,0.350,0.339,0.098,0.098,0.000,183.000,8.000,8.000,0.000,0.000,0.000:
0000
0000
0000
0000
,
0000
0000
0000
0000
,
0000
0000
0000
0000
,
0000
0000
0000
0000
,
0001
0000
1000
0000
0010
0000
1000
0010
,
0100
0000
0010
0000
0100
0000
0001
0100
,
0001
0000
0100
0000
0001
0000
0010
0001
,
0010
0000
0100
0000
1000
0000
0100
1000
,
0100
1000
0010
0100
,
0010
0000
0000
0100
0000
0000
0001
0000
,
0010
0000
0000
0100
0000
1000
0000
0010
,
1000
0010
0000
0100
0010
0000
0100
0001
,
0200
0000
0000
0000
0020
0300
0000
0000
,
2030
0000
3200
0000
0320
0000
0030
0001
,
0000
0100
0000
0001
0000
0100
0000
0010
,
0000
0000
0000
0000
0100
0000
0010
0100
,
0010
1000
0010
1000
,
0001
0100
0001
0100
,
0010
0000
0100
0000
0001
1000
0001
1000
,
0001
0000
0000
0000
,
1000
0010
0100
0010
,
2000
0000
0000
0000
3001
1000
0001
0000
,
0100
0010
1000
0001
,
0200
0000
0000
0000
0310
1000
0010
0000
,
1000
0100
0010
0001
,
0020
0000
0000
0000
0031
0100
0001
0000
,
1000
0100
0010
0100
,
1000
0000
0010
0000
0100
0000
0010
0100
,
0010
0100
0001
0010
,
0100
0000
1000
0100
1000
0000
0010
0000
,
0100
0100
0001
0001
,
0100
0000
0100
0000
0010
0000
0100
0010
,
0100
0000
0010
0000
,
1000
0000
0100
0000
1000
0000
0010
1000
,
0010
0100
0010
1000
,
0100
0010
0101
0101
,
0010
1000
0100
0010
,
0100
1000
1100
1100
,
0010
0100
0010
0100
,
0001
0100
0010
0000
,
0110
0000
0110
0000
,
1001
0000
1001
0000
,
0001
0010
0100
0010
,
0100
1000
0010
0100
,
1000
0100
0010
0100
,
0010
0001
0010
0100
,
0001
0010
0100
0010
,
0001
0000
0000
1000
0000
0000
0010
0000
,
0100
0010
1000
0100
,
0010
0000
0001
0010
0001
0000
0100
0000
,
0010
0000
0000
0000
;

//---------------dance-single - ----------------
#NOTES:
     dance-single:
     :
     Easy:
     4:
     0.258,0.245,0.000,0.000,0.000,147.000,0.000,0.000,0.000,0.000,0.000,0.258,0.245,0.000,0.000,0.000,147.000,0.000,0.000,0.000,0.000,0.000:
0000
0000
0000
0000
,
0000
0000
0000
0000
,
0000
0000
0000
0000
,
0000
0000
0000
0000
,
0010
0000
0010
0000
,
0100
0000
0100
0000
,
0001
0000
1000
0000
,
0001
0000
0100
0010
,
1000
0000
0100
0000
,
0010
0000
0100
0000
,
1000
0000
1000
0000
,
0001
0000
0001
0100
,
0001
0000
0100
0000
,
0010
0100
0010
0000
,
1000
0100
1000
0000
,
0001
0100
0001
0000
,
0010
0100
0010
0100
,
1000
0100
1000
0001
,
1000
0001
0010
0001
,
0010
0000
0100
0000
,
1000
0010
0100
0010
,
1000
0100
0010
0100
,
1000
0010
0100
0001
,
0010
0001
0100
0010
,
0100
0010
1000
0100
,
0010
0100
1000
0010
,
0100
0000
0100
0000
,
0001
0000
0100
0001
,
0010
0000
0010
0000
,
0010
0100
1000
0010
,
0100
0000
0010
0000
,
0100
0000
0010
1000
,
0100
0000
0010
0000
,
0100
1000
0010
0100
,
0010
0100
0010
1000
,
0010
1000
0100
0010
,
0001
0010
0001
0100
,
0001
0100
0010
1000
,
0100
1000
0100
0010
,
0100
1000
0010
0000
,
0100
0000
0010
0000
,
0100
0000
0001
0010
,
0100
0100
0100
1000
,
1000
1000
0010
0100
,
0010
0010
0010
0001
,
0001
0001
0010
1000
,
0100
0100
0100
0010
,
0001
0000
0100
0000
,
0010
0010
0100
0100
,
0001
0010
0100
1000
;

//---------------dance-single - ----------------
#NOTES:
     dance-single:
     :
     Beginner:
     1:
     0.114,0.152,0.012,0.000,0.000,64.000,1.000,0.000,0.000,0.000,0.000,0.114,0.152,0.012,0.000,0.000,64.000,1.000,0.000,0.000,0.000,0.000: // measure 0
0000
0000
0000
0000
,  // measure 1
0000
0000
0000
0000
,  // measure 2
0000
0000
0000
0000
,  // measure 3
0000
0000
0000
0000
,  // measure 4
0010
0000
0000
0000
,  // measure 5
0100
0000
0000
0000
,  // measure 6
0001
0000
0000
0000
,  // measure 7
1000
0000
0000
0000
,  // measure 8
0010
0000
0000
0000
,  // measure 9
0100
0000
0000
0000
,  // measure 10
0010
0000
0000
0000
,  // measure 11
0100
0000
0000
0000
,  // measure 12
0001
0000
0001
0000
,  // measure 13
0001
0000
0000
0000
,  // measure 14
1000
0000
1000
0000
,  // measure 15
1000
0000
0000
0000
,  // measure 16
0010
0000
0100
0000
,  // measure 17
0001
0000
0001
0000
,  // measure 18
1000
0000
0001
0000
,  // measure 19
1001
0000
0000
0000
,  // measure 20
0010
0000
0010
0000
,  // measure 21
0010
0000
0010
0000
,  // measure 22
0100
0000
0100
0000
,  // measure 23
0100
0000
0100
0000
,  // measure 24
0001
0000
0001
0000
,  // measure 25
0001
0000
0001
0000
,  // measure 26
1000
0000
0000
0000
,  // measure 27
0000
0000
0000
0000
,  // measure 28
0010
0000
0000
0000
,  // measure 29
0000
0000
0000
0000
,  // measure 30
0100
0000
0000
0000
,  // measure 31
0000
0000
0000
0000
,  // measure 32
0001
0000
0000
0000
,  // measure 33
1000
0000
0000
0000
,  // measure 34
0010
0000
0010
0000
,  // measure 35
0100
0100
0100
0000
,  // measure 36
0001
0000
0001
0000
,  // measure 37
1000
1000
1000
0000
,  // measure 38
0100
0000
0100
0000
,  // measure 39
0010
0010
0010
0000
,  // measure 40
0001
0000
0000
0000
,  // measure 41
0100
0000
0000
0000
,  // measure 42
0010
0000
0000
0000
,  // measure 43
0100
0000
0000
0000
,  // measure 44
0010
0000
0000
0000
,  // measure 45
1000
0000
0000
0000
,  // measure 46
0100
0000
0000
0000
,  // measure 47
0010
0000
0000
0000
,  // measure 48
0001
0000
0000
0000
,  // measure 49
0100
0000
0010
0000
;
