#VERSION:0.81;
#TITLE:Die Young;
#SUBTITLE:;
#ARTIST:Ke$ha;
#TITLETRANSLIT:;
#SUBTITLETRANSLIT:;
#ARTISTTRANSLIT:;
#GENRE:;
#ORIGIN:;
#CREDIT:;
#BANNER:die-banner.png;
#BACKGROUND:;
#PREVIEWVID:;
#JACKET:die-jacket.png;
#CDIMAGE:;
#DISCIMAGE:;
#LYRICSPATH:;
#CDTITLE:;
#MUSIC:Die Young.ogg;
#OFFSET:-0.481;
#SAMPLESTART:104.656;
#SAMPLELENGTH:19.452;
#SELECTABLE:YES;
#BPMS:0.000=128.006;
#STOPS:;
#DELAYS:;
#WARPS:;
#TIMESIGNATURES:0.000=4=4;
#TICKCOUNTS:0.000=4;
#COMBOS:0.000=1;
#SPEEDS:0.000=1.000=0.000=0;
#SCROLLS:0.000=1.000;
#FAKES:;
#LABELS:0.000=Song Start;
#BGCHANGES:11.750=Die Young.avi=1.000=0=0=1===CrossFade_Faster==,
99999=-nosongbg-=1.000=0=0=0 // don't automatically add -songbackground-
;
#KEYSOUNDS:;
#ATTACKS:
;

//---------------dance-single - ----------------
#NOTEDATA:;
#CHARTNAME:;
#STEPSTYPE:dance-single;
#DESCRIPTION:;
#CHARTSTYLE:;
#DIFFICULTY:Hard;
#METER:11;
#RADARVALUES:0.539,0.526,0.109,0.226,0.102,471.000,15.000,31.000,0.000,0.000,0.000,0.000,0.000,0.539,0.526,0.109,0.226,0.102,471.000,15.000,31.000,0.000,0.000,0.000,0.000,0.000;
#CREDIT:;
#NOTES:
// measure 0
0000
0000
0000
0000
,  // measure 1
0000
0000
0000
0000
,  // measure 2
0000
0000
0000
0000
,  // measure 3
0000
0000
0000
0000
0000
1000
0010
0100
,  // measure 4
0010
1000
0100
0000
0010
0001
0100
0000
,  // measure 5
0001
0010
0100
1000
0000
0010
0100
0000
,  // measure 6
0010
0100
0001
0010
0001
0100
0001
0010
,  // measure 7
0200
2300
3020
0230
,  // measure 8
0302
0000
0203
0000
0301
0010
0100
0000
,  // measure 9
1000
0000
0010
0000
0100
0000
0010
0000
0000
0100
0001
0000
0100
0000
0000
0000
,  // measure 10
0001
0010
0100
0001
0100
0000
1000
0010
,  // measure 11
0100
0000
0010
0100
0001
1000
0001
0000
,  // measure 12
1001
0000
1100
0000
1000
0010
0100
0000
,  // measure 13
0010
1000
0100
0010
0100
1000
0010
0000
,  // measure 14
0101
0000
0011
0000
0010
0001
0100
0000
,  // measure 15
0001
0010
0100
0001
0100
1000
0010
0000
,  // measure 16
1000
0000
0001
1000
0001
0000
1000
0000
0001
0000
0100
0001
0100
0000
0001
0000
,  // measure 17
0010
0000
0100
0010
0100
0000
0010
0000
0100
0000
1000
0100
1000
0000
0100
0000
,  // measure 18
1000
0010
0100
0001
0010
0000
0001
0100
,  // measure 19
0010
0000
0100
0001
0010
0100
1000
0000
,  // measure 20
1010
0000
1000
0100
0020
0000
0032
0000
,  // measure 21
0103
0001
0010
0100
0000
0010
0100
1000
,  // measure 22
0010
0100
0010
0100
0001
0010
0001
0000
,  // measure 23
0100
0001
0010
0100
0000
1000
0010
0000
,  // measure 24
2000
0000
3010
0100
0002
0000
0023
0000
,  // measure 25
0031
0100
0001
0010
0000
0100
1000
0000
,  // measure 26
0010
1000
0010
0100
0002
0000
0013
0001
,  // measure 27
0200
0000
0310
0100
0001
0010
0110
0000
,  // measure 28
0011
0000
0101
0000
0100
0010
0100
0000
,  // measure 29
0010
1000
0100
0010
0100
1000
0010
0000
,  // measure 30
0200
0000
0320
0000
1030
0100
0010
0000
,  // measure 31
0100
1000
0010
0100
0001
0010
0001
1000
,  // measure 32
0001
0100
0001
0010
0100
0100
0010
0010
,  // measure 33
0100
0000
0000
0100
1000
0000
0010
0000
0000
0000
0010
0000
1000
0000
0100
0000
,  // measure 34
0010
0100
1000
0010
0100
0100
0001
0001
,  // measure 35
1000
0000
0000
1000
0100
0000
0010
0000
0000
0000
0100
0000
0010
0100
0010
0100
,  // measure 36
0010
0000
0001
0100
0001
0000
0100
0010
0100
0000
0010
1000
0010
0000
0000
0000
,  // measure 37
1000
0100
0010
0100
1000
0000
1010
0000
,  // measure 38
0010
0000
0100
0010
0100
0000
0001
0100
0001
0000
0100
0010
0100
0000
0000
0000
,  // measure 39
0010
1000
0100
0010
0000
0100
1000
0000
,  // measure 40
0100
0000
1000
0100
1000
0000
0010
1000
0010
0000
0100
0010
0100
0000
0000
0000
,  // measure 41
0001
0100
0001
0010
0000
0110
0110
0000
,  // measure 42
0100
1000
0010
0100
0010
0000
0100
0000
,  // measure 43
0001
0010
0000
0100
1000
0010
0000
0100
,  // measure 44
0010
0100
0001
0000
0100
0001
0010
0000
,  // measure 45
0100
0001
0100
1000
0000
0010
0100
0010
,  // measure 46
1000
0010
0100
0000
0010
1000
0001
0000
,  // measure 47
0100
0001
0010
0100
0000
1000
0010
0100
,  // measure 48
0001
0010
0001
0100
0001
0010
0001
1000
,  // measure 49
0001
0100
0001
0010
0001
0100
0001
1000
,  // measure 50
0100
0010
0100
1000
0100
0001
0100
0010
,  // measure 51
0100
0001
0100
1000
0100
0010
0100
1000
,  // measure 52
0010
0000
0100
0010
0100
0000
0001
0000
0010
0000
0001
0010
0001
0000
0010
0000
,  // measure 53
0100
0000
0001
0100
0001
0000
0100
0000
1000
0000
0010
1000
0010
0000
0100
0000
,  // measure 54
0010
0000
1000
0010
1000
0000
0010
0000
0100
0000
0001
0100
0001
0000
0100
0000
,  // measure 55
0001
0000
1000
0001
1000
0000
0001
0000
1000
0000
0100
0000
1100
0000
1000
0000
,  // measure 56
1001
0001
0100
0000
0001
0010
0100
0000
,  // measure 57
1000
0010
0100
0010
0000
1000
0010
0000
,  // measure 58
0100
0010
1000
0100
0010
0100
1000
0010
,  // measure 59
0200
0302
0023
0230
,  // measure 60
1300
0000
0010
0000
0100
0010
1000
0100
,  // measure 61
0010
0000
0001
0000
0100
0000
0001
0000
0000
0010
0001
0000
0100
0000
0000
0000
,  // measure 62
0001
0100
0010
1000
0100
0000
0010
0100
,  // measure 63
1000
0000
0000
0000
0010
0000
0100
0000
0001
0000
0010
0000
0001
1000
0001
1000
,  // measure 64
0002
2003
3020
0230
,  // measure 65
0310
1000
0100
0010
0100
1000
0010
0000
,  // measure 66
0200
0302
0023
0230
,  // measure 67
1300
0100
0010
0100
1000
0010
0100
0000
,  // measure 68
0002
0203
0302
0023
,  // measure 69
0130
1000
0010
0100
0000
0010
1000
0000
,  // measure 70
0010
0100
0010
1000
0100
0000
0010
0001
,  // measure 71
0100
0000
0010
1000
0001
1000
1001
0000
,  // measure 72
1001
0000
0000
0000
;

//---------------dance-single - ----------------
#NOTEDATA:;
#CHARTNAME:;
#STEPSTYPE:dance-single;
#DESCRIPTION:;
#CHARTSTYLE:;
#DIFFICULTY:Medium;
#METER:8;
#RADARVALUES:0.356,0.420,0.255,0.073,0.000,296.000,35.000,10.000,0.000,0.000,0.000,0.000,0.000,0.356,0.420,0.255,0.073,0.000,296.000,35.000,10.000,0.000,0.000,0.000,0.000,0.000;
#CREDIT:;
#NOTES:
0000
0000
0000
0000
,
0000
0000
0000
0000
,
0000
0000
0000
0000
,
0000
0000
0000
0000
,
1000
0000
0010
0000
0100
0010
0100
0000
,
0001
0000
0000
0010
0000
0000
0100
0000
,
1000
0000
0010
0000
0100
0000
0001
0100
,
0001
0010
0100
1000
,
0001
0000
1000
0000
1000
0001
1000
0000
,
0010
0000
0100
0010
0000
0100
0001
0000
,
0010
0000
0001
0000
0100
0000
0010
0100
,
0010
1000
0100
0110
,
0110
0100
1000
0010
,
0100
0001
0010
0001
,
0100
0100
0010
0010
,
1000
0001
0010
0100
,
1000
0001
1000
0000
0010
0100
0010
0000
,
0100
0001
0100
0000
0001
0010
0001
0000
,
0100
0000
0010
0000
1000
0000
0100
1000
,
0100
0010
0001
0100
,
0010
0000
1000
0100
1000
0000
0010
0000
,
0100
0000
0000
0010
0000
0000
1000
0000
,
0100
0000
0000
0001
0100
0000
0010
0000
,
0001
0000
0100
1000
0000
0100
0010
0000
,
2000
3000
0001
0100
,
0002
0000
0000
0023
0000
0000
0230
0000
,
2300
0000
3010
0000
0100
0000
0010
0100
,
0010
0000
0100
0001
0100
0000
0010
0000
,
2000
0000
3001
0000
0100
0001
0010
0000
,
0100
0001
0100
1000
,
0020
0130
0100
0001
,
0100
0010
0100
0000
0010
1000
0010
0000
,
1000
0100
0010
0001
,
0100
0000
0000
0010
0000
0000
0100
0000
,
0001
0010
0100
1000
,
0001
0000
0000
0100
0000
0000
0001
0000
,
1000
0010
1000
0100
,
1000
0100
1000
0100
0000
0000
1000
0000
,
0010
0100
0001
0100
,
0010
0100
0010
0100
0000
0000
0001
0000
,
1000
0000
0010
0000
1000
0001
1000
0000
,
0100
0000
1000
0010
0000
0000
0100
0000
,
0010
0100
0001
0100
,
0001
0100
0000
0010
0100
0010
0000
0100
,
0002
1003
2000
3010
,
0010
0000
0100
0010
0000
0000
0100
0000
,
0001
0010
0100
1000
,
0010
0000
1000
0010
0000
0000
0100
0000
,
0011
0110
1100
1010
,
1100
1010
0110
0101
,
0110
0101
0011
0110
,
1100
1010
0110
1010
,
1100
1001
0101
0011
,
0101
0110
1100
1010
,
0110
1010
1100
1010
,
0110
0101
0011
0110
,
0100
0010
0100
0000
1000
0100
1000
0000
,
0010
0100
0001
0100
,
0010
0000
1000
0010
1000
0000
0100
1000
,
0100
1000
0010
0100
,
0002
0000
0000
0000
0103
0001
0100
0000
,
0010
0000
1000
0100
0000
0000
1000
0000
,
0100
0000
1000
0000
0010
0000
0100
0010
,
0100
0001
0010
0100
,
1000
0100
1000
0010
,
0100
0001
0010
0100
,
0001
0100
1000
0010
,
0100
0001
0010
0001
,
0100
0100
0010
0010
,
1000
0000
1000
0001
0000
0000
1000
0000
,
0001
0000
0010
0000
0100
0000
1000
0100
,
1000
0000
0010
0100
0010
0000
0100
0000
,
0110
0000
0000
0000
;

//---------------dance-single - ----------------
#NOTEDATA:;
#CHARTNAME:;
#STEPSTYPE:dance-single;
#DESCRIPTION:;
#CHARTSTYLE:;
#DIFFICULTY:Easy;
#METER:4;
#RADARVALUES:0.224,0.210,0.066,0.000,0.000,206.000,9.000,0.000,0.000,0.000,0.000,0.000,0.000,0.224,0.210,0.066,0.000,0.000,206.000,9.000,0.000,0.000,0.000,0.000,0.000,0.000;
#CREDIT:;
#NOTES:
0000
0000
0000
0000
,
0000
0000
0000
0000
,
0000
0000
0000
0000
,
0000
0000
0000
0000
,
1000
1000
0001
0001
,
1000
0000
0000
0010
,
0100
0100
0001
0001
,
0010
0100
1000
0010
,
0100
0000
0001
0000
,
1000
0001
1000
0000
,
0100
1000
0010
0000
,
0100
0000
0001
0010
,
0001
0100
0010
0000
,
0100
0010
1000
0000
,
0001
1000
0001
0000
,
0010
0001
0010
0000
,
0100
1000
0100
0001
,
0100
0010
0100
1000
,
0100
0001
0100
0010
,
0001
0010
0100
1000
,
0001
0000
1000
0000
,
0010
0010
0010
0000
,
0100
0000
0001
0000
,
0010
0010
0010
0000
,
0100
0000
1000
0000
,
0010
0000
1000
0000
,
0001
1000
0001
0000
,
0100
0000
0010
0100
,
0010
0000
1000
0000
,
0001
1000
0001
0000
,
0010
0000
0100
0000
,
0001
0100
1000
0000
,
0010
0100
0001
0100
,
0010
0000
1000
0000
,
0100
0010
0100
1000
,
0001
0000
1000
0000
,
0010
0100
0001
0100
,
0010
0000
1000
0000
,
0100
0010
0100
1000
,
0001
0000
0100
0000
,
0001
0000
0010
0000
,
0100
0000
1000
0000
,
0010
0100
0001
0000
,
0100
0000
0010
0000
,
0100
0100
0010
0010
,
1000
0000
0001
0000
,
0010
0010
0001
0001
,
1000
0000
0100
0000
,
1000
0010
1000
0010
,
1000
0010
1000
0010
,
0100
0001
0100
0001
,
0100
0001
0100
0001
,
1000
0001
1000
0001
,
1000
0001
1000
0001
,
0010
0100
0010
0100
,
0010
0100
0010
0100
,
0010
0010
0100
0100
,
1000
0000
1000
0000
,
0001
1000
0001
0100
,
0010
0010
0100
0100
,
0010
0000
1000
0000
,
0001
0000
1000
0000
,
0001
0010
0100
0000
,
1000
0000
1001
1001
,
1001
0000
1000
0000
,
0100
0000
0110
0110
,
0110
0000
0001
0000
,
1000
0000
1100
1100
,
1100
0000
0010
0000
,
0100
0010
0100
0000
,
0001
0010
0100
0000
,
1000
0000
0010
0100
,
0010
0000
0000
0000
;

//---------------dance-single - ----------------
#NOTEDATA:;
#CHARTNAME:;
#STEPSTYPE:dance-single;
#DESCRIPTION:;
#CHARTSTYLE:;
#DIFFICULTY:Beginner;
#METER:2;
#RADARVALUES:0.119,0.210,0.000,0.000,0.000,114.000,0.000,0.000,0.000,0.000,0.000,0.000,0.000,0.119,0.210,0.000,0.000,0.000,114.000,0.000,0.000,0.000,0.000,0.000,0.000,0.000;
#CREDIT:;
#NOTES:
0000
0000
0000
0000
,
0000
0000
0000
0000
,
0000
0000
0000
0000
,
0000
0000
0000
0000
,
1000
0000
0000
0000
,
0000
0000
0000
0000
,
0001
0000
0000
0000
,
0000
0000
0000
0000
,
0100
0000
0000
0000
,
0000
0000
0000
0000
,
0010
0000
0000
0000
,
0000
0000
0000
0000
,
1000
0000
1000
0000
,
1000
0000
1000
0000
,
0001
0000
0001
0000
,
0001
0000
0001
0000
,
0100
0000
0100
0000
,
0100
0000
0100
0000
,
0010
0000
0010
0000
,
0100
0000
0100
0000
,
0001
0000
0000
0000
,
1000
0000
0000
0000
,
0001
0000
0000
0000
,
0010
0000
0000
0000
,
0100
0000
0000
0000
,
1000
0000
0000
0000
,
0001
0000
1000
0000
,
0001
0000
1000
0000
,
0001
0000
0000
0000
,
0100
0000
0000
0000
,
0010
0000
0000
0000
,
1000
0000
0000
0000
,
0001
0000
0001
0000
,
0001
0000
0000
0000
,
1000
0000
1000
0000
,
1000
0000
0000
0000
,
0010
0000
0010
0000
,
0010
0000
0010
0000
,
0100
0000
0100
0000
,
0100
0000
0100
0000
,
0001
0000
0001
0000
,
0001
0000
0001
0000
,
1000
0000
1000
0000
,
1000
0000
1000
0000
,
1000
0000
0000
0000
,
0010
0000
0000
0000
,
0100
0000
0000
0000
,
0001
0000
0000
0000
,
1000
1000
1000
1000
,
1000
1000
1000
1000
,
1000
1000
1000
1000
,
1000
1000
1000
1000
,
1000
1000
1000
1000
,
1000
1000
1000
1000
,
1000
1000
1000
1000
,
1000
1000
1000
1000
,
1000
0000
0000
0000
,
0001
0000
0000
0000
,
0100
0000
0000
0000
,
0010
0000
0000
0000
,
0100
0000
0000
0000
,
0001
0000
0000
0000
,
0010
0000
0000
0000
,
0100
0000
0000
0000
,
1000
0000
1000
0000
,
1000
0000
0000
0000
,
0010
0000
0010
0000
,
0010
0000
0000
0000
,
0100
0000
0100
0000
,
0100
0000
0000
0000
,
0001
0000
1000
0000
,
0001
0000
1000
0000
,
0001
0000
0000
0000
;
