#TITLE:Chasing The Sun;
#SUBTITLE:;
#ARTIST:The Wanted;
#TITLETRANSLIT:;
#SUBTITLETRANSLIT:;
#ARTISTTRANSLIT:;
#GENRE:;
#CREDIT:;
#BANNER:chasing-banner.png;
#BACKGROUND:bg.png;
#LYRICSPATH:;
#CDTITLE:cdtitle.png;
#MUSIC:Chasing The Sun.mp3;
#OFFSET:-0.555;
#SAMPLESTART:45.712;
#SAMPLELENGTH:16.703;
#SELECTABLE:YES;
#BPMS:0.000=127.978
;
#STOPS:
;
#BGCHANGES:15.500=ChasingTheSun.avi=1.000=0=0=1===CrossFade_Faster==,
99999=-nosongbg-=1.000=0=0=0 // don't automatically add -songbackground-
;
#KEYSOUNDS:;
#ATTACKS:;

//---------------dance-single - ----------------
#NOTES:
     dance-single:
     :
     Hard:
     9:
     0.518,0.539,0.642,0.011,0.171,278.000,60.000,1.000,0.000,0.000,0.000,0.518,0.539,0.642,0.011,0.171,278.000,60.000,1.000,0.000,0.000,0.000:
0000
0000
0000
0000
,
0000
0000
0000
0000
,
0000
0000
0000
0000
,
0000
0000
0000
0000
,
0000
0000
0001
0000
0100
0000
0010
0000
0100
0000
0000
1010
0000
0000
1100
0000
,
0000
0000
0010
0000
0100
0000
0001
0000
0010
0000
0000
0110
0000
0000
1001
0000
,
0000
0000
0010
0000
0100
0000
0001
0000
0010
0000
0000
0110
0000
0000
1100
0000
,
0000
0000
0010
0000
0100
0000
0010
0000
0110
0000
0000
1001
0000
0000
0011
0000
,
1000
0000
0001
0100
0010
0000
0100
0000
,
0010
0000
1000
0100
1000
0100
1000
0000
,
0010
0100
0010
0100
0010
0000
0100
0001
,
0100
0000
0000
0000
0001
0000
0010
0000
0001
0000
0000
0010
0000
0000
0100
0000
,
1000
0000
0001
0100
0001
0000
0100
0010
,
0000
0100
0010
1000
0100
0010
0001
0000
,
0010
0100
0001
0100
1000
0000
1000
0010
,
0100
0000
0100
0010
1000
0100
0010
0000
,
0001
0000
0010
0000
0100
0000
1000
0000
1100
0000
0000
0011
0000
0000
1001
0000
,
0000
0000
0000
0000
1000
0000
0010
0000
1000
0000
0000
0110
0000
0000
0110
0000
,
0000
0000
0001
0000
0100
0000
0001
0000
0011
0000
0000
0110
0000
0000
1100
0000
,
0000
0000
0010
0000
0100
0000
0010
0000
0110
0000
0000
0101
0000
0000
1010
0000
,
1010
0000
0010
0000
0100
0000
0001
0000
0011
0000
0000
0011
0000
0000
0101
0000
,
0110
0000
0000
0000
0010
0000
1000
0000
1100
0000
0000
1100
0000
0000
1010
0000
,
0000
0000
0010
0000
0100
0000
0001
0000
0101
0000
0000
0011
0000
0000
0110
0000
,
0000
0000
0100
0000
1000
0000
0010
0000
0110
0000
0000
0110
0000
0000
0110
0000
,
0010
0000
1000
0000
0001
0000
0010
0000
0100
0000
0000
0100
0000
0000
0100
0000
,
0000
0000
1000
0000
0010
0000
0100
0000
0010
0000
0000
0010
0000
0000
0010
0000
,
0000
0000
0100
0000
0001
0000
0010
0000
0100
0000
0000
0100
0000
0000
0100
0000
,
1000
0000
0000
0000
0010
0000
0100
0000
0011
0000
0000
0101
0000
0000
0011
0000
,
0110
0000
0100
0000
1000
0000
0010
0000
0110
0000
0000
0110
0000
0000
0110
0000
,
0000
0000
0001
0000
0100
0000
0001
0000
0100
0000
0000
0101
0000
0000
0101
0000
,
0000
0000
0010
0000
0100
0000
0010
0000
0100
0000
0000
0110
0000
0000
0110
0000
,
0000
0000
0010
0000
1000
0000
0010
0000
0100
0000
0000
0001
0010
0000
0001
0000
,
1000
0000
0000
0000
0010
0000
0000
0000
0100
0000
0000
0001
0000
0000
0100
0000
,
0000
0000
0001
0000
0010
0000
0001
0000
0010
0000
0000
0100
0000
0000
1000
0000
,
0000
0000
0010
0000
0100
0000
0010
0000
0100
0000
0000
0010
0000
0000
0100
0000
,
0000
0000
0010
0000
1000
0000
0100
0000
1000
0000
0000
0010
0000
0000
0100
0000
,
0002
0000
1000
1000
1000
0000
1000
0003
,
0000
0010
0100
0010
1000
0100
1000
0010
,
0100
0000
0010
0000
0100
0000
0001
0000
0010
0000
0000
0001
0000
0000
0100
0000
,
0000
0000
0010
0000
0100
0000
0010
0000
1000
0000
0000
0100
0000
0000
0010
0000
,
0001
0100
0001
0010
0001
0100
0001
0010
,
0001
0100
1000
0100
0001
0100
1000
0100
,
0010
1000
0100
0001
0100
1000
0010
0001
,
0010
0000
1000
0000
0100
0000
0010
0000
0011
0000
0000
0110
0000
0000
1100
0000
,
0011
0000
0001
0000
0100
0000
0001
0000
0101
0000
0000
0110
0000
0000
1010
0000
,
0000
0000
1000
0000
0100
0000
1000
0000
0100
0000
0000
1010
0000
0000
0110
0000
,
0000
0000
0010
0000
0100
0000
0010
0000
0100
0000
0000
0110
0000
0000
1001
0000
,
0000
0000
0001
0000
0010
0000
0001
0000
0101
0000
0000
0011
0000
0000
0110
0000
,
1100
0000
0000
0000
;

//---------------dance-single - ----------------
#NOTES:
     dance-single:
     :
     Medium:
     7:
     0.338,0.385,0.182,0.043,0.086,200.000,17.000,4.000,0.000,0.000,0.000,0.338,0.385,0.182,0.043,0.086,200.000,17.000,4.000,0.000,0.000,0.000:
0000
0000
0000
0000
,
0000
0000
0000
0000
,
0000
0000
0000
0000
,
0000
0000
0000
0000
,
0001
0000
0000
0000
1000
0000
0000
0000
0010
0000
0000
0010
0000
0000
0010
0000
,
0000
0000
0000
0000
0100
0000
0000
0000
0001
0000
0000
0001
0000
0000
0001
0000
,
0000
0000
0000
0000
0010
0000
0000
0000
0100
0000
0000
0100
0000
0000
0100
0000
,
0000
1000
0001
1000
,
0010
0100
0010
0100
,
0001
0000
0010
0001
0010
0000
0100
0000
,
1000
0000
0010
1000
0010
0000
0100
0000
,
0010
0000
0100
0001
0100
0000
0001
0000
,
0100
0000
0001
0010
0100
0000
0100
0000
,
0100
0000
1000
0100
1000
0000
0010
0000
,
0100
0010
0100
0100
,
0010
0010
0100
0001
,
0011
1100
0110
0010
,
0010
0110
0101
0010
,
0010
0110
1100
0010
,
0010
0000
0000
0000
0110
0000
0000
0000
1000
0000
0000
0001
0000
0000
1000
0000
,
0002
1000
1000
1000
,
2003
0010
0010
0010
,
3020
0100
0100
0100
,
0130
0000
0001
0000
0100
0000
0001
0000
0100
0000
0000
0010
0000
0000
0100
0000
,
0010
0100
0001
0100
,
0001
0010
0001
0010
0001
0000
0001
0000
,
0100
0001
0100
0001
0100
0000
0100
0000
,
0100
0000
0000
0000
0010
0000
0000
0000
0100
0000
0000
0100
0000
0000
0100
0000
,
0100
0000
0000
0000
0010
0000
0000
0000
0100
0000
0000
0001
0000
0000
0010
0000
,
0000
0000
0000
0000
0010
0000
0000
0000
0100
0000
0000
1000
0000
0000
0100
0000
,
0000
0000
0000
0000
1000
0000
0000
0000
0010
0000
0000
0100
0000
0000
0010
0000
,
0000
0000
0100
0000
0001
0000
0010
0001
,
0020
0100
0100
0100
,
0130
0000
1000
0100
1000
0000
1000
0000
,
0010
0100
0010
0100
,
0001
0000
0100
0000
0001
0000
1000
0001
,
1000
0000
0001
0100
0001
0000
0100
0000
,
0010
0000
1000
0000
0100
1000
0100
0000
,
1000
0010
1000
0000
0010
0000
0100
0010
,
0100
0001
0010
0010
,
0010
0000
0000
0000
0001
0000
0000
0000
0100
0000
0000
0100
0000
0000
0100
0000
,
0000
0000
0000
0000
0010
0000
0000
0000
1000
0000
0000
1000
0000
0000
1000
0000
,
0000
0000
0000
0000
0100
0000
0000
0000
0010
0000
0000
0010
0000
0000
0010
0000
,
0000
0001
0100
0010
,
1000
0000
0000
0000
0001
0000
0000
0000
0101
0000
0000
0101
0000
0000
0101
0000
,
0000
0000
0000
0000
0010
0000
0000
0000
0110
0000
0000
0110
0000
0000
0110
0000
,
0000
0000
0000
0000
1000
0000
0000
0000
1100
0000
0000
1100
0000
0000
1100
0000
,
0000
0000
0000
0000
0010
0000
0100
0000
0010
0000
0000
0100
0000
0000
0010
0000
,
0100
0000
0000
0000
;

//---------------dance-single - ----------------
#NOTES:
     dance-single:
     :
     Easy:
     4:
     0.229,0.257,0.064,0.000,0.000,144.000,6.000,0.000,0.000,0.000,0.000,0.229,0.257,0.064,0.000,0.000,144.000,6.000,0.000,0.000,0.000,0.000:
0000
0000
0000
0000
,
0000
0000
0000
0000
,
0000
0000
0000
0000
,
0000
0000
0000
0000
,
1000
0000
1000
0000
,
0001
0000
0001
0000
,
0010
0000
0010
0000
,
0100
0000
0100
0000
,
0100
0100
0100
0100
,
1000
1000
1000
1000
,
0010
0010
0110
0100
,
0110
0010
0010
0010
,
1000
0000
0001
0100
,
0000
0001
0010
0001
,
0000
0100
0010
0010
,
1000
1000
0100
0010
,
0010
0001
0100
0001
,
0100
0010
1000
1000
,
1000
0100
0010
0010
,
0010
0001
0101
0101
,
0101
0010
1000
1000
,
1000
0100
0010
0010
,
0010
0100
1000
1000
,
1000
0010
0100
0010
,
1010
0010
0100
0000
,
0001
0010
0100
0000
,
1000
0010
1000
0000
,
0010
0100
0010
0010
,
0100
0001
0010
0000
,
0100
1000
0010
0000
,
0100
0010
1000
0000
,
0100
0010
0100
0010
,
0001
0001
0001
0001
,
1000
1000
1000
1000
,
0010
0010
0010
0010
,
0100
0100
0100
0000
,
0010
1000
0100
0100
,
1000
0010
0100
0100
,
0001
0010
0100
0100
,
1000
0010
0100
0000
,
0100
0000
0001
0000
,
0100
0000
0001
0000
,
0010
0000
0100
0000
,
1000
0000
0010
1000
,
0010
0000
0100
0000
,
0001
0000
0100
0000
,
0001
0000
0010
0000
,
0100
0000
1000
0100
,
1000
0000
0000
0000
;

//---------------dance-single - ----------------
#NOTES:
     dance-single:
     :
     Beginner:
     1:
     0.112,0.154,0.000,0.000,0.000,73.000,0.000,0.000,0.000,0.000,0.000,0.112,0.154,0.000,0.000,0.000,73.000,0.000,0.000,0.000,0.000,0.000: // measure 0
0000
0000
0000
0000
,  // measure 1
0000
0000
0000
0000
,  // measure 2
0000
0000
0000
0000
,  // measure 3
0000
0000
0000
0000
,  // measure 4
0100
0000
0000
0000
,  // measure 5
0010
0000
0000
0000
,  // measure 6
1000
0000
0000
0000
,  // measure 7
0010
0000
0000
0000
,  // measure 8
0100
0000
0000
0000
,  // measure 9
0010
0000
0000
0000
,  // measure 10
0100
0000
0010
0000
,  // measure 11
0100
0000
0010
0000
,  // measure 12
0100
0000
0000
0000
,  // measure 13
0001
0000
0000
0000
,  // measure 14
1000
0000
0000
0000
,  // measure 15
0001
0000
0001
0000
,  // measure 16
0001
0000
0000
0000
,  // measure 17
1000
0000
0000
0000
,  // measure 18
0010
0000
0000
0000
,  // measure 19
0100
0000
0100
0000
,  // measure 20
0100
0000
0000
0000
,  // measure 21
0001
0000
0000
0000
,  // measure 22
1000
0000
0000
0000
,  // measure 23
0001
0000
0000
0000
,  // measure 24
1000
0000
1000
0000
,  // measure 25
0001
0000
0001
0000
,  // measure 26
0010
0000
0010
0000
,  // measure 27
0100
0000
0100
0000
,  // measure 28
1000
0000
1000
0000
,  // measure 29
0010
0000
0010
0000
,  // measure 30
0100
0000
0100
0000
,  // measure 31
0001
0000
0001
0000
,  // measure 32
1000
1000
1000
0000
,  // measure 33
0010
0010
0010
0000
,  // measure 34
0100
0100
0100
0000
,  // measure 35
0001
0001
0001
0000
,  // measure 36
1000
0000
0010
0000
,  // measure 37
0100
0000
0100
0000
,  // measure 38
0010
0000
0100
0000
,  // measure 39
0001
0000
1000
0000
,  // measure 40
0001
0000
0000
0000
,  // measure 41
1000
0000
0000
0000
,  // measure 42
0010
0000
0000
0000
,  // measure 43
0100
0000
0000
0000
,  // measure 44
0001
0000
0001
0000
,  // measure 45
1000
0000
1000
0000
,  // measure 46
0010
0000
0010
0000
,  // measure 47
0100
0000
0100
0000
,  // measure 48
0100
0000
0000
0000
;
