#VERSION:0.81;
#TITLE:Bom Bom;
#SUBTITLE:;
#ARTIST:Sam and The Womp;
#TITLETRANSLIT:;
#SUBTITLETRANSLIT:;
#ARTISTTRANSLIT:;
#GENRE:;
#ORIGIN:;
#CREDIT:;
#BANNER:bom-banner.png;
#BACKGROUND:ddrpopbg.png;
#PREVIEWVID:;
#JACKET:bom-jacket.png;
#CDIMAGE:;
#DISCIMAGE:;
#LYRICSPATH:;
#CDTITLE:cdtitle.png;
#MUSIC:Bom Bom.ogg;
#OFFSET:-0.120;
#SAMPLESTART:42.590;
#SAMPLELENGTH:17.036;
#SELECTABLE:YES;
#BPMS:0.000=125.030;
#STOPS:;
#DELAYS:;
#WARPS:;
#TIMESIGNATURES:0.000=4=4;
#TICKCOUNTS:0.000=4;
#COMBOS:0.000=1;
#SPEEDS:0.000=1.000=0.000=0;
#SCROLLS:0.000=1.000;
#FAKES:;
#LABELS:0.000=Song Start;
#BGCHANGES:7.500=BomBom.avi=1.000=0=0=1===CrossFade_Faster==,
99999=-nosongbg-=1.000=0=0=0 // don't automatically add -songbackground-
;
#KEYSOUNDS:;
#ATTACKS:
;

//---------------dance-single - ----------------
#NOTEDATA:;
#CHARTNAME:;
#STEPSTYPE:dance-single;
#DESCRIPTION:;
#CHARTSTYLE:;
#DIFFICULTY:Hard;
#METER:14;
#RADARVALUES:0.615,0.638,0.188,0.107,0.544,597.000,28.000,16.000,0.000,0.000,0.000,0.000,0.000,0.615,0.638,0.188,0.107,0.544,597.000,28.000,16.000,0.000,0.000,0.000,0.000,0.000;
#CREDIT:;
#NOTES:
// measure 0
0000
0000
0000
0000
,  // measure 1
0000
0000
0000
0000
,  // measure 2
2000
3020
0230
0302
,  // measure 3
0023
0230
0320
0032
,  // measure 4
0203
0320
2030
3200
,  // measure 5
0320
0230
2300
3020
,  // measure 6
1030
0000
0001
1000
0000
0001
0000
0010
0001
0000
0010
0000
0100
0000
1000
0000
,  // measure 7
0010
0000
0100
0010
0000
0100
0000
0000
0110
0000
1010
0000
1100
0000
0000
0000
,  // measure 8
0100
0010
0100
1000
0001
0010
0100
0010
,  // measure 9
0100
0000
1000
0000
0010
0000
0100
0000
0001
0100
0001
0100
0001
0000
1000
0000
,  // measure 10
0001
0000
0000
1000
0000
0000
0010
0000
0000
0000
0100
0000
0000
0000
0010
0000
,  // measure 11
0100
0000
0000
0001
0000
0000
0010
0000
0000
0000
0100
0000
0000
0000
0010
0000
,  // measure 12
0100
0000
0000
1000
0000
0000
0010
0000
0000
0000
0100
0000
0000
0000
0010
0000
,  // measure 13
1000
0000
0000
0100
0000
0000
0010
0000
0001
1000
0001
1000
0001
0000
1000
0000
,  // measure 14
0010
0000
0100
0010
0000
1000
0000
0100
1000
0100
1000
0000
0100
0000
0010
0000
,  // measure 15
0100
0010
0000
0001
0000
0101
0000
0110
0000
1010
0000
0010
0100
0000
0010
0000
,  // measure 16
1000
0000
0000
0100
0000
0000
0010
0000
0000
0100
0000
0000
1000
0000
0010
0000
0100
0000
0010
0000
1000
0000
0000
0000
,  // measure 17
0100
0010
0100
1000
0010
1000
0100
0010
0001
1000
0001
0000
,  // measure 18
1000
0010
0100
0010
1000
0100
0010
0100
,  // measure 19
1000
0010
0100
0001
0010
0001
0010
0001
,  // measure 20
0100
0010
1000
0010
0100
0010
1000
0001
,  // measure 21
0010
0000
0100
0000
1000
0000
0001
0000
1001
0000
0000
1010
0000
0000
0110
0000
,  // measure 22
0010
1000
0010
1000
0010
0000
1000
0000
0001
0010
0000
0001
0000
0100
0001
0000
,  // measure 23
0100
0010
0100
0010
0100
0000
0010
0000
1000
0010
0000
1000
0000
0100
0010
0000
,  // measure 24
0100
1000
0100
1000
0100
0000
1000
0000
0010
0100
0000
0010
0000
0100
0001
0000
,  // measure 25
0100
0001
0100
0001
0000
0100
0000
0000
0010
0000
0100
0000
0010
0000
0000
0000
,  // measure 26
0100
0000
0001
0000
0100
0001
0100
0000
0010
1000
0010
1000
0010
1000
0010
1000
,  // measure 27
0010
0000
1000
0000
0100
1000
0100
1000
0000
0001
0000
1000
0001
1000
0001
1000
,  // measure 28
0001
0000
0100
0000
0010
0100
0010
0000
0100
0000
0010
0000
1000
0000
0100
0000
,  // measure 29
0010
0100
0010
0000
0001
0000
0000
0000
0100
0000
0001
0000
0100
0000
0010
0000
,  // measure 30
0100
0000
0001
0000
0010
0001
0010
0000
0100
0010
0100
0010
0100
0010
0100
0010
,  // measure 31
0100
0000
1000
0000
0010
0100
0010
1000
0000
0010
0000
1000
0010
0100
0010
1000
,  // measure 32
0001
0000
0100
0000
0010
0100
0010
0000
1000
0000
0100
0000
1000
0100
0010
0000
,  // measure 33
0100
0010
0001
0000
0010
0000
0001
0000
1000
0000
0000
0000
0001
0000
0000
0000
,  // measure 34
1000
0010
1000
0100
1000
0001
1000
0001
,  // measure 35
1000
0000
0010
0000
0100
0000
0010
0000
0110
0000
0000
0110
0000
0000
0110
0000
,  // measure 36
0010
0100
0000
0010
0000
0000
1000
0000
0010
1000
0000
0000
0100
0000
0010
0000
,  // measure 37
0001
0010
0000
0001
0000
0000
0100
0000
0001
0100
0000
0000
0010
0000
0100
0000
,  // measure 38
0001
1000
0000
0001
0000
0000
0100
0000
0010
0100
0000
0000
0010
0000
1000
0000
,  // measure 39
0100
1000
0000
0100
0000
0000
0010
0000
0100
0000
0010
0000
0001
0000
0100
0000
,  // measure 40
0010
1000
0000
0010
0000
0000
1000
0000
0100
0010
0000
0000
0100
1000
0100
1000
,  // measure 41
0100
1000
0000
0100
0000
0000
1000
0000
0010
1000
0000
0000
0010
0100
0010
0100
,  // measure 42
0010
0100
0000
0010
0000
0000
0100
0000
0001
0100
0000
0000
0001
0000
0010
0000
,  // measure 43
0001
1000
0000
0000
1000
0010
0000
0000
0010
0100
0000
0000
0101
0000
0000
0000
,  // measure 44
0100
0000
0000
0010
0000
0000
1000
0000
0000
0000
0100
1000
0100
1000
0000
0000
,  // measure 45
0100
0000
0000
0010
0000
0000
0001
0000
0000
0000
0100
0001
0100
0001
0000
0000
,  // measure 46
0100
0000
0000
0010
0000
0000
0100
0000
0000
0000
0010
0100
0010
0100
0000
0000
,  // measure 47
0010
0000
0000
1000
0000
0000
0001
0000
0000
0000
1000
0001
1000
0001
0000
0000
,  // measure 48
1000
0000
0010
1000
0000
0010
0000
0100
0010
0000
1000
0000
0001
0000
0100
0000
,  // measure 49
0010
0000
0100
0010
0000
0100
0000
0000
0110
0000
1010
0000
0101
0000
0000
0000
,  // measure 50
0100
0010
0100
0010
1000
0010
1000
0010
,  // measure 51
1000
0100
0010
1000
0010
0001
0100
0010
,  // measure 52
1000
0010
0100
0010
1000
0010
1000
0010
,  // measure 53
0100
0000
0001
0100
0000
0001
0000
0000
0010
0000
0100
0000
0010
0000
0100
0000
,  // measure 54
0001
0100
1000
0010
0100
0010
0100
0010
,  // measure 55
0000
0000
0100
0000
0001
0100
0000
0000
0110
0000
1010
0000
1001
0000
0000
0000
,  // measure 56
1000
0000
0001
0100
0000
0001
0000
1000
0001
0000
1000
0001
0010
0000
0100
0000
,  // measure 57
0010
0100
0000
0110
0000
1100
0000
0011
0000
0010
0000
0100
1000
0000
0010
0000
,  // measure 58
0000
0000
0000
0100
0000
0000
0010
0000
0000
0100
0000
0000
0001
0000
0100
0000
0001
0000
0100
0000
0001
0000
0000
0000
,  // measure 59
1000
0001
1000
0001
1000
0100
1000
0100
1000
0100
0010
0000
,  // measure 60
0001
0100
0010
0000
0100
0010
1000
0000
,  // measure 61
0100
0010
0100
1000
0010
0100
0001
0100
,  // measure 62
0010
0100
0010
0100
0010
1000
0010
1000
,  // measure 63
0001
0000
0010
0000
0001
0000
0100
0000
0010
0000
0000
0110
0000
0000
1010
0000
,  // measure 64
1000
0001
1000
0001
1000
0000
0001
0000
0000
0000
0000
0000
0000
0000
0000
0000
,  // measure 65
0100
0010
0100
0010
0100
0000
0010
0000
0000
0000
0000
0000
0000
0000
0000
0000
,  // measure 66
1000
0010
1000
0010
1000
0000
0010
0000
1000
0001
0000
1000
0000
0001
1000
0000
,  // measure 67
0100
0000
0000
0000
0010
0000
0000
0000
0001
0000
0000
0100
0000
0000
0010
0000
,  // measure 68
1000
0010
0100
0000
0010
1000
0000
0100
,  // measure 69
0010
0000
0100
0000
1000
0000
0010
0000
0100
0010
0100
0000
0010
0000
1000
0000
,  // measure 70
0100
1000
0010
0000
0100
0010
0000
0100
,  // measure 71
0001
0000
0010
0000
0100
0000
0010
0000
0001
0100
0001
0000
1000
0000
0010
0000
,  // measure 72
0100
0001
0100
0000
0001
0010
0000
0100
,  // measure 73
0010
0000
0001
0000
0010
0000
0100
0000
0010
0001
0010
0000
0001
0000
0100
0000
,  // measure 74
0010
0100
0001
0100
0010
1000
0100
1000
,  // measure 75
0010
0000
0100
0000
0001
0000
1000
0000
1001
0000
0000
1001
0000
0000
1001
0000
,  // measure 76
1001
0000
0000
0000
;

//---------------dance-single - ----------------
#NOTEDATA:;
#CHARTNAME:;
#STEPSTYPE:dance-single;
#DESCRIPTION:;
#CHARTSTYLE:;
#DIFFICULTY:Medium;
#METER:7;
#RADARVALUES:0.366,0.306,0.114,0.067,0.013,355.000,17.000,10.000,0.000,0.000,0.000,0.000,0.000,0.366,0.306,0.114,0.067,0.013,355.000,17.000,10.000,0.000,0.000,0.000,0.000,0.000;
#CREDIT:;
#NOTES:
// measure 0
0000
0000
0000
0000
,  // measure 1
0000
0000
0000
0000
,  // measure 2
1000
2000
0010
3020
,  // measure 3
0100
0230
0001
0302
,  // measure 4
0010
0023
0100
0230
,  // measure 5
1000
2300
0001
3001
,  // measure 6
1000
0000
0001
0000
1000
0001
1000
0000
,  // measure 7
0010
0000
0100
0000
0010
0010
0010
0000
,  // measure 8
0100
0100
0001
0001
,  // measure 9
0010
0000
0010
0000
0100
0010
0100
0000
,  // measure 10
1000
0000
0010
0000
0100
0010
0100
0010
,  // measure 11
0100
0000
0001
0000
0010
0001
0010
0001
,  // measure 12
0100
0010
1000
0001
,  // measure 13
1000
0000
0010
0000
0100
0010
0100
0000
,  // measure 14
0010
0000
1000
0000
0001
1000
0001
0000
,  // measure 15
0010
0100
1000
0010
,  // measure 16
0100
0010
0200
0310
,  // measure 17
2000
3100
0020
0031
,  // measure 18
0100
0000
0010
0000
1000
0010
1000
0000
,  // measure 19
0100
0000
0010
0000
0001
0010
0001
0000
,  // measure 20
0100
0000
0010
0000
0100
0010
0100
0000
,  // measure 21
0010
1000
1001
1001
,  // measure 22
1001
0001
0101
0010
,  // measure 23
1010
0100
0110
0100
,  // measure 24
1100
1000
1001
0001
,  // measure 25
0100
0000
0010
0000
0100
0010
0100
0000
,  // measure 26
1000
0010
1000
0000
0001
0000
0010
0000
,  // measure 27
0100
0010
0100
0000
1000
0100
1000
0100
,  // measure 28
1000
0010
1000
0010
0100
0010
0100
0010
,  // measure 29
0100
0001
0000
0001
,  // measure 30
1000
0001
1000
0000
0010
0000
1000
0000
,  // measure 31
0100
0010
0100
0000
1000
0100
1000
0000
,  // measure 32
0010
1000
0010
1000
0010
0100
0010
0100
,  // measure 33
0001
0100
0010
0000
,  // measure 34
1000
0000
0010
0000
1000
0001
1000
0000
,  // measure 35
0100
0010
0001
0100
,  // measure 36
0010
0100
0010
0000
0100
0000
0001
0000
,  // measure 37
0010
0001
0010
0000
0100
0000
1000
0000
,  // measure 38
0010
1000
0010
0000
0100
0000
0001
0000
,  // measure 39
1000
0001
0010
0100
,  // measure 40
1000
0100
1000
0100
1000
0000
0000
0000
,  // measure 41
0010
0100
0010
0100
0010
0000
0000
0000
,  // measure 42
0100
0001
0010
0001
,  // measure 43
0100
0010
0100
0110
,  // measure 44
0010
0000
0000
1000
0000
0000
0010
0000
0000
0000
1000
0000
0100
0000
0000
0000
,  // measure 45
0010
0000
0000
0001
0000
0000
0010
0000
0000
0000
0001
0000
0010
0000
0000
0000
,  // measure 46
0001
0000
0000
0100
0000
0000
0010
0000
0000
0000
0100
0000
0010
0000
0000
0000
,  // measure 47
0100
0000
0000
0010
0000
0000
1000
0000
0000
0000
0001
0000
1000
0000
0000
0000
,  // measure 48
0001
0000
1000
0000
0001
1000
0001
0000
,  // measure 49
0100
0000
0010
0000
0100
0010
0100
0000
,  // measure 50
0010
1000
0010
0000
0100
0001
0100
0000
,  // measure 51
0001
1000
0001
1000
0001
0000
1000
0000
,  // measure 52
0010
0000
1000
0000
0001
1000
0001
1000
,  // measure 53
0001
0000
0010
0000
0100
0010
0100
0010
,  // measure 54
0100
1000
0010
1000
,  // measure 55
0010
0000
0100
0000
0010
0100
0010
0000
,  // measure 56
0100
0000
0001
0000
0010
0001
0010
0000
,  // measure 57
0001
1000
1001
1010
,  // measure 58
0010
0100
0001
0100
,  // measure 59
0010
0100
0010
0000
1000
0000
0001
0000
,  // measure 60
1000
1001
0001
1001
,  // measure 61
0100
0110
0010
0110
,  // measure 62
1000
1000
0001
0001
,  // measure 63
1000
0001
1001
0000
,  // measure 64
0010
0100
0010
0100
0010
0000
1000
0000
,  // measure 65
0001
1000
0001
1000
0001
0000
0010
0000
,  // measure 66
0100
1000
0100
1000
0010
1000
0010
1000
,  // measure 67
0010
0100
0010
0010
,  // measure 68
0100
0001
0100
0100
,  // measure 69
0010
1000
0001
0001
,  // measure 70
1000
0001
0010
0010
,  // measure 71
0100
1000
0010
0010
,  // measure 72
0100
0001
0010
0010
,  // measure 73
0001
0100
0010
0010
,  // measure 74
1000
0010
1000
0000
0001
1000
0001
0000
,  // measure 75
0010
0100
1000
0001
,  // measure 76
1001
0000
0000
0000
;

//---------------dance-single - ----------------
#NOTEDATA:;
#CHARTNAME:;
#STEPSTYPE:dance-single;
#DESCRIPTION:;
#CHARTSTYLE:;
#DIFFICULTY:Easy;
#METER:4;
#RADARVALUES:0.228,0.255,0.020,0.000,0.000,235.000,3.000,0.000,0.000,0.000,0.000,0.000,0.000,0.228,0.255,0.020,0.000,0.000,235.000,3.000,0.000,0.000,0.000,0.000,0.000,0.000;
#CREDIT:;
#NOTES:
// measure 0
0000
0000
0000
0000
,  // measure 1
0000
0000
0000
0000
,  // measure 2
1000
0010
1000
0010
,  // measure 3
1000
0001
1000
0001
,  // measure 4
0010
0001
0010
0001
,  // measure 5
0010
0100
0010
0100
,  // measure 6
1000
0100
1000
1000
,  // measure 7
0010
0100
0010
0010
,  // measure 8
0100
0000
0001
0000
,  // measure 9
0010
0001
0010
0000
,  // measure 10
0100
1000
0100
1000
,  // measure 11
0010
0100
0010
0100
,  // measure 12
0001
0000
0010
0000
,  // measure 13
0100
1000
0010
1000
,  // measure 14
0010
0000
0100
0000
,  // measure 15
0001
0010
0001
0000
,  // measure 16
0100
0000
0010
0000
,  // measure 17
1000
0010
1000
0000
,  // measure 18
0001
0000
1000
0000
,  // measure 19
0001
0010
0100
0001
,  // measure 20
0100
0000
1000
0000
,  // measure 21
0010
0100
0010
0000
,  // measure 22
0100
0000
0001
0001
,  // measure 23
0010
0000
0100
0100
,  // measure 24
1000
0000
0010
0010
,  // measure 25
1000
1000
0001
1000
,  // measure 26
0001
0001
0100
0100
,  // measure 27
0010
0010
1000
1000
,  // measure 28
0001
0001
1000
1000
,  // measure 29
0001
1000
0000
0010
,  // measure 30
0100
0100
0001
0001
,  // measure 31
1000
1000
0001
0001
,  // measure 32
0010
0010
0100
0010
,  // measure 33
0100
0100
1000
0000
,  // measure 34
0010
0100
0001
0100
,  // measure 35
0010
1000
0001
1000
,  // measure 36
0010
0000
0100
0000
,  // measure 37
0001
0000
1000
0000
,  // measure 38
0100
0000
0010
0000
,  // measure 39
0001
1000
0001
1000
,  // measure 40
0010
0100
0010
0000
,  // measure 41
1000
0001
1000
0000
,  // measure 42
0100
0010
0100
0000
,  // measure 43
1000
0010
0100
0001
,  // measure 44
1000
0000
1000
0000
,  // measure 45
0001
0000
0001
0000
,  // measure 46
0010
0000
0010
0000
,  // measure 47
0100
0000
0100
0000
,  // measure 48
1000
0010
1000
1000
,  // measure 49
0001
1000
0001
0001
,  // measure 50
1000
0000
0010
0000
,  // measure 51
0100
0010
0100
0000
,  // measure 52
0001
0001
0010
0010
,  // measure 53
0001
0100
0010
0010
,  // measure 54
1000
1000
0100
0100
,  // measure 55
1000
0010
0110
0110
,  // measure 56
0001
0000
1000
0000
,  // measure 57
0010
0000
0100
0100
,  // measure 58
0100
0000
0001
0000
,  // measure 59
0010
0000
0100
0000
,  // measure 60
1000
1000
0001
0001
,  // measure 61
1000
0001
1000
1000
,  // measure 62
0010
0100
0010
0010
,  // measure 63
0100
0010
0110
0000
,  // measure 64
0100
0100
0000
0000
,  // measure 65
0001
0001
0000
0000
,  // measure 66
0010
0010
0100
0100
,  // measure 67
1000
0010
0100
0000
,  // measure 68
0010
0000
0010
0000
,  // measure 69
0100
0000
0100
0000
,  // measure 70
0001
0000
0001
0000
,  // measure 71
1000
0000
1000
0000
,  // measure 72
0010
0010
0100
0100
,  // measure 73
0010
0100
0001
0010
,  // measure 74
0100
1000
0001
0001
,  // measure 75
1000
1000
0001
1000
,  // measure 76
0001
0000
0000
0000
;

//---------------dance-single - ----------------
#NOTEDATA:;
#CHARTNAME:;
#STEPSTYPE:dance-single;
#DESCRIPTION:;
#CHARTSTYLE:;
#DIFFICULTY:Beginner;
#METER:1;
#RADARVALUES:0.089,0.102,0.000,0.000,0.000,93.000,0.000,0.000,0.000,0.000,0.000,0.000,0.000,0.089,0.102,0.000,0.000,0.000,93.000,0.000,0.000,0.000,0.000,0.000,0.000,0.000;
#CREDIT:;
#NOTES:
// measure 0
0000
0000
0000
0000
,  // measure 1
0000
0000
0000
0000
,  // measure 2
1000
0000
0000
0000
,  // measure 3
0001
0000
0000
0000
,  // measure 4
0100
0000
0000
0000
,  // measure 5
0010
0000
0000
0000
,  // measure 6
0100
0000
0000
0000
,  // measure 7
0000
0000
0000
0000
,  // measure 8
0001
0000
0000
0000
,  // measure 9
1000
0000
0000
0000
,  // measure 10
0010
0000
0010
0000
,  // measure 11
0100
0000
0100
0000
,  // measure 12
0001
0000
0001
0000
,  // measure 13
0010
0000
0100
0000
,  // measure 14
1000
0000
0000
0000
,  // measure 15
0001
0000
0000
0000
,  // measure 16
0100
0000
0000
0000
,  // measure 17
0010
0000
0010
0000
,  // measure 18
0010
0000
0000
0000
,  // measure 19
0100
0000
0000
0000
,  // measure 20
0001
0000
0000
0000
,  // measure 21
1000
0000
0000
0000
,  // measure 22
0010
0000
0010
0000
,  // measure 23
0010
0000
0010
0000
,  // measure 24
0100
0000
0100
0000
,  // measure 25
0100
0000
0000
0000
,  // measure 26
1000
0000
0000
0000
,  // measure 27
0001
0000
0000
0000
,  // measure 28
0001
0000
1000
0000
,  // measure 29
0001
0000
0000
0000
,  // measure 30
1000
0000
0000
0000
,  // measure 31
0010
0000
0000
0000
,  // measure 32
0100
0000
0001
0000
,  // measure 33
1000
0000
0000
0000
,  // measure 34
0001
0000
1000
0000
,  // measure 35
0001
0000
0000
0000
,  // measure 36
0100
0000
0100
0000
,  // measure 37
0010
0000
0010
0000
,  // measure 38
1000
0000
1000
0000
,  // measure 39
0001
0000
0001
0000
,  // measure 40
0010
0000
0000
0000
,  // measure 41
0100
0000
0000
0000
,  // measure 42
0010
0000
0000
0000
,  // measure 43
1000
0000
0001
0000
,  // measure 44
1000
0000
0000
0000
,  // measure 45
0001
0000
0000
0000
,  // measure 46
0100
0000
0000
0000
,  // measure 47
0001
0000
0000
0000
,  // measure 48
1000
0000
0000
0000
,  // measure 49
0000
0000
0000
0000
,  // measure 50
0010
0000
0000
0000
,  // measure 51
0000
0000
0000
0000
,  // measure 52
0010
0000
0000
0000
,  // measure 53
0100
0000
0000
0000
,  // measure 54
0001
0000
0000
0000
,  // measure 55
0001
0000
1000
0000
,  // measure 56
1000
0000
0000
0000
,  // measure 57
0010
0000
0000
0000
,  // measure 58
0100
0000
0000
0000
,  // measure 59
0100
0000
0000
0000
,  // measure 60
0100
0000
0000
0000
,  // measure 61
0001
0000
0000
0000
,  // measure 62
1000
0000
0000
0000
,  // measure 63
0001
0000
0000
0000
,  // measure 64
0010
0000
0000
0000
,  // measure 65
0100
0000
0000
0000
,  // measure 66
1000
0000
0001
0000
,  // measure 67
1000
0000
0000
0000
,  // measure 68
0010
0000
0000
0000
,  // measure 69
0010
0000
0000
0000
,  // measure 70
0010
0000
0000
0000
,  // measure 71
0100
0000
0100
0000
,  // measure 72
0001
0000
0000
0000
,  // measure 73
0010
0000
0100
0000
,  // measure 74
1000
0000
0000
0000
,  // measure 75
0001
0000
1000
0000
,  // measure 76
0001
0000
0000
0000
;
