#VERSION:0.81;
#TITLE:Baby! Baby! Baby!;
#SUBTITLE:;
#ARTIST:AKB48;
#TITLETRANSLIT:;
#SUBTITLETRANSLIT:;
#ARTISTTRANSLIT:;
#GENRE:;
#ORIGIN:;
#CREDIT:;
#BANNER:baby-banner.png;
#BACKGROUND:bg.png;
#PREVIEWVID:;
#JACKET:baby-jacket.png;
#CDIMAGE:;
#DISCIMAGE:;
#LYRICSPATH:;
#CDTITLE:;
#MUSIC:Baby! Baby! Baby!.ogg;
#OFFSET:-0.347;
#SAMPLESTART:7.410;
#SAMPLELENGTH:18.293;
#SELECTABLE:YES;
#BPMS:0.000=123.000;
#STOPS:88.000=0.244,
88.500=0.244,
155.000=1.098,
155.250=0.244,
155.500=0.244,
155.750=1.098,
156.000=0.122,
156.500=0.122;
#DELAYS:;
#WARPS:;
#TIMESIGNATURES:0.000=4=4,
88.000=3=4,
91.000=4=4,
155.000=2=4,
157.000=4=4;
#TICKCOUNTS:0.000=4;
#COMBOS:0.000=1;
#SPEEDS:0.000=1.000=0.000=0;
#SCROLLS:0.000=1.000;
#FAKES:;
#LABELS:0.000=Song Start;
#BGCHANGES:11.500=Baby! Baby! Baby!.avi=1.000=0=0=1===CrossFade_Faster==,
99999=-nosongbg-=1.000=0=0=0 // don't automatically add -songbackground-
;
#KEYSOUNDS:;
#ATTACKS:
;

//---------------dance-single - ----------------
#NOTEDATA:;
#CHARTNAME:;
#STEPSTYPE:dance-single;
#DESCRIPTION:;
#CHARTSTYLE:;
#DIFFICULTY:Hard;
#METER:12;
#RADARVALUES:0.593,0.860,0.154,0.219,0.389,466.000,19.000,27.000,0.000,0.000,0.000,0.000,0.000,0.593,0.860,0.154,0.219,0.389,466.000,19.000,27.000,0.000,0.000,0.000,0.000,0.000;
#CREDIT:;
#NOTES:
// measure 0
0000
0000
0000
0000
,  // measure 1
0000
0000
0000
0000
,  // measure 2
0000
0000
0000
0000
,  // measure 3
0000
0000
0000
0000
0000
1000
0010
0100
,  // measure 4
0001
0000
0010
0000
0001
0000
0100
0001
0000
0000
0100
0000
0010
0000
0100
0000
,  // measure 5
0010
0000
1000
0000
0100
0000
1000
0100
0000
0000
1000
0000
0010
0000
0100
0000
,  // measure 6
0010
1000
0100
0010
0001
0100
0001
0200
,  // measure 7
0000
0000
0320
0000
0000
0000
2030
0000
0000
0000
3100
0010
0100
1000
0001
1000
,  // measure 8
0001
0000
0100
0001
0100
0000
0001
0000
0010
0000
0100
0000
0001
0000
0100
0000
,  // measure 9
1000
0010
0100
0010
1000
0100
0010
0100
,  // measure 10
1000
0000
0010
1000
0000
0000
0010
0000
0100
0000
0010
0000
1000
0000
0100
0000
,  // measure 11
0000
0010
0100
1000
0000
0100
1000
0010
,  // measure 12
1010
0000
0010
0000
0110
0000
0100
0001
0000
0000
0010
0000
0000
0000
0001
0000
,  // measure 13
0100
0000
0001
0000
0010
0000
0100
1000
0000
0000
0100
0000
0000
0000
1000
0000
,  // measure 14
0010
0100
0010
1000
0100
0010
0100
1000
,  // measure 15
0000
0010
0000
0100
0000
0010
0100
0000
,  // measure 16
0010
1000
0100
0010
0001
0100
0001
0010
,  // measure 17
0110
1100
1010
0110
0000
0010
0100
0001
,  // measure 18
0100
0000
0001
0010
0000
0000
0001
0000
0100
0000
0010
0000
1000
0000
0100
0000
,  // measure 19
1000
0100
0010
0100
1000
0000
0010
0100
0001
0010
0001
0000
0100
0000
0000
0001
,  // measure 20
0010
0001
0100
0010
1000
0100
0010
0000
0100
1000
0000
0010
0000
0000
0100
0000
,  // measure 21
0010
1000
0010
1000
0010
0000
1000
0100
1000
0100
1000
0000
0010
0000
0000
1000
,  // measure 22
0001
0001
0100
0010
0100
0010
0100
0010
0100
0000
0000
0000
0001
0100
0001
0100
,  // measure 23
0000
0000
0001
0000
0000
0000
1000
0000
0000
0010
0100
0010
0100
0000
0001
0000
,  // measure 24
1000
0100
0000
0010
0001
0000
0000
0000
0100
0000
0010
0000
1000
0010
1000
0010
,  // measure 25
0000
0000
0100
0000
0000
0000
0010
0000
0000
0100
0001
0100
0001
0000
0010
0000
,  // measure 26
0001
1000
0000
0010
1000
0000
0000
0000
0010
0000
0100
0000
0001
0000
0100
0000
,  // measure 27
0000
0010
0100
0001
0000
0010
0100
0010
,  // measure 28
0001
0100
0010
0000
0100
0010
1000
0100
,  // measure 29
1000
0010
1000
0100
0010
1000
0010
0001
,  // measure 30
0100
0010
0110
0100
0101
0001
1001
1000
,  // measure 31
0010
0000
1000
0000
0100
0000
1000
0001
1000
0001
1000
0001
1000
0000
0001
0000
,  // measure 32
0100
0000
0010
0000
0100
0000
0001
0100
0001
0100
0001
0100
0001
0000
0010
0000
,  // measure 33
0001
0000
0100
0000
0010
0000
0100
0000
0001
0000
0100
0000
0000
0000
0010
0100
,  // measure 34
0010
0000
0100
0000
0010
0000
1000
0000
0100
0000
1000
0010
0001
0000
0000
0000
,  // measure 35
0010
2000
0000
3200
0000
0320
0000
0230
,  // measure 36
0000
0320
0000
0032
0000
0013
0001
1000
,  // measure 37
0010
0000
0100
0000
0001
0000
0010
0000
0001
0000
0100
0000
0010
0100
0000
0010
,  // measure 38
0100
0000
0000
0000
0010
0000
0100
0000
0000
0000
0000
0000
0010
0000
0000
0000
1000
0000
0000
0000
0100
0000
0000
0000
2002
3003
2020
3030
2200
3300
0220
0330
,  // measure 39
0022
0033
0000
0000
0202
0303
0000
0000
0010
0000
0000
0000
1000
0000
0000
0000
0100
0000
0000
0000
0010
0000
0000
0000
0100
0000
0000
0000
1000
0000
0000
0000
,  // measure 40
0010
0200
0000
0302
0000
0023
0000
0031
,  // measure 41
0100
0000
0010
1000
0100
0000
0010
0000
0100
0000
0010
0000
0001
0000
0100
0000
,  // measure 42
0010
1000
0010
0100
0010
1000
0100
0010
,  // measure 43
0001
0000
1000
0000
0100
0000
1000
0100
0000
0000
1000
0000
0010
0000
0100
0000
,  // measure 44
0001
0010
0000
0001
0100
0010
0000
0100
,  // measure 45
0010
0000
1000
0000
0100
0000
1000
0000
0010
0000
0100
0010
0000
0000
0100
0000
,  // measure 46
0000
0000
0001
0000
0010
0000
0001
0000
0100
0000
0010
0100
0000
0000
0001
0000
,  // measure 47
0000
0010
0100
0001
0100
1000
0010
0100
,  // measure 48
0010
2000
0000
3200
0000
0320
0000
0031
,  // measure 49
0100
0000
0010
0100
0010
0000
0100
0000
0001
0000
0010
0000
0100
0000
0010
0000
,  // measure 50
0001
0100
0110
0101
0011
0110
0000
0010
,  // measure 51
0100
0000
1000
0000
0010
0000
1000
0100
0000
0000
1000
0000
0010
0000
0100
0000
,  // measure 52
0001
0000
0010
0000
0001
0010
0001
0010
0001
0000
0100
0001
0100
0001
0100
0000
,  // measure 53
0010
0000
0000
1000
0010
1000
0100
0010
1000
0010
0001
0000
0100
0010
0000
0100
,  // measure 54
0000
0000
0001
0000
0010
0100
0010
0001
0100
0000
0010
0100
0001
0010
0100
0000
,  // measure 55
0010
0000
0000
0001
0100
0010
1000
0100
1000
0010
1000
0000
0100
0010
0000
1000
,  // measure 56
0000
0000
0010
0000
0001
0010
0000
0001
0010
0000
0001
0010
0000
0001
0010
0000
,  // measure 57
0001
0100
0001
0100
0010
0100
0000
0010
0100
0000
0010
0100
0000
0010
0100
0000
,  // measure 58
0010
1000
0010
1000
0010
0100
0000
0010
0100
0000
0010
0100
0000
0010
0100
0000
;

//---------------dance-single - ----------------
#NOTEDATA:;
#CHARTNAME:;
#STEPSTYPE:dance-single;
#DESCRIPTION:;
#CHARTSTYLE:;
#DIFFICULTY:Medium;
#METER:8;
#RADARVALUES:0.336,0.406,0.154,0.000,0.049,271.000,19.000,0.000,0.000,0.000,0.000,0.000,0.000,0.336,0.406,0.154,0.000,0.049,271.000,19.000,0.000,0.000,0.000,0.000,0.000,0.000;
#CREDIT:;
#NOTES:
0000
0000
0000
0000
,
0000
0000
0000
0000
,
0000
0000
0000
0000
,
0000
0000
0000
1000
,
0001
0000
0000
0000
1000
0000
0000
0001
0000
0000
1000
0000
0000
0000
0010
0000
,
0100
0000
0000
0000
0010
0000
0000
0100
0000
0000
0010
0000
0000
0000
0100
0000
,
0001
0000
0010
0000
0100
0000
1000
0100
,
0000
1000
0000
0010
0000
0100
0010
0100
,
0010
1000
0100
0010
,
0100
1000
0100
1000
0010
0000
0100
0000
,
0010
0000
0100
0000
0001
0000
0010
0001
,
0000
0100
0000
0010
0000
0100
0010
0000
,
1000
0010
1000
0100
,
0001
0100
1000
0100
,
0010
0000
0001
0000
0100
0001
0100
0000
,
0010
0000
1000
0000
0010
1000
0010
0000
,
1010
0000
0101
0000
,
0011
0000
0000
1100
0000
0000
0000
0000
,
1000
0000
0010
0000
0100
0010
0100
0000
,
0001
0100
0010
0100
,
0010
0000
0000
0000
1000
0000
0000
0000
0100
0000
0000
1000
0000
0000
0000
0000
,
0100
0000
0010
0000
0001
0010
0001
0000
,
0100
0010
1000
0001
1000
0000
0001
0000
,
0000
0100
0001
0000
0000
0100
0010
0000
,
1000
0100
0010
0100
,
1000
0010
1000
0100
,
0010
0100
0010
0000
0001
0000
1000
0000
,
0000
0010
1000
0000
0000
0010
0100
0010
,
0100
0000
0001
0000
0100
0000
0001
0010
,
0001
0000
0010
0100
0010
0000
0001
1000
,
0001
1000
0001
0000
1000
0000
0010
0000
,
0100
0010
0100
0001
,
0100
0001
0000
0010
0001
0000
0010
0000
,
0100
0001
0100
1000
,
0100
1000
0100
0000
1000
0000
0010
0000
,
0100
0010
0000
0100
0000
0001
0000
0010
,
0000
0100
0000
0001
0000
0100
1000
0000
,
0010
0000
0000
0000
0100
0000
0000
0000
0010
0000
0000
0000
1001
0000
0000
1001
,
0000
0000
1001
0000
0000
0000
0001
0000
0100
0000
0000
0000
0010
0100
0100
0100
,
0010
0010
0010
0000
0100
0000
0001
0100
,
0001
0000
0010
0000
0100
0000
1000
0100
,
1000
0000
0010
1000
0010
0000
0100
0010
,
0100
0000
0001
0100
0001
0100
0001
0010
,
0001
1000
0010
0100
,
0010
1000
0000
0100
0000
0010
0000
0001
,
0010
0001
0100
0001
,
0100
0010
0100
0010
,
0100
0000
0010
0000
1000
0000
0100
1000
,
0100
0000
0010
0000
0100
0000
1000
0001
,
1000
0000
0001
0000
0100
0000
0010
0100
,
0010
0000
1000
0100
1000
0100
0000
1000
,
0010
0000
1000
0000
0010
0000
0100
0001
,
0100
0000
0001
0010
0001
0010
0001
0010
,
0001
0000
0100
0001
0100
0001
0100
0001
,
0100
0000
0010
0100
0010
0100
0010
0100
,
0010
0000
1000
0100
1000
0100
1000
0100
,
1000
0000
0000
0000
1100
0000
0000
1100
0000
0000
1100
0000
0000
1100
0000
0000
,
0000
0000
0000
0000
1010
0000
0000
1010
0000
0000
1010
0000
0000
1010
0000
0000
,
0000
0000
0000
0000
0110
0000
0000
0110
0000
0000
0110
0000
0000
0110
0000
0000
;

//---------------dance-single - ----------------
#NOTEDATA:;
#CHARTNAME:;
#STEPSTYPE:dance-single;
#DESCRIPTION:;
#CHARTSTYLE:;
#DIFFICULTY:Easy;
#METER:3;
#RADARVALUES:0.152,0.189,0.024,0.000,0.004,128.000,3.000,0.000,0.000,0.000,0.000,0.000,0.000,0.152,0.189,0.024,0.000,0.004,128.000,3.000,0.000,0.000,0.000,0.000,0.000,0.000;
#CREDIT:;
#NOTES:
0000
0000
0000
0000
,
0000
0000
0000
0000
,
0000
0000
0000
0000
,
0000
0000
0000
1000
,
0001
0100
0001
0000
,
0100
0010
0100
0000
,
0010
1000
0100
0010
,
0100
1000
0100
0000
,
1000
0000
0010
0000
,
0100
0010
0100
0000
,
0001
0000
1000
0000
,
0001
1000
0001
0000
,
0010
0001
0010
0001
,
0100
0001
0100
0001
,
0100
0010
1000
0010
,
1000
0100
1000
0100
,
0010
0000
0100
0000
,
1000
0000
0000
0000
,
0010
0000
0100
0000
,
0001
0000
0000
0000
,
1000
0001
1000
0000
,
0001
0000
0000
0000
,
1000
0001
0000
1000
,
0000
0010
0000
0100
,
0000
0000
0000
0010
,
0000
0100
0000
0001
,
0000
0000
0000
0010
,
0000
0100
0000
0010
,
0000
0000
0000
0001
,
0000
0100
0000
0010
,
0000
0100
0010
0100
,
0000
0010
0000
1000
,
0000
0001
0000
1000
,
0001
1000
0000
0100
,
1000
0100
0000
0010
,
0000
0000
0000
0001
,
0000
0100
0000
0010
,
0000
0000
0000
1000
,
0010
0000
0000
0000
1000
0000
0000
0000
0000
0000
0000
0000
0001
0000
0000
1000
,
0000
0001
0100
0001
,
0000
0010
0000
0100
,
0000
1000
0010
1000
,
0000
0010
0000
0100
,
0000
0001
0000
0100
,
0000
0001
0000
0010
,
0000
0100
0010
0100
,
0000
1000
0100
1000
,
0000
0010
0000
1000
,
0000
0001
0000
1000
,
0000
0001
0001
1000
,
1000
0010
0000
0000
,
0000
0100
0000
0001
,
0000
0010
0001
0010
,
0000
0100
1000
0100
,
0000
1000
0000
0010
,
0000
0100
0000
0000
,
0000
0110
0000
0000
,
0000
1001
0000
0000
,
0000
0110
0000
0000
;

//---------------dance-single - ----------------
#NOTEDATA:;
#CHARTNAME:;
#STEPSTYPE:dance-single;
#DESCRIPTION:;
#CHARTSTYLE:;
#DIFFICULTY:Beginner;
#METER:1;
#RADARVALUES:0.093,0.118,0.008,0.000,0.000,79.000,1.000,0.000,0.000,0.000,0.000,0.000,0.000,0.093,0.118,0.008,0.000,0.000,79.000,1.000,0.000,0.000,0.000,0.000,0.000,0.000;
#CREDIT:;
#NOTES:
0000
0000
0000
0000
,
0000
0000
0000
0000
,
0000
0000
0000
0000
,
0000
0000
0000
0000
,
1000
0000
0000
0000
,
0010
0000
0000
0000
,
0100
0000
0100
0000
,
0100
0000
0000
0000
,
0001
0000
0000
0000
,
0010
0000
0000
0000
,
0100
0000
0100
0000
,
0100
0000
0000
0000
,
1000
0000
0000
0000
,
0010
0000
0000
0000
,
0100
0000
0000
0000
,
0010
0000
0000
0000
,
0100
0000
0000
0000
,
0001
0000
0000
0000
,
1000
0000
1000
0000
,
1000
0000
0000
0000
,
0001
0000
0001
0000
,
0001
0000
0000
0000
,
0010
0000
0000
0010
,
0000
0000
0000
0100
,
0000
0000
0000
0010
,
0000
0000
0000
0001
,
0000
0001
0000
0001
,
0000
0000
0000
0100
,
0000
0010
0000
0100
,
0000
0000
0000
0010
,
0000
0100
0100
0100
,
0000
0000
0000
0001
,
0000
0000
0000
0010
,
0000
0000
0000
0100
,
0000
0100
0000
0100
,
0000
0000
0000
1000
,
0000
0010
0000
1000
,
0000
0000
0000
0001
,
0001
0001
0000
1000
,
0000
0001
0000
1000
,
0000
0010
0010
0010
,
0000
0100
0000
0010
,
0000
0100
0000
0100
,
0000
0001
0000
1000
,
0000
1001
0000
0000
,
0000
0001
0000
0001
,
0000
1000
0000
1000
,
0000
0010
0000
0010
,
0000
0100
0000
0100
,
0000
0010
0000
0000
,
0000
0100
0000
0000
,
0000
0001
0000
1000
,
0000
0001
0000
0000
,
0000
0100
0000
0000
,
0000
0100
0000
0000
,
0000
0010
0000
0000
,
0000
1000
0000
0000
,
0000
0100
0000
0000
,
0000
0001
0000
0000
;
