#VERSION:0.81;
#TITLE:Anything Could Happen;
#SUBTITLE:(Blood Diamonds Remix);
#ARTIST:Ellie Goulding;
#TITLETRANSLIT:;
#SUBTITLETRANSLIT:;
#ARTISTTRANSLIT:;
#GENRE:;
#ORIGIN:;
#CREDIT:;
#BANNER:anything-banner.png;
#BACKGROUND:;
#PREVIEWVID:;
#JACKET:anything-jacket.png;
#CDIMAGE:AlbumArt_{4861A59A-1103-4A1D-A798-7E4F199170B3}_Small.jpg;
#DISCIMAGE:;
#LYRICSPATH:;
#CDTITLE:;
#MUSIC:Anything Could Happen (Blood Diamonds Remix).ogg;
#OFFSET:-0.226;
#SAMPLESTART:54.400;
#SAMPLELENGTH:22.718;
#SELECTABLE:YES;
#BPMS:0.000=103.000,
15.000=206.000,
48.000=103.000,
60.000=51.500,
62.000=103.000,
126.000=206.000,
254.000=103.000;
#STOPS:15.000=0.291;
#DELAYS:;
#WARPS:;
#TIMESIGNATURES:0.000=4=4,
60.000=2=4,
62.000=4=4;
#TICKCOUNTS:0.000=4;
#COMBOS:0.000=1;
#SPEEDS:0.000=1.000=0.000=0;
#SCROLLS:0.000=1.000;
#FAKES:;
#LABELS:0.000=Song Start;
#BGCHANGES:;
#KEYSOUNDS:;
#ATTACKS:
;

//---------------dance-single - ----------------
#NOTEDATA:;
#CHARTNAME:;
#STEPSTYPE:dance-single;
#DESCRIPTION:;
#CHARTSTYLE:;
#DIFFICULTY:Hard;
#METER:14;
#RADARVALUES:0.632,0.918,0.086,0.250,0.262,523.000,11.000,32.000,0.000,0.000,0.000,0.000,0.000,0.632,0.918,0.086,0.250,0.262,523.000,11.000,32.000,0.000,0.000,0.000,0.000,0.000;
#CREDIT:;
#NOTES:
0000
0000
0000
0000
,
0000
0000
0000
0000
,
0000
0001
0000
1000
0000
0010
0000
0100
,
0000
0001
0000
0010
0000
0100
1000
0000
,
1000
0010
1000
0100
0010
0100
1000
0010
,
0100
0001
0010
0001
0100
0001
0010
0100
,
0001
0100
1000
0010
0100
1000
0100
0001
,
0010
0001
0100
0001
0010
0100
1000
0010
,
0100
0010
0100
0010
1000
0100
0010
0100
,
1000
0010
0100
0001
0010
0001
0100
0001
,
0010
0100
0001
0100
1000
0010
0100
1000
,
0100
0001
0010
0100
1000
0010
0100
0001
,
0010
0000
0000
0001
0100
0000
0001
0000
0000
0000
0010
0000
0100
0000
0000
0000
,
1000
0000
0000
0010
1000
0000
0010
0000
0000
0000
0100
0000
1000
0000
0100
0000
,
0001
0000
0000
0010
0001
0000
0010
0000
0100
0000
1000
0000
0010
0000
0100
0000
,
0010
0000
0000
0000
0000
0000
0000
0000
0100
0000
0000
0100
0000
0000
0100
0000
0001
0000
0000
0000
0100
0000
0001
0000
0100
0000
0000
0000
0010
0000
0000
0000
,
1000
0000
0100
0000
0010
0000
0001
0000
0100
0000
0010
0100
0010
0000
0100
0000
,
0001
0000
0010
0000
0100
0000
0010
0000
0001
0000
0100
0001
0100
0000
0010
0000
,
0100
0010
1000
0100
1000
0010
0100
0001
,
0010
0000
0100
0000
0020
0000
0000
0000
0031
0000
0100
0010
0100
0000
0010
0000
,
1000
0000
0100
0000
0001
0000
0100
0000
1000
0000
0010
1000
0010
0000
1000
0000
,
0100
0000
0010
0000
0100
0000
1000
0000
0010
0000
1000
0010
1000
0000
0010
0000
,
0100
0001
0010
0001
0100
0000
0010
1000
,
0001
0010
0100
1000
0002
0000
0203
0000
,
0320
0000
2030
0000
3100
0010
0100
1000
,
0010
0100
0001
0010
0001
0100
0001
0010
,
0001
0100
0001
0010
0100
1000
0100
1000
,
0010
0000
0100
0000
0010
0100
0010
0000
0010
0000
1000
0100
0010
0000
0100
0000
,
1000
0000
0010
0000
0100
0000
0001
0000
0010
0000
0001
0010
0100
0000
0010
0000
,
0100
0000
1000
0000
0010
0000
0100
0000
1000
0000
0100
0001
1000
0000
0001
0000
,
0010
0000
0001
0000
0100
0000
0010
0000
1000
0000
0100
1000
0010
0000
1000
0000
,
0010
0000
0100
0000
0010
0100
0001
0000
1000
0000
0010
0000
1000
0000
0100
0000
,
0010
0001
1000
0000
0201
0000
0301
0000
,
0021
0000
0031
0000
0010
0100
1000
0010
,
0100
0001
0010
0000
1200
0000
1300
0000
,
1020
0000
1030
0000
0010
1000
0001
0100
,
0001
1000
0100
0000
0210
0000
0310
0000
,
0012
0000
0013
0000
0001
0100
0010
1000
,
0010
1000
0100
0000
0020
0000
0032
0000
,
0203
0000
0320
0000
1030
0100
1000
0010
,
0100
0010
1000
0000
0100
0010
0100
1000
,
0010
0100
0001
0000
0010
0001
0100
0001
,
0010
0100
1000
0000
1000
0010
0100
0010
,
1000
0100
0010
0000
0100
0000
1000
0000
,
0010
0000
0100
0000
0010
0100
0010
0000
,
0100
0000
0001
0000
0010
0001
0100
0001
,
0010
0100
1000
0000
1000
0100
0010
0100
,
1000
0010
0100
0000
0001
0000
0010
0000
,
0100
1000
2010
0001
,
0010
3100
0010
0100
,
0001
0010
0201
1000
,
0001
0000
0010
0300
0010
0000
1000
0000
,
0100
1000
0210
0001
,
0010
0301
1000
0100
,
1000
0010
0110
0010
,
1100
0000
0100
0000
0010
0001
0100
0000
,
0001
0100
0010
0000
0100
0010
1000
0100
,
0010
0100
1000
0000
0010
0100
0010
0000
,
1000
0010
1000
0000
0100
0010
0100
1000
,
0010
0100
0001
0000
0010
0001
0100
0000
,
0001
0010
0100
0000
0010
0100
1000
0010
,
0100
0010
1000
0000
0010
0000
0100
0000
,
0001
0010
0100
1000
,
0010
0000
0000
0000
0100
0000
0000
0000
0010
0100
0010
0100
0010
1000
0010
1000
,
0100
1000
0100
1000
0100
1000
0100
1000
0100
0010
0100
0010
0001
0010
0001
0010
,
0100
0010
0100
0010
0100
0010
0100
0010
0100
1000
0100
1000
0010
1000
0010
1000
,
0010
0100
0010
0100
0010
0100
0010
0100
0010
0100
0001
0100
0001
0010
0001
0010
,
0001
0010
0100
0010
0100
0010
0100
0000
2000
0000
0000
0000
3020
0000
0000
0000
,
0230
0000
0000
0302
0000
0000
0203
0000
0302
0000
0000
0000
0023
0000
0000
0000
,
0230
0000
0000
2300
0000
0000
3020
0000
2030
0000
0000
0000
3020
0000
0000
0000
,
0230
0000
0000
0302
0000
0000
0013
0000
0100
0000
1000
0000
0010
0000
0100
0000
,
0010
0000
1000
0000
0001
0000
0100
0000
0010
1000
0100
0010
0100
1000
0010
0100
,
0001
0010
0001
0100
0001
0010
0100
0001
0100
1000
0010
0100
0010
1000
0010
0100
,
0001
1000
0100
0010
0001
0100
0010
1000
0000
0000
0000
0000
0000
0000
0000
0000
;

//---------------dance-single - ----------------
#NOTEDATA:;
#CHARTNAME:;
#STEPSTYPE:dance-single;
#DESCRIPTION:;
#CHARTSTYLE:;
#DIFFICULTY:Medium;
#METER:11;
#RADARVALUES:0.402,0.458,0.000,0.180,0.008,337.000,0.000,23.000,0.000,0.000,0.000,0.000,0.000,0.402,0.458,0.000,0.180,0.008,337.000,0.000,23.000,0.000,0.000,0.000,0.000,0.000;
#CREDIT:;
#NOTES:
0000
0000
0000
0000
,
0000
0000
0000
0000
,
0000
0000
0000
0000
,
0000
0000
0000
0000
,
1000
0010
1000
0100
,
0010
0000
0100
0000
1000
0100
1000
0000
,
0010
0100
0010
0100
,
0001
0000
0010
0000
0001
0010
0001
0000
,
0010
0100
0001
0100
,
1000
0000
0010
0000
0100
0010
0100
0000
,
0010
0000
1000
0000
0100
1000
0010
0000
,
0100
0010
0100
0001
,
1000
0100
0010
0100
,
1000
0100
1000
0010
0100
0000
0001
0000
,
0010
0000
0100
0010
0100
0000
1000
0000
,
0010
0000
1000
1000
1000
0000
0001
0000
,
0100
0000
0001
0000
0010
0000
0001
0100
,
0001
0000
0100
0010
0100
0000
0010
1000
,
0010
0000
1000
0000
0100
0000
0010
0100
,
0010
0100
2000
3020
,
0230
0302
0023
0230
,
2300
0000
3010
1000
0010
0000
0100
0000
,
0001
0010
0100
1000
,
0001
1000
0001
1000
0002
0000
0203
0000
,
0320
0000
0230
0000
0301
0010
0100
0000
,
0001
0100
1000
0000
0010
0000
0100
0000
,
0010
0000
0100
0000
0001
0100
0001
0010
,
0100
0000
0010
0000
0001
0100
0001
0000
,
0100
0010
0100
0000
0001
0010
0001
0000
,
0100
0000
0010
0000
1000
0010
1000
0000
,
0100
0000
0010
0000
0001
0010
0001
0000
,
0100
0000
0010
0000
0100
0010
0100
0000
0010
0000
0000
0000
1000
0000
0000
0000
,
0100
0010
0002
1000
,
1000
1000
1003
0010
,
1000
0100
0020
0100
,
0100
0100
0130
1000
,
0010
0100
0200
0010
,
0010
0010
0310
0010
,
0100
0010
1000
0100
,
0010
0001
0100
0001
,
0010
0000
0100
0000
0010
0100
0010
0000
,
0100
0010
0100
0000
1000
0000
0010
0000
,
0100
0000
0001
0000
0100
0001
0100
0000
,
0001
0100
0001
0000
0010
0000
0100
0000
,
1000
0010
0100
0100
,
0010
0010
1000
0100
,
0010
0100
1000
0000
,
0010
0000
1000
1000
,
1000
2000
0010
0010
,
0010
3020
0100
0100
,
0100
0230
0001
0001
,
0001
0302
0010
0010
,
0010
0023
0100
0100
,
0100
0230
0001
0001
,
0001
0302
0100
0203
,
1300
2000
3010
0000
,
0100
0000
0001
0000
,
0010
0001
0010
0000
0100
0000
0000
0000
,
1000
0000
0010
0000
,
1000
0010
1000
0000
0010
0000
0000
0000
,
0100
0000
0001
0000
,
1000
0001
1000
0000
0100
0000
1000
0000
,
0010
1000
0010
0000
1000
0000
0010
0000
,
0100
0000
0001
0000
1000
0010
1000
0100
,
0010
0100
1000
0010
0100
0001
0010
0001
,
0100
0010
0100
0001
0010
0000
0100
0000
,
1000
0000
0000
0010
0000
0000
0100
0000
0001
0000
0010
0000
0100
0000
1000
0000
,
0100
1000
0010
0000
0001
0100
0001
0100
,
0010
0100
0010
0100
0010
1000
0010
1000
,
0010
1000
0010
1000
0100
1000
0100
1000
,
0100
0010
0100
0010
0100
0010
0001
0100
,
0010
1000
0010
1000
0001
1000
0001
1000
,
0010
1000
0010
1000
0010
0100
0001
0010
,
0100
1000
0001
0000
0000
0000
0000
0000
;

//---------------dance-single - ----------------
#NOTEDATA:;
#CHARTNAME:;
#STEPSTYPE:dance-single;
#DESCRIPTION:;
#CHARTSTYLE:;
#DIFFICULTY:Easy;
#METER:6;
#RADARVALUES:0.243,0.227,0.000,0.047,0.000,212.000,0.000,6.000,0.000,0.000,0.000,0.000,0.000,0.243,0.227,0.000,0.047,0.000,212.000,0.000,6.000,0.000,0.000,0.000,0.000,0.000;
#CREDIT:;
#NOTES:
0000
0000
0000
0000
,
0000
0000
0000
0000
,
0000
0000
0000
0000
,
0000
0000
0000
0000
,
0001
0100
0001
0010
,
0100
1000
0010
1000
,
0100
0010
0100
1000
,
0010
0100
0001
0010
,
0001
0100
0001
0010
,
0001
0100
0010
0100
,
0010
1000
0010
1000
,
0100
1000
0010
0100
,
0001
0100
0010
0100
,
0001
0100
0001
0010
,
0100
0000
1000
0010
,
1000
0001
0100
0001
,
0010
0000
0100
1000
,
0001
0000
0100
0000
,
0010
0000
1000
0000
,
0001
1000
0001
0100
,
0001
0010
0100
1000
,
0010
0100
0010
0000
,
0100
0000
0001
0100
,
0001
0010
0100
1000
,
0001
1000
0010
0100
,
0001
0010
0100
0100
,
1000
1000
0010
0100
,
0001
0100
0010
0000
,
0100
0001
1000
0000
,
0001
0000
1000
0000
0001
1000
0000
0000
,
0010
0000
0100
0000
0010
0100
0000
0000
,
0001
0010
0001
0100
,
0001
0000
0100
0010
,
0100
0000
0010
1000
,
0010
0000
1000
0100
,
1000
0000
0001
1000
,
0001
0000
0100
0010
,
0100
0000
0010
1000
,
0010
0000
1000
0100
,
0010
0100
1000
0010
,
0100
0001
0100
0000
,
0010
0000
0100
0010
,
1000
0100
1000
0000
,
0010
0000
0100
0001
,
0010
0000
0001
0000
,
0100
0000
0010
0100
,
0010
0100
0010
0000
,
1000
0000
2000
0000
,
0010
0000
0010
0000
,
0010
3000
0002
0000
,
0100
0000
0100
0000
,
0103
0000
0020
0000
,
0100
0000
0100
0000
,
0130
0000
0002
0000
,
1000
0000
2003
0000
,
3002
0000
1003
0000
,
0010
0000
0100
0000
,
0010
0000
0100
0000
,
0001
0000
0010
0000
,
0100
0000
1000
0000
,
0010
0000
0100
0000
,
0010
0000
0100
0000
,
0001
0000
1000
0000
,
0001
0000
1000
0010
,
0100
0010
0100
0001
,
0010
0100
0010
0000
,
0100
0000
1000
0000
,
0001
1000
0010
0100
,
0001
0100
0001
0010
,
0100
0010
0100
1000
,
0001
0100
0010
0100
,
0001
0010
0100
0000
,
1000
0000
0010
0000
;

//---------------dance-single - ----------------
#NOTEDATA:;
#CHARTNAME:;
#STEPSTYPE:dance-single;
#DESCRIPTION:;
#CHARTSTYLE:;
#DIFFICULTY:Beginner;
#METER:2;
#RADARVALUES:0.105,0.142,0.000,0.000,0.000,94.000,0.000,0.000,0.000,0.000,0.000,0.000,0.000,0.105,0.142,0.000,0.000,0.000,94.000,0.000,0.000,0.000,0.000,0.000,0.000,0.000;
#CREDIT:;
#NOTES:
// measure 0
0000
0000
0000
0000
,  // measure 1
0000
0000
0000
0000
,  // measure 2
0000
0000
0000
0000
,  // measure 3
0000
0000
0000
0000
,  // measure 4
0010
0000
0000
0000
,  // measure 5
0100
0000
0000
0000
,  // measure 6
0001
0000
0000
0000
,  // measure 7
0010
0000
0000
0000
,  // measure 8
0100
0000
0000
0000
,  // measure 9
1000
0000
0000
0000
,  // measure 10
0010
0000
0000
0000
,  // measure 11
1000
0000
0000
0000
,  // measure 12
0001
0000
0100
0000
,  // measure 13
0001
0000
0010
0000
,  // measure 14
0100
0000
1000
0000
,  // measure 15
0010
0000
0100
0000
,  // measure 16
0000
0000
0010
0000
,  // measure 17
0000
0000
1000
0000
,  // measure 18
0000
0000
0001
0000
,  // measure 19
0100
0100
0100
0000
,  // measure 20
0010
0000
1000
0000
,  // measure 21
0100
0000
1000
0000
,  // measure 22
0000
0000
0001
0000
,  // measure 23
0000
0000
0100
0000
,  // measure 24
0010
0000
0100
0000
,  // measure 25
0001
0001
0001
0000
,  // measure 26
0100
0000
0010
0000
,  // measure 27
1000
0000
1000
0000
,  // measure 28
0001
0000
1000
0000
,  // measure 29
0010
0000
0010
0000
,  // measure 30
0100
0000
0100
0000
,  // measure 31
0001
0000
0010
0000
,  // measure 32
0000
0000
0100
0000
,  // measure 33
0000
0000
1000
0000
,  // measure 34
0000
0000
0010
0000
,  // measure 35
0000
0000
0100
0000
,  // measure 36
0000
0000
0001
0000
,  // measure 37
0000
0000
1000
0000
,  // measure 38
0000
0000
0001
0000
,  // measure 39
0000
0000
1000
0000
,  // measure 40
0000
0000
1000
0000
,  // measure 41
0000
0000
0010
0000
,  // measure 42
0000
0000
0010
0000
,  // measure 43
0000
0000
0100
0000
,  // measure 44
0000
0000
0001
0000
,  // measure 45
0000
0000
0100
0000
,  // measure 46
0000
0000
0010
0000
,  // measure 47
0000
0000
0100
0000
,  // measure 48
0000
0000
0000
0000
,  // measure 49
0000
0000
0001
0000
,  // measure 50
0000
0000
0000
0000
,  // measure 51
0000
0000
1000
0000
,  // measure 52
0000
0000
0000
0000
,  // measure 53
0000
0000
0100
0000
,  // measure 54
0000
0000
1000
0000
,  // measure 55
0010
0000
1000
0000
,  // measure 56
0000
0000
0010
0000
,  // measure 57
0000
0000
0100
0000
,  // measure 58
0000
0000
0010
0000
,  // measure 59
0000
0000
0100
0000
,  // measure 60
0000
0000
0010
0000
,  // measure 61
0000
0000
0100
0000
,  // measure 62
0001
0000
0100
0000
,  // measure 63
0001
0000
0100
0000
,  // measure 64
0001
0000
0010
0000
,  // measure 65
0000
0000
0100
0000
,  // measure 66
1000
0000
0001
0000
,  // measure 67
0000
0000
1000
0000
,  // measure 68
0100
0000
1000
0000
,  // measure 69
0010
0000
0100
0000
,  // measure 70
0010
0000
0100
0000
,  // measure 71
0001
0001
0001
0000
,  // measure 72
1000
0000
0001
0000
;
